<?xml version="1.0" standalone="no"?>
<!DOCTYPE svg PUBLIC "-//W3C//DTD SVG 1.1//EN" "http://www.w3.org/Graphics/SVG/1.1/DTD/svg11.dtd" >
<svg xmlns="http://www.w3.org/2000/svg">
<metadata>
Created by FontPrep 20130207 at Sat Mar  7 03:55:49 2015
 By Jefry
Copyright (c) 2011 By Svetoslav Simov (c) Fontfabric, LLC. All rights reserved.
</metadata>
<defs>
<font id="914af12d7d926c76a495fe38f6b38d18" horiz-adv-x='1024' >
  <font-face 
    font-family="Code-Pro"
    font-weight="400"
    font-stretch="normal"
    units-per-em="2048"
    panose-1="2 0 0 0 0 0 0 0 0 0"
    ascent="1536"
    descent="-512"
    x-height="1432"
    cap-height="1434"
    bbox="-252 -478.894 3463 1845"
    underline-thickness="102"
    underline-position="-102"
    unicode-range="U+0020-FB04"
  />
<missing-glyph horiz-adv-x="1126" 
d="M215 102h696l-348 523zM154 195l348 522l-348 522v-1044zM625 717l348 -522v1044zM563 809l348 522h-696zM51 0v1434h1024v-1434h-1024z" />
    <glyph glyph-name="f_f" unicode="ff" horiz-adv-x="1908" 
d="M1153 612v-612h-207v1434h854v-201h-647v-428h573v-193h-573zM272 612v-612h-206v1434h782v-201h-576v-428h574v-193h-574z" />
    <glyph glyph-name="fi" unicode="fi" horiz-adv-x="1615" 
d="M1497 1432v-205h-266v-1032h266v-195h-739v195h266v1237h473zM281 612v-612h-207v1432h854v-207h-647v-404h573v-209h-573z" />
    <glyph glyph-name="fl" unicode="fl" horiz-adv-x="2004" 
d="M1225 1432v-1225h673v-207h-880v1432h207zM291 612v-612h-207v1432h854v-207h-647v-404h573v-209h-573z" />
    <glyph glyph-name="f_f_i" unicode="ffi" horiz-adv-x="2480" 
d="M2367 1434v-205h-266v-1034h266v-195h-739v195h266v1239h473zM1153 612v-612h-207v1434h854v-201h-647v-428h573v-193h-573zM272 612v-612h-206v1434h782v-201h-576v-428h574v-193h-574z" />
    <glyph glyph-name="f_f_l" unicode="ffl" horiz-adv-x="2871" 
d="M2097 1432v-1225h674v-207h-881v1432h207zM1153 612v-612h-207v1434h854v-201h-647v-428h573v-193h-573zM272 612v-612h-206v1434h782v-201h-576v-428h574v-193h-574z" />
    <glyph glyph-name="f_j" unicode="fj" horiz-adv-x="1699" 
d="M1554 1432v-811q0 -325 -175 -473t-582 -148v195q307 0 429 101t122 325v622h-387v189h593zM289 612v-612h-207v1434h776v-195h-569v-434h557v-193h-557z" />
    <glyph glyph-name=".notdef" horiz-adv-x="1126" 
d="M215 102h696l-348 523zM154 195l348 522l-348 522v-1044zM625 717l348 -522v1044zM563 809l348 522h-696zM51 0v1434h1024v-1434h-1024z" />
    <glyph glyph-name=".null" horiz-adv-x="0" 
 />
    <glyph glyph-name="nonmarkingreturn" horiz-adv-x="681" 
 />
    <glyph glyph-name="space" unicode=" " horiz-adv-x="509" 
 />
    <glyph glyph-name="exclam" unicode="!" horiz-adv-x="563" 
d="M123 112q0 52 36 88t91 36t91 -36t36 -88t-37 -88t-90 -36t-90 36t-37 88zM143 1434h215v-1119h-215v1119z" />
    <glyph glyph-name="quotedbl" unicode="&#x22;" horiz-adv-x="671" 
d="M352 1432h199v-508h-199v508zM66 1432h198v-508h-198v508z" />
    <glyph glyph-name="numbersign" unicode="#" horiz-adv-x="1200" 
d="M700 821h-198q-6 -41 -16 -117t-17 -110h201q6 38 15 114t15 113zM1079 1016l-4 -195h-182q-4 -29 -17 -105t-20 -122h156l-4 -193h-181l-61 -399h-188l59 399h-199l-65 -399h-191l62 399h-174l4 193h200q6 39 16 115q9 76 15 112h-170l4 195h197l63 399h195l-62 -399
h199l64 399h188l-59 -399h155z" />
    <glyph glyph-name="dollar" unicode="$" horiz-adv-x="1208" 
d="M295 1141h-2q-63 -99 -8 -201t176 -100v395q-117 -28 -166 -94zM666 608v-409q127 -5 188 103t9 212t-197 94zM461 1552h205v-110q152 -27 260 -114t127 -238l-203 -21q-14 63 -66 109t-118 55v-418q182 -6 303 -102t121 -289t-116 -289t-308 -133v-125h-205v125
q-158 27 -279 125t-137 252v14l207 2l2 -2q14 -63 76 -119t131 -75v432q-119 -12 -217 46q-200 119 -190 364q5 118 79 219q115 149 328 182v110z" />
    <glyph glyph-name="percent" unicode="%" horiz-adv-x="1622" 
d="M1319 336q0 72 -47 122t-115 50t-115 -50t-47 -122t47 -121t116 -49t115 49t46 121zM1509 337q0 -143 -103 -245q-102 -102 -248 -102t-249 101q-102 101 -102 245t102 246q101 102 247 102t250 -101q103 -102 103 -246zM571 1079q0 72 -47 122q-46 50 -114 50t-114 -50
t-46 -122t46 -121t115 -49t115 49t45 121zM1130 1417h236l-934 -1435h-233zM762 1080q0 -144 -104 -245t-247 -101t-247 100q-104 102 -104 246t102 246q104 102 248 101q144 1 248 -101t104 -246z" />
    <glyph glyph-name="ampersand" unicode="&#x26;" horiz-adv-x="1359" 
d="M564 1255q-64 0 -112 -43t-49 -106q0 -90 113 -215q199 111 199 225q0 59 -43 99q-44 40 -108 40zM260 416q0 -102 76 -167t182 -65q137 0 258 150l-317 332q-199 -121 -199 -250zM1282 2h-213l-164 182q-172 -201 -403 -200q-193 0 -321 118t-128 310q0 96 40 173
t92 122t137 98q-132 159 -132 307t113 242t260 94t251 -93t106 -227q0 -134 -70 -217q-70 -82 -191 -147l234 -244l94 162l178 -92l-135 -230l252 -278v-80z" />
    <glyph glyph-name="quotesingle" unicode="'" horiz-adv-x="407" 
d="M76 1434h198v-508h-198v508z" />
    <glyph glyph-name="parenleft" unicode="(" horiz-adv-x="772" 
d="M293 716q0 -234 105 -446t307 -344v-235q-299 164 -460 437q-161 274 -161 578t159 578t462 449v-224l-15 -22q-190 -121 -294 -329t-103 -442z" />
    <glyph glyph-name="parenright" unicode=")" horiz-adv-x="800" 
d="M438 711q0 225 -115 448q-116 223 -307 338v234q283 -147 456 -431t173 -588t-173 -588t-456 -433v225q190 114 306 342t116 453z" />
    <glyph glyph-name="asterisk" unicode="*" horiz-adv-x="872" 
d="M330 1190l-2 254h170l-4 -254l239 80l51 -156l-243 -74l155 -204l-135 -99l-149 215l-148 -215l-135 99l152 204q-188 59 -240 74l49 156z" />
    <glyph glyph-name="plus" unicode="+" horiz-adv-x="1159" 
d="M86 598v184h363v408h198v-408h371v-184h-371v-410h-198v410h-363z" />
    <glyph glyph-name="comma" unicode="," horiz-adv-x="479" 
d="M178 -205h-188l149 377h230z" />
    <glyph glyph-name="hyphen" unicode="-" horiz-adv-x="937" 
d="M164 551v170h553v-170h-553z" />
    <glyph glyph-name="period" unicode="." horiz-adv-x="401" 
d="M161 246q54 0 90 -35t36 -88t-37 -91t-89 -38t-89 39t-37 90t36 87t90 36z" />
    <glyph glyph-name="slash" unicode="/" horiz-adv-x="899" 
d="M827 1593l-587 -1726h-201l590 1726h198z" />
    <glyph glyph-name="zero" unicode="0" horiz-adv-x="1236" 
d="M588 -14q-134 0 -240 62q-198 115 -272 398q-35 129 -35 294t58 328q59 164 187 272t302 108t302 -109q245 -208 247 -624q1 -188 -59 -351q-60 -162 -188 -270t-302 -108zM924 719q0 225 -85 375t-250 149q-165 1 -249 -149t-84 -375t84 -378t248 -153t250 153t86 378z
" />
    <glyph glyph-name="one" unicode="1" horiz-adv-x="718" 
d="M571 0h-204v1044l-193 -262l-156 113l388 545h165v-1440z" />
    <glyph glyph-name="two" unicode="2" horiz-adv-x="1185" 
d="M563 1462q156 0 277 -63t177 -165t66 -216q10 -115 -47 -230t-170 -192l-463 -397h658v-199h-1006v160l674 594h-2q111 80 133 200t-58 210q-82 91 -224 91q-142 1 -216 -73t-92 -201l-207 16q29 205 158 335t342 130z" />
    <glyph glyph-name="three" unicode="3" horiz-adv-x="1161" 
d="M371 639v188h215q98 0 147 66t49 161t-79 145t-179 50t-171 -46t-89 -126l-186 45q37 156 159 240t295 84t313 -101t141 -309t-130 -295q188 -111 184 -344q-2 -168 -138 -292q-136 -123 -366 -123t-351 106q-122 106 -148 268l192 35q14 -92 90 -154q75 -63 219 -63
t226 73t82 166t-66 159t-194 67h-215z" />
    <glyph glyph-name="four" unicode="4" horiz-adv-x="1187" 
d="M756 520v555l-449 -555h449zM956 1434v-910h117v-200h-117v-324h-204v324h-715v145l760 965h159z" />
    <glyph glyph-name="five" unicode="5" horiz-adv-x="1185" 
d="M68 1440h913v-201h-705v-287q258 84 486 -8q143 -59 221 -179t80 -265q2 -204 -137 -352t-387 -148q-361 0 -490 326l191 77q96 -195 299 -194q153 0 235 86t80 205q0 78 -44 148t-122 104q-250 102 -504 -47l-116 53v682z" />
    <glyph glyph-name="six" unicode="6" horiz-adv-x="1208" 
d="M1087 492q0 -200 -138 -346t-384 -146t-384 146t-138 346q0 153 88 286l467 656h254l-350 -494q78 29 176 23t172 -48q115 -67 176 -181t61 -242zM881 492q0 118 -82 202t-233 84q-152 0 -234 -85t-82 -201t83 -200q83 -83 233 -83t233 83q82 83 82 200z" />
    <glyph glyph-name="seven" unicode="7" horiz-adv-x="1140" 
d="M47 1434h1010v-142l-707 -1292h-237l671 1231h-737v203z" />
    <glyph glyph-name="eight" unicode="8" horiz-adv-x="1193" 
d="M1018 1053q0 -86 -49 -176t-131 -127q119 -46 180 -140t61 -198q0 -174 -137 -303t-382 -129t-381 124t-136 308q0 100 66 193t182 145q-72 29 -117 89q-70 93 -72 216q2 189 140 295t336 106t319 -120t121 -283zM559 1274q-98 0 -175 -60t-77 -150q0 -91 67 -161
q68 -69 186 -69t186 70t67 160q0 90 -78 150t-176 60zM560 172q146 0 230 73q83 73 82 165q0 92 -82 162t-230 71q-146 0 -229 -71q-83 -70 -83 -162t83 -165t229 -73z" />
    <glyph glyph-name="nine" unicode="9" horiz-adv-x="1200" 
d="M37 950q0 203 139 350q139 148 387 148t388 -148t141 -350q0 -151 -88 -288l-472 -662h-256l353 500q-80 -31 -179 -25t-171 47q-117 68 -180 184q-62 116 -62 244zM563 662q152 0 235 86t83 204t-83 201q-83 84 -235 84q-153 0 -235 -84t-82 -202q0 -117 82 -203
t235 -86z" />
    <glyph glyph-name="colon" unicode=":" horiz-adv-x="387" 
d="M152 844q51 0 85 -33q33 -33 33 -83t-34 -85t-84 -35q-49 0 -83 36t-34 85t33 82t84 33zM35 115q0 49 33 81t84 33q51 -1 85 -33q33 -32 33 -81t-34 -85t-84 -36q-49 0 -83 36t-34 85z" />
    <glyph glyph-name="semicolon" unicode=";" horiz-adv-x="372" 
d="M-51 -260l137 377h225l-178 -377h-184zM172 848q51 0 85 -33t34 -83t-35 -85t-84 -35t-83 36t-34 85t33 82t84 33z" />
    <glyph glyph-name="less" unicode="&#x3c;" horiz-adv-x="1003" 
d="M889 1233v-227l-580 -287l580 -291v-217l-836 434v141z" />
    <glyph glyph-name="equal" unicode="=" horiz-adv-x="1077" 
d="M59 319v195h899v-195h-899zM59 664v194h899v-194h-899z" />
    <glyph glyph-name="greater" unicode="&#x3e;" horiz-adv-x="1013" 
d="M63 983v229l838 -446v-141l-838 -435v224l580 286z" />
    <glyph glyph-name="question" unicode="?" horiz-adv-x="1163" 
d="M389 107q0 55 37 93t94 38t95 -38t38 -92t-39 -96q-39 -41 -94 -41t-93 41t-38 95zM416 299v168q0 134 79 199q45 37 73 54t96 52h-2q50 29 76 46q26 18 53 60t28 99q4 102 -78 178t-223 76q-207 0 -313 -219l-168 96q72 152 193 244q122 92 288 92q240 0 382 -139
t138 -332q-4 -127 -64 -220q-22 -34 -72 -72t-125 -79t-106 -62q-32 -21 -40 -38t-8 -37l2 -166h-209z" />
    <glyph glyph-name="at" unicode="@" horiz-adv-x="1667" 
d="M698 440q106 0 189 121q82 121 82 240q0 150 -109 149q-104 2 -172 -82t-92 -202q-6 -46 -10 -96t24 -90t88 -40zM844 1249q-227 0 -377 -146t-188 -360q-49 -266 79 -430t416 -163q92 0 215 47l84 -164q-164 -63 -299 -64q-389 -1 -566 229t-110 586q47 266 247 456
t493 192q292 0 488 -174t196 -448q0 -272 -144 -424t-338 -153q-125 0 -129 146q-81 -125 -233 -125t-232 126t-38 312t158 316q118 129 302 129q58 0 118 -40t61 -104l47 78l147 -16l-149 -551v4q-8 -24 -12 -32q-20 -50 3 -50q74 -2 137 68q62 70 93 169t17 215t-82 199
q-67 82 -173 127t-231 45z" />
    <glyph glyph-name="A" unicode="A" horiz-adv-x="1372" 
d="M1085 0l-137 362h-581l-140 -362h-223l576 1452h151l576 -1452h-222zM657 1122l-215 -565h430z" />
    <glyph glyph-name="B" unicode="B" horiz-adv-x="1249" 
d="M279 657v-456h442q98 1 153 69t56 160q0 92 -56 160t-153 67h-442zM74 1432h596q129 0 217 -65t131 -171q47 -102 22 -218t-127 -190q115 -49 169 -146t55 -210q0 -174 -111 -303t-305 -129h-647v1432zM279 1235v-373h387q63 0 108 38q78 66 56 204q-9 55 -53 93t-107 38
h-391z" />
    <glyph glyph-name="C" unicode="C" horiz-adv-x="1552" 
d="M55 715q0 293 205 512q207 213 496 213q246 0 426 -142t241 -387h-204q-55 158 -179 241t-284 83q-204 0 -352 -154q-148 -155 -148 -367t147 -366t353 -153q164 0 292 90t183 252h203q-62 -246 -246 -397t-432 -150q-293 0 -497 216t-204 509z" />
    <glyph glyph-name="D" unicode="D" horiz-adv-x="1421" 
d="M82 1432h514q170 0 307 -62t222 -162q175 -209 175 -491t-175 -494q-85 -103 -222 -163t-307 -60h-514v1432zM289 207h307q236 1 368 151t132 357t-132 359t-368 151h-307v-1018z" />
    <glyph glyph-name="E" unicode="E" horiz-adv-x="1073" 
d="M291 612v-405h665v-207h-874v1432h872v-207h-663v-404h649v-209h-649z" />
    <glyph glyph-name="F" unicode="F" horiz-adv-x="1036" 
d="M289 612v-612h-207v1434h854v-201h-647v-428h573v-193h-573z" />
    <glyph glyph-name="G" unicode="G" horiz-adv-x="1574" 
d="M768 178q147 0 272 74t187 223h-541v211h789q-17 -191 -41 -252q-74 -203 -267 -331t-399 -128q-309 0 -514 209t-205 531q0 321 207 531t512 210q223 0 423 -120q99 -60 171 -166t102 -246h-225q-29 110 -107 186q-140 134 -361 135q-220 -1 -365 -151
q-146 -150 -146 -380t146 -383t362 -153z" />
    <glyph glyph-name="H" unicode="H" horiz-adv-x="1249" 
d="M289 1432v-605h606v605h209v-1432h-209v623h-606v-623h-207v1432h207z" />
    <glyph glyph-name="I" unicode="I" horiz-adv-x="899" 
d="M788 1432v-197h-266v-1036h266v-199h-739v199h266v1036h-266v197h739z" />
    <glyph glyph-name="J" unicode="J" horiz-adv-x="942" 
d="M799 1432v-811q0 -325 -175 -473t-583 -148v195q307 0 429 101t122 325v622h-387v189h594z" />
    <glyph glyph-name="K" unicode="K" horiz-adv-x="1208" 
d="M326 664v104l499 666h256l-546 -713l604 -721h-267zM82 1434h205v-1434h-205v1434z" />
    <glyph glyph-name="L" unicode="L" horiz-adv-x="1058" 
d="M289 1434v-1227h674v-207h-881v1434h207z" />
    <glyph glyph-name="M" unicode="M" horiz-adv-x="1515" 
d="M293 0h-207v1434h168l473 -697l473 697h164v-1434h-205v1010l-375 -557h-116l-375 557v-1010z" />
    <glyph glyph-name="N" unicode="N" horiz-adv-x="1294" 
d="M289 0h-207v1434h160l698 -1010v1010h205v-1434h-164l-692 1001v-1001z" />
    <glyph glyph-name="O" unicode="O" horiz-adv-x="1658" 
d="M55 717q0 303 215 523q216 220 522 220t525 -219q215 -221 215 -524t-215 -523t-524 -220t-523 220t-215 523zM1321 717q0 221 -154 377q-155 156 -373 156t-372 -158q-156 -152 -156 -375t156 -375q154 -158 373 -158t372 158q154 154 154 375z" />
    <glyph glyph-name="P" unicode="P" horiz-adv-x="1189" 
d="M289 682h315q123 0 192 80q68 80 68 190t-68 192q-69 81 -192 81h-315v-543zM80 1434h524q219 0 342 -142t123 -338q0 -195 -123 -336t-342 -141h-315v-477h-209v1434z" />
    <glyph glyph-name="Q" unicode="Q" horiz-adv-x="1656" 
d="M1587 0h-225l-129 121q-239 -158 -519 -134t-450 212q-213 233 -213 525t213 510t515 218t519 -217q213 -219 213 -518q0 -246 -155 -449l231 -223v-45zM711 618h250l243 -221q98 133 98 333t-152 356q-153 156 -368 157q-215 0 -370 -156q-154 -157 -154 -371t154 -372
q133 -133 314 -156t345 76l-360 322v32z" />
    <glyph glyph-name="R" unicode="R" horiz-adv-x="1216" 
d="M362 727h242q123 0 192 74q68 74 68 175t-68 175q-69 74 -192 74h-317v-1225h-205v1434h522q221 0 344 -136t123 -309q0 -172 -97 -296t-274 -154l453 -539h-268l-523 629v98z" />
    <glyph glyph-name="S" unicode="S" horiz-adv-x="1232" 
d="M1116 424q0 -196 -162 -316t-370 -120q-115 0 -226 42q-110 42 -194 133t-96 212l-2 39l208 4l2 -23q10 -94 104 -148t213 -54q118 1 216 65t98 168q0 75 -36 108q-36 34 -103 53t-165 28q-97 9 -155 19q-346 62 -369 347q-13 158 77 276q70 91 188 141t246 50
q182 0 321 -96t166 -281l-205 -8q-20 90 -105 137t-187 45q-178 -4 -261 -108q-41 -53 -34 -133q7 -143 232 -170q33 -4 107 -12q420 -48 476 -288q16 -66 16 -110z" />
    <glyph glyph-name="T" unicode="T" horiz-adv-x="1196" 
d="M676 0h-207v1237h-434v197h1073v-197h-432v-1237z" />
    <glyph glyph-name="U" unicode="U" horiz-adv-x="1300" 
d="M615 -14q-129 0 -247 48t-200 152t-82 244v1002h209v-1004q0 -111 98 -173t222 -62t223 63q98 63 98 174v1002h209v-1004q0 -138 -82 -242t-200 -152t-248 -48z" />
    <glyph glyph-name="V" unicode="V" horiz-adv-x="1372" 
d="M647 360l430 1074h221l-575 -1438h-152l-575 1438h225z" />
    <glyph glyph-name="W" unicode="W" horiz-adv-x="1830" 
d="M1192 399l344 1035h217l-481 -1442h-146l-252 690l-247 -690h-146l-481 1442h215l342 -1037l236 670h165z" />
    <glyph glyph-name="X" unicode="X" horiz-adv-x="1355" 
d="M-2 1434h254l389 -527l391 527h252l-518 -705l518 -729h-252l-391 563l-389 -563h-254l518 729z" />
    <glyph glyph-name="Y" unicode="Y" horiz-adv-x="1331" 
d="M733 0h-209v584l-530 850h244l391 -631l391 631h246l-533 -850v-584z" />
    <glyph glyph-name="Z" unicode="Z" horiz-adv-x="1224" 
d="M1104 1434v-162l-799 -1088h809v-184h-1048v170l794 1079h-794v185h1038z" />
    <glyph glyph-name="bracketleft" unicode="[" horiz-adv-x="595" 
d="M522 -23v-170h-377l2 1829h377v-176h-170l-2 -1483h170z" />
    <glyph glyph-name="backslash" unicode="\" horiz-adv-x="903" 
d="M602 -129l-577 1702h213l579 -1702h-215z" />
    <glyph glyph-name="bracketright" unicode="]" horiz-adv-x="626" 
d="M37 1454v178h377l2 -1829h-377v177h170l-2 1474h-170z" />
    <glyph glyph-name="asciicircum" unicode="^" horiz-adv-x="1148" 
d="M39 662l426 778h135l424 -778h-225l-269 505l-270 -505h-221z" />
    <glyph glyph-name="underscore" unicode="_" horiz-adv-x="1204" 
d="M49 0h1047v-180h-1047v180z" />
    <glyph glyph-name="grave" unicode="`" horiz-adv-x="585" 
d="M446 1257h-178l-231 220h262z" />
    <glyph glyph-name="a" unicode="a" horiz-adv-x="1372" 
d="M1085 0l-137 362h-581l-140 -362h-223l576 1452h151l576 -1452h-222zM657 1122l-215 -565h430z" />
    <glyph glyph-name="b" unicode="b" horiz-adv-x="1249" 
d="M279 657v-456h442q98 1 153 69t56 160q0 92 -56 160t-153 67h-442zM74 1432h596q129 0 217 -65t131 -171q47 -102 22 -218t-127 -190q115 -49 169 -146t55 -210q0 -174 -111 -303t-305 -129h-647v1432zM279 1235v-373h387q63 0 108 38q78 66 56 204q-9 55 -53 93t-107 38
h-391z" />
    <glyph glyph-name="c" unicode="c" horiz-adv-x="1552" 
d="M55 715q0 293 205 512q207 213 496 213q246 0 426 -142t241 -387h-204q-55 158 -179 241t-284 83q-204 0 -352 -154q-148 -155 -148 -367t147 -366t353 -153q164 0 292 90t183 252h203q-62 -246 -246 -397t-432 -150q-293 0 -497 216t-204 509z" />
    <glyph glyph-name="d" unicode="d" horiz-adv-x="1421" 
d="M82 1432h514q170 0 307 -62t222 -162q175 -209 175 -491t-175 -494q-85 -103 -222 -163t-307 -60h-514v1432zM289 207h307q236 1 368 151t132 357t-132 359t-368 151h-307v-1018z" />
    <glyph glyph-name="e" unicode="e" horiz-adv-x="1073" 
d="M291 612v-405h665v-207h-874v1432h872v-207h-663v-404h649v-209h-649z" />
    <glyph glyph-name="f" unicode="f" horiz-adv-x="1036" 
d="M289 612v-612h-207v1434h854v-201h-647v-428h573v-193h-573z" />
    <glyph glyph-name="g" unicode="g" horiz-adv-x="1574" 
d="M768 1243q-215 -1 -360 -151q-146 -150 -146 -379t146 -381t360 -152q147 0 272 73t187 222h-541v211h787q-17 -191 -41 -250q-72 -203 -265 -331t-399 -128q-307 0 -512 209t-205 530q0 322 206 530t511 208q219 0 421 -119q99 -59 171 -165t102 -246h-225
q-56 234 -325 302q-71 17 -144 17z" />
    <glyph glyph-name="h" unicode="h" horiz-adv-x="1249" 
d="M289 1432v-605h606v605h209v-1432h-209v623h-606v-623h-207v1432h207z" />
    <glyph glyph-name="i" unicode="i" horiz-adv-x="899" 
d="M788 1434v-187h-266v-1059h266v-188h-739v188h266v1059h-266v187h739z" />
    <glyph glyph-name="j" unicode="j" horiz-adv-x="942" 
d="M799 1432v-811q0 -325 -175 -473t-583 -148v195q307 0 429 101t122 325v622h-387v189h594z" />
    <glyph glyph-name="k" unicode="k" horiz-adv-x="1208" 
d="M326 664v104l499 666h256l-546 -713l604 -721h-267zM82 1434h205v-1434h-205v1434z" />
    <glyph glyph-name="l" unicode="l" horiz-adv-x="1058" 
d="M289 1434v-1233h674v-201h-881v1434h207z" />
    <glyph glyph-name="m" unicode="m" horiz-adv-x="1505" 
d="M289 0h-207v1434h168l473 -697l473 697h164v-1434h-205v1010l-375 -557h-116l-375 557v-1010z" />
    <glyph glyph-name="n" unicode="n" horiz-adv-x="1294" 
d="M289 0h-207v1434h160l698 -1010v1010h205v-1434h-164l-692 1001v-1001z" />
    <glyph glyph-name="o" unicode="o" horiz-adv-x="1658" 
d="M55 717q0 303 215 523q216 220 522 220t525 -219q215 -221 215 -524t-215 -523t-524 -220t-523 220t-215 523zM1321 717q0 221 -156 377q-157 156 -373 156t-370 -158q-156 -152 -156 -375t156 -375q154 -158 371 -158t373 156t155 377z" />
    <glyph glyph-name="p" unicode="p" horiz-adv-x="1183" 
d="M289 682h315q123 0 192 80q68 80 68 190t-68 192q-69 81 -192 81h-315v-543zM80 1434h524q219 0 342 -142t123 -338q0 -195 -123 -336t-342 -141h-315v-477h-209v1434z" />
    <glyph glyph-name="q" unicode="q" horiz-adv-x="1656" 
d="M1587 0h-225l-129 121q-239 -158 -519 -134t-450 212q-213 233 -213 525t213 510t515 218t519 -217q213 -219 213 -518q0 -246 -155 -449l231 -223v-45zM711 618h250l243 -221q98 133 98 333t-152 356q-153 156 -368 157q-215 0 -370 -156q-154 -157 -154 -371t154 -372
q133 -133 314 -156t345 76l-360 322v32z" />
    <glyph glyph-name="r" unicode="r" horiz-adv-x="1216" 
d="M362 727h242q123 0 192 74q68 74 68 175t-68 175q-69 74 -192 74h-317v-1225h-205v1434h522q221 0 344 -136t123 -309q0 -172 -97 -296t-274 -154l453 -539h-268l-523 629v98z" />
    <glyph glyph-name="s" unicode="s" horiz-adv-x="1216" 
d="M1100 424q0 -199 -162 -321q-162 -121 -358 -121t-353 105q-158 105 -176 286l-2 41l209 4l2 -23q10 -94 104 -150q94 -57 212 -57t217 66q98 66 98 181t-122 149q-85 24 -176 32q-254 23 -358 86q-104 64 -144 160q-23 57 -30 129q-12 156 78 277q70 92 188 142t246 50
q180 0 321 -97q140 -98 167 -284l-205 -8q-20 90 -105 138t-188 46q-180 -4 -260 -110q-41 -53 -35 -135q7 -145 233 -172q35 -4 109 -12q298 -34 409 -166q81 -94 81 -236z" />
    <glyph glyph-name="t" unicode="t" horiz-adv-x="1196" 
d="M676 0h-207v1237h-434v197h1073v-197h-432v-1237z" />
    <glyph glyph-name="u" unicode="u" horiz-adv-x="1282" 
d="M609 -14q-130 0 -248 48q-117 48 -199 152t-82 244v1002h209v-1004q0 -111 98 -173t222 -62t222 63t99 174v1002h209v-1004q0 -138 -82 -242t-200 -152t-248 -48z" />
    <glyph glyph-name="v" unicode="v" horiz-adv-x="1372" 
d="M647 360l430 1074h221l-575 -1438h-152l-575 1438h225z" />
    <glyph glyph-name="w" unicode="w" horiz-adv-x="1830" 
d="M1192 399l344 1035h217l-481 -1442h-146l-252 690l-247 -690h-146l-481 1442h215l342 -1037l236 670h165z" />
    <glyph glyph-name="x" unicode="x" horiz-adv-x="1355" 
d="M-2 1434h254l389 -527l391 527h252l-518 -705l518 -729h-252l-391 563l-389 -563h-254l518 729z" />
    <glyph glyph-name="y" unicode="y" horiz-adv-x="1331" 
d="M733 0h-209v584l-530 850h244l391 -631l391 631h246l-533 -850v-584z" />
    <glyph glyph-name="z" unicode="z" horiz-adv-x="1224" 
d="M1104 1434v-162l-799 -1088h809v-184h-1048v170l794 1079h-794v185h1038z" />
    <glyph glyph-name="braceleft" unicode="{" horiz-adv-x="655" 
d="M549 1647v-181h-51q-36 2 -52 -1q-40 -7 -40 -76v-388q0 -213 -97 -294q96 -80 97 -293v-377q0 -55 20 -69t72 -11h51v-180h-103q-113 -1 -175 67t-62 181v352q0 238 -131 237v187q131 0 131 237v359q0 115 62 183t175 67h103z" />
    <glyph glyph-name="bar" unicode="|" horiz-adv-x="581" 
d="M154 -313v1912h198v-1912h-198z" />
    <glyph glyph-name="braceright" unicode="}" horiz-adv-x="651" 
d="M45 1462v180h105q113 0 174 -68t61 -181v-355q0 -238 133 -237v-187q-133 0 -133 -237v-334q0 -113 -61 -181t-174 -67h-105v180h51q52 -3 72 11t20 69v359q0 213 97 293q-96 82 -97 294v383q0 52 -20 66t-72 12h-51z" />
    <glyph glyph-name="asciitilde" unicode="~" horiz-adv-x="1118" 
d="M922 811l114 -109q-129 -221 -325 -200q-117 12 -221 93t-179 65q-74 -16 -153 -128l-113 115q150 227 336 209q109 -8 227 -106t209 -39q46 28 105 100z" />
    <glyph glyph-name="uni00A0" unicode="&#xa0;" horiz-adv-x="526" 
 />
    <glyph glyph-name="exclamdown" unicode="&#xa1;" horiz-adv-x="548" 
d="M225 797q-55 0 -91 36t-36 88t37 88q37 35 90 35t90 -36t37 -87q0 -52 -36 -88t-91 -36zM117 -401v1118h215v-1118h-215z" />
    <glyph glyph-name="cent" unicode="&#xa2;" horiz-adv-x="1536" 
d="M248 714q0 -212 147 -366q109 -115 260 -145v1022q-151 -31 -260 -144q-147 -155 -147 -367zM655 1622h195v-190q210 -29 360 -166t205 -355h-205q-47 131 -141 211t-219 103v-1022q129 25 228 111t145 223h202q-55 -221 -208 -366q-154 -144 -367 -173v-205h-195v203
q-238 31 -403 207q-205 219 -205 512t205 512q165 172 403 207v188z" />
    <glyph glyph-name="sterling" unicode="&#xa3;" horiz-adv-x="1191" 
d="M1069 1079h-195q0 131 -120 183q-121 50 -245 -12t-132 -210v-231h434v-168h-434v-461h688v-180h-1008v147l113 31v463h-117v168h117v231q0 158 92 264t224 133q132 26 266 4q134 -23 225 -121q92 -98 92 -241z" />
    <glyph glyph-name="yen" unicode="&#xa5;" horiz-adv-x="1318" 
d="M213 330v168h303v86l-6 10h-297v168h190l-417 670h243l392 -648l391 648h245l-421 -670h192v-168h-297l-6 -10v-86h303v-168h-303v-330h-209v330h-303z" />
    <glyph glyph-name="brokenbar" unicode="&#xa6;" horiz-adv-x="471" 
d="M313 1591v-874h-202v874h202zM111 -272v829h202v-829h-202z" />
    <glyph glyph-name="section" unicode="&#xa7;" 
d="M98 731q0 125 125 193q-90 74 -90 208t122 222t286 88q209 0 350 -133l-125 -140q-115 89 -211 93q-95 4 -153 -34t-56 -106q0 -90 195 -121q373 -70 372 -315q0 -141 -127 -190q94 -80 95 -203q0 -154 -130 -235t-288 -81q-258 0 -402 181l140 127q121 -133 262 -133
q78 -2 140 34t61 107q0 100 -205 135q-361 55 -361 303zM407 629q56 -17 107 -25t123 -33q70 35 70 115q-2 57 -67 91t-133 45t-128 28q-74 -41 -73 -116q1 -74 101 -105z" />
    <glyph glyph-name="dieresis" unicode="&#xa8;" horiz-adv-x="823" 
d="M588 1753q49 0 82 -32q32 -32 32 -79q0 -48 -32 -82t-81 -34q-48 0 -81 35t-33 81t32 78q32 33 81 33zM199 1753q49 0 82 -32t33 -79q0 -48 -34 -82q-32 -34 -80 -34t-81 35t-33 81t32 78q32 33 81 33z" />
    <glyph glyph-name="copyright" unicode="&#xa9;" horiz-adv-x="1701" 
d="M809 293q-159 0 -275 119t-116 298t119 297q119 117 273 117t258 -89t144 -242h-165q-61 174 -224 174q-104 0 -174 -75q-69 -76 -69 -190t70 -183t162 -69q181 1 241 185h164q-39 -154 -145 -248t-263 -94zM291 709q1 -236 151 -397q150 -160 372 -160t376 160t153 397
q1 237 -153 397t-376 160t-372 -160t-151 -397zM82 709q0 311 213 529t519 218t521 -218t215 -529t-215 -529t-521 -217q-306 -1 -519 217t-213 529z" />
    <glyph glyph-name="ordfeminine" unicode="&#xaa;" horiz-adv-x="1361" 
d="M2 -252v174h1301v-174h-1301zM1081 0l-172 422h-514q-119 -283 -172 -422h-223l575 1452h152l576 -1452h-222zM653 1122l-180 -506h356z" />
    <glyph glyph-name="guillemotleft" unicode="&#xab;" horiz-adv-x="1054" 
d="M383 238l-340 424l340 425h231l-338 -425q49 -64 167 -210t171 -214h-231zM387 662l340 425h231l-337 -425q49 -64 167 -210t170 -214h-231z" />
    <glyph glyph-name="logicalnot" unicode="&#xac;" horiz-adv-x="1196" 
d="M57 676v186h987v-565h-192v379h-795z" />
    <glyph glyph-name="uni00AD" unicode="&#xad;" horiz-adv-x="831" 
d="M74 584v202h622v-202h-622z" />
    <glyph glyph-name="registered" unicode="&#xae;" horiz-adv-x="1658" 
d="M688 963v-695h-170v860h322q139 0 217 -85t78 -186q1 -101 -49 -173t-146 -100l199 -236l-148 -92l-270 338v135h119q57 0 90 35t33 82t-33 82t-90 35h-152zM272 709q0 -236 151 -397q151 -160 373 -160t376 160t153 397q0 237 -154 397q-153 160 -375 160t-373 -160
t-151 -397zM66 713q0 311 212 529t516 218t518 -218t214 -529t-214 -529t-518 -219q-304 1 -516 219t-212 529z" />
    <glyph glyph-name="macron" unicode="&#xaf;" horiz-adv-x="741" 
d="M76 1436v174h549v-174h-549z" />
    <glyph glyph-name="degree" unicode="&#xb0;" horiz-adv-x="772" 
d="M351 1055q50 0 84 36t34 88t-34 87q-34 34 -84 34t-84 -36t-34 -86q0 -51 34 -87t84 -36zM350 899q-119 0 -202 82q-82 82 -82 196q0 113 84 195t202 82t202 -82q85 -82 85 -196t-85 -195q-85 -82 -204 -82z" />
    <glyph glyph-name="plusminus" unicode="&#xb1;" horiz-adv-x="1193" 
d="M68 682v195h411v401h203v-401h393v-195h-393v-406h-203v406h-411zM45 186h1026v-186h-1026v186z" />
    <glyph glyph-name="twosuperior" unicode="&#xb2;" horiz-adv-x="837" 
d="M388 1513q153 0 244 -86t91 -206q0 -154 -143 -254h2l-238 -187h381v-159h-678v124l412 340q82 55 82 140q0 55 -41 91t-116 36t-119 -42t-44 -118l-170 6q0 135 92 225t245 90z" />
    <glyph glyph-name="threesuperior" unicode="&#xb3;" horiz-adv-x="880" 
d="M266 995v144h137q88 1 119 71t-26 121q-46 35 -108 36t-102 -30t-50 -84l-173 15q13 124 107 192t218 68t226 -70t104 -195t-108 -184q145 -66 142 -207q-2 -114 -98 -196t-269 -82q-299 0 -336 268l172 31q10 -57 49 -92q68 -61 184 -40q48 9 80 41t34 77t-36 81
q-37 36 -110 35h-156z" />
    <glyph glyph-name="acute" unicode="&#xb4;" horiz-adv-x="598" 
d="M266 1315h-178l148 219h262z" />
    <glyph glyph-name="_181" unicode="&#xb5;" horiz-adv-x="1515" 
d="M293 0h-207v1434h168l473 -697l473 697h164v-1434h-205v1010l-375 -557h-116l-375 557v-1010z" />
    <glyph glyph-name="paragraph" unicode="&#xb6;" horiz-adv-x="1318" 
d="M477 -158v703q-188 25 -300 151q-111 126 -111 295q0 170 128 303t359 133h588v-1585h-203v1409h-256v-1409h-205z" />
    <glyph glyph-name="periodcentered" unicode="&#xb7;" horiz-adv-x="503" 
d="M214 838q54 0 90 -35t36 -88t-37 -91t-89 -38t-89 39t-37 90t36 87t90 36z" />
    <glyph glyph-name="cedilla" unicode="&#xb8;" horiz-adv-x="659" 
d="M233 68h154l-35 -88q94 -6 144 -62t43 -131q-12 -115 -122 -176t-233 -29t-168 150l129 61q39 -51 91 -61t87 10q36 20 43 48q8 28 -8 52t-69 37q-53 14 -135 4z" />
    <glyph glyph-name="onesuperior" unicode="&#xb9;" horiz-adv-x="620" 
d="M459 664h-197v573l-88 -102l-125 118l244 285h166v-874z" />
    <glyph glyph-name="ordmasculine" unicode="&#xba;" horiz-adv-x="872" 
d="M70 492v182h680v-182h-680zM412 922q72 0 120 53t50 132q0 79 -50 129t-120 50q-72 0 -121 -50t-49 -129t49 -132t121 -53zM413 762q-151 0 -253 97t-102 245t102 246q102 96 252 96t253 -96t103 -245t-102 -246t-253 -97z" />
    <glyph glyph-name="guillemotright" unicode="&#xbb;" horiz-adv-x="1064" 
d="M45 272l340 424l-354 426h245l338 -426l-338 -424h-231zM397 272l340 424l-340 426h232l340 -426l-340 -424h-232z" />
    <glyph glyph-name="onequarter" unicode="&#xbc;" horiz-adv-x="1773" 
d="M1339 328l7 321l-240 -321h233zM1536 328h84v-178h-84v-150h-190v150h-408l-94 112l504 670h188v-604zM279 664v583l-97 -102l-125 108l244 285h174v-874h-196zM504 -63h-228l801 1642h240z" />
    <glyph glyph-name="onehalf" unicode="&#xbd;" horiz-adv-x="1814" 
d="M1321 891q154 0 245 -86t91 -207q0 -154 -144 -254h3l-238 -186h381v-160h-678v125l412 340q82 55 82 132t-78 111t-157 -1t-81 -136l-180 6q0 135 94 225t248 91zM279 664v585l-97 -102l-125 106l244 285h166v-874h-188zM473 -63h-227l831 1642h240z" />
    <glyph glyph-name="threequarters" unicode="&#xbe;" horiz-adv-x="2004" 
d="M291 973v157h137q90 0 119 72q31 68 -21 108t-114 41t-102 -29t-50 -83l-172 14q14 129 106 197t218 68q124 0 226 -70t104 -199q1 -129 -101 -184q80 -35 109 -85t26 -122q-2 -114 -97 -196t-269 -82q-299 0 -336 268l172 31q10 -57 49 -91t87 -40q48 -4 96 6t80 41
t34 73t-35 73q-37 32 -111 32h-155zM1569 328l6 321l-240 -321h234zM1765 328h84v-178h-84v-150h-190v150h-408l-94 112l504 670h188v-604zM733 -63h-227l811 1642h239z" />
    <glyph glyph-name="questiondown" unicode="&#xbf;" horiz-adv-x="1196" 
d="M594 821q-57 0 -95 38q-38 37 -38 103t66 97q67 31 133 2t65 -97q0 -68 -37 -105q-37 -38 -94 -38zM698 760v-168q0 -133 -78 -199q-44 -37 -73 -54t-96 -52h2q-51 -29 -77 -46t-52 -59t-29 -100q-4 -102 78 -178t223 -76q207 0 313 219l168 -96q-71 -152 -193 -244
t-288 -92q-240 0 -382 139t-138 332q4 127 64 220q22 34 72 72t72 50t76 42t70 39t39 34t23 51l-3 166h209z" />
    <glyph glyph-name="Agrave" unicode="&#xc0;" horiz-adv-x="1366" 
d="M748 1536h-179l-231 219h262zM1085 0l-137 362h-581l-140 -362h-223l576 1452h151l576 -1452h-222zM657 1122l-215 -565h430z" />
    <glyph glyph-name="Aacute" unicode="&#xc1;" horiz-adv-x="1366" 
d="M737 1538h-178l148 219h262zM1085 0l-137 362h-581l-140 -362h-223l576 1452h151l576 -1452h-222zM657 1122l-215 -565h430z" />
    <glyph glyph-name="Acircumflex" unicode="&#xc2;" horiz-adv-x="1366" 
d="M549 1534h-225l247 223h177l243 -223h-221l-117 96zM1085 0l-137 362h-581l-140 -362h-223l576 1452h151l576 -1452h-222zM657 1122l-215 -565h430z" />
    <glyph glyph-name="Atilde" unicode="&#xc3;" horiz-adv-x="1366" 
d="M1085 0l-137 362h-581l-140 -362h-223l576 1452h151l576 -1452h-222zM657 1122l-215 -565h430zM565 1608q-68 0 -121 -74l-116 72q86 158 233 157q51 -2 120 -41t93 -39q64 0 115 80l106 -77q-33 -76 -90 -116t-115 -39t-126 39q-66 38 -99 38z" />
    <glyph glyph-name="Adieresis" unicode="&#xc4;" horiz-adv-x="1366" 
d="M850 1739q49 0 82 -32t33 -79t-33 -82t-81 -35t-81 35t-33 81t32 79t81 33zM461 1739q49 0 82 -32t33 -79t-34 -82q-32 -35 -80 -35t-81 35t-33 81t32 79t81 33zM1085 0l-137 362h-581l-140 -362h-223l576 1452h151l576 -1452h-222zM657 1122l-215 -565h430z" />
    <glyph glyph-name="Aring" unicode="&#xc5;" horiz-adv-x="1366" 
d="M592 1599q0 -25 15 -40t41 -15t42 16t16 40q0 26 -16 42t-41 17q-57 0 -57 -60zM457 1600q0 76 56 124t135 48t136 -48t58 -125q0 -103 -108 -153l573 -1446h-222l-137 362h-581l-140 -362h-223l571 1441q-34 12 -62 36q-56 47 -56 123zM657 1122l-215 -565h430z" />
    <glyph glyph-name="AE" unicode="&#xc6;" horiz-adv-x="1832" 
d="M838 510l12 631l-340 -631h328zM1700 1434v-207h-664v-422h650v-201h-650v-397h668v-207h-875l7 315h-430l-170 -315h-234l786 1434h912z" />
    <glyph glyph-name="Ccedilla" unicode="&#xc7;" horiz-adv-x="1536" 
d="M47 715q0 293 205 512q207 213 496 213q246 0 426 -142t241 -387h-205q-55 158 -178 241t-284 83q-204 0 -352 -154q-148 -155 -148 -367t147 -366t353 -153q164 0 292 90t183 252h202q-59 -231 -225 -379t-393 -164l-25 -64q94 -6 144 -62t43 -130q-12 -115 -122 -176
q-110 -62 -233 -30t-168 151l129 61q39 -51 91 -61t87 10q36 20 43 48q8 27 -8 51t-69 38t-135 4l69 162q-236 31 -401 207q-205 219 -205 512z" />
    <glyph glyph-name="Egrave" unicode="&#xc8;" 
d="M678 1532h-178l-232 219h262zM274 207h666v-207h-874v1432h872v-207h-664v-404h650v-209h-650v-405z" />
    <glyph glyph-name="Eacute" unicode="&#xc9;" 
d="M575 1528h-178l148 219h262zM274 612v-405h666v-207h-874v1432h872v-207h-664v-404h650v-209h-650z" />
    <glyph glyph-name="Ecircumflex" unicode="&#xca;" 
d="M424 1530h-225l247 223h177l243 -223h-221l-117 96zM274 612v-405h666v-207h-874v1432h872v-207h-664v-404h650v-209h-650z" />
    <glyph glyph-name="Edieresis" unicode="&#xcb;" 
d="M723 1745q49 0 82 -32t33 -79t-33 -82q-33 -34 -81 -34t-81 34t-33 81q0 46 32 79t81 33zM334 1745q49 0 82 -32t33 -79t-33 -82q-33 -34 -81 -34t-81 34t-33 81q0 46 32 79t81 33zM274 207h666v-207h-874v1432h872v-207h-664v-404h650v-209h-650v-405z" />
    <glyph glyph-name="Igrave" unicode="&#xcc;" horiz-adv-x="878" 
d="M516 1530h-178l-232 219h263zM768 1227h-266v-1020h266v-207h-739v207h266v1020h-266v205h739v-205z" />
    <glyph glyph-name="Iacute" unicode="&#xcd;" horiz-adv-x="876" 
d="M481 1532h-178l148 219h262zM776 1432v-197h-266v-1036h266v-199h-739v199h266v1036h-266v197h739z" />
    <glyph glyph-name="Icircumflex" unicode="&#xce;" horiz-adv-x="876" 
d="M299 1534h-225l248 223h176l243 -223h-221l-117 96zM776 1432v-197h-266v-1036h266v-199h-739v199h266v1036h-266v197h739z" />
    <glyph glyph-name="Idieresis" unicode="&#xcf;" horiz-adv-x="876" 
d="M602 1745q49 0 82 -32t33 -79t-33 -82q-33 -34 -81 -34t-81 34t-33 81q0 46 32 79t81 33zM213 1745q49 0 82 -32t33 -79t-33 -82q-33 -34 -81 -34t-81 34t-33 81q0 46 32 79t81 33zM776 1235h-266v-1036h266v-199h-739v199h266v1036h-266v197h739v-197z" />
    <glyph glyph-name="Eth" unicode="&#xd0;" horiz-adv-x="1462" 
d="M330 207h307q236 1 368 151t132 357t-132 359t-368 151h-307v-422h270v-187h-270v-409zM20 616v187h103v629h514q170 0 307 -62t222 -162q175 -209 175 -491t-175 -494q-85 -103 -222 -163t-307 -60h-514v616h-103z" />
    <glyph glyph-name="Ntilde" unicode="&#xd1;" horiz-adv-x="1312" 
d="M307 0h-207v1434h160l698 -1010v1010h205v-1434h-164l-692 1001v-1001zM735 1675q64 0 113 78l108 -76q-66 -156 -215 -155q-47 0 -115 38t-100 37q-68 0 -118 -75l-119 71q84 160 231 160q49 -2 120 -40t95 -38z" />
    <glyph glyph-name="Ograve" unicode="&#xd2;" horiz-adv-x="1665" 
d="M926 1536h-178l-232 219h262zM68 717q0 299 213 517t515 218t519 -217q213 -219 213 -518t-213 -517t-518 -218t-517 218t-212 517zM1319 717q0 215 -154 371q-155 156 -369 155q-214 0 -367 -155q-153 -156 -153 -372t153 -371t368 -155t370 156q152 156 152 371z" />
    <glyph glyph-name="Oacute" unicode="&#xd3;" horiz-adv-x="1665" 
d="M866 1542h-178l148 219h262zM68 717q0 299 213 517t515 218t519 -217q213 -219 213 -518t-213 -517t-518 -218t-517 218t-212 517zM1319 717q0 215 -154 371q-155 156 -369 155q-214 0 -367 -155q-153 -156 -153 -372t153 -371t368 -155t370 156q152 156 152 371z" />
    <glyph glyph-name="Ocircumflex" unicode="&#xd4;" horiz-adv-x="1665" 
d="M690 1542h-225l248 223h176l244 -223h-222l-116 96zM68 717q0 299 213 517t515 218t519 -217q213 -219 213 -518t-213 -517t-518 -218t-517 218t-212 517zM1319 717q0 215 -154 371q-155 156 -369 155q-214 0 -367 -155q-153 -156 -153 -372t153 -371t368 -155t370 156
q152 156 152 371z" />
    <glyph glyph-name="Otilde" unicode="&#xd5;" horiz-adv-x="1665" 
d="M68 717q0 299 213 517t515 218t519 -217q213 -219 213 -518t-213 -517t-518 -218t-517 218t-212 517zM1319 717q0 215 -154 371q-155 156 -369 155q-214 0 -367 -155q-153 -156 -153 -372t153 -371t368 -155t370 156q152 156 152 371zM707 1612q-66 0 -119 -76l-121 74
q41 78 103 120t122 42t130 -38q71 -38 93 -38q58 0 109 80l113 -80q-66 -154 -215 -158q-47 0 -115 37t-100 37z" />
    <glyph glyph-name="Odieresis" unicode="&#xd6;" horiz-adv-x="1665" 
d="M989 1759q49 0 82 -32q33 -33 33 -79t-33 -81t-81 -35t-81 35t-33 81t32 78t81 33zM487 1648q0 46 32 78t81 33q49 0 82 -32q33 -33 33 -79t-33 -81t-81 -35t-81 35t-33 81zM68 717q0 299 213 517t515 218t519 -217q213 -219 213 -518t-213 -517t-518 -218t-517 218
t-212 517zM1319 717q0 215 -154 371q-155 156 -369 155q-214 0 -367 -155q-153 -156 -153 -372t153 -371t368 -155t370 156q152 156 152 371z" />
    <glyph glyph-name="multiply" unicode="&#xd7;" horiz-adv-x="1013" 
d="M57 932l140 139l292 -293l283 285l139 -137l-286 -283l282 -283l-139 -137l-281 279l-286 -287l-140 137l289 287z" />
    <glyph glyph-name="Oslash" unicode="&#xd8;" horiz-adv-x="1665" 
d="M797 1243q-215 0 -368 -155q-153 -156 -153 -372t154 -370l8 -10l555 866q-94 41 -196 41zM1319 717q0 215 -152 370l-18 17l-557 -871q102 -43 205 -43q215 0 370 156q152 156 152 371zM68 717q0 299 213 517t516 218q162 0 311 -72l127 199h217l-190 -297
q29 -23 53 -47q213 -219 213 -518t-213 -517t-518 -218q-168 0 -320 73l-117 -182h-219l183 285q-23 16 -43 41q-213 219 -213 518z" />
    <glyph glyph-name="Ugrave" unicode="&#xd9;" horiz-adv-x="1288" 
d="M754 1530h-179l-231 219h262zM607 -14q-130 0 -248 48q-117 48 -199 152t-82 244v1002h209v-1004q0 -111 98 -173t222 -62t222 63t99 174v1002h209v-1004q0 -138 -82 -242t-200 -152t-248 -48z" />
    <glyph glyph-name="Uacute" unicode="&#xda;" horiz-adv-x="1288" 
d="M668 1532h-179l148 219h262zM607 -14q-130 0 -248 48q-117 48 -199 152t-82 244v1002h209v-1004q0 -111 98 -173t222 -62t222 63t99 174v1002h209v-1004q0 -138 -82 -242t-200 -152t-248 -48z" />
    <glyph glyph-name="Ucircumflex" unicode="&#xdb;" horiz-adv-x="1288" 
d="M500 1530h-226l248 223h176l244 -223h-221l-117 96zM607 -14q-130 0 -248 48q-117 48 -199 152t-82 244v1002h209v-1004q0 -111 98 -173t222 -62t222 63t99 174v1002h209v-1004q0 -138 -82 -242t-200 -152t-248 -48z" />
    <glyph glyph-name="Udieresis" unicode="&#xdc;" horiz-adv-x="1288" 
d="M809 1745q49 0 82 -32t33 -79t-33 -82q-33 -34 -81 -34t-81 34t-33 81q0 46 32 79t81 33zM420 1745q49 0 82 -32t33 -79t-33 -82q-33 -34 -81 -34t-81 34t-33 81q0 46 32 79t81 33zM607 -14q-130 0 -248 48q-117 48 -199 152t-82 244v1002h209v-1004q0 -111 98 -173
t222 -62t222 63t99 174v1002h209v-1004q0 -138 -82 -242t-200 -152t-248 -48z" />
    <glyph glyph-name="Yacute" unicode="&#xdd;" horiz-adv-x="1331" 
d="M690 1532h-178l147 219h263zM733 0h-209v584l-530 850h244l391 -631l391 631h246l-533 -850v-584z" />
    <glyph glyph-name="Thorn" unicode="&#xde;" horiz-adv-x="1173" 
d="M279 440h315q124 0 192 80t68 191t-69 191t-191 81h-315v-543zM70 0v1434h209v-242h315q219 0 342 -142t123 -337t-123 -336t-342 -141h-315v-236h-209z" />
    <glyph glyph-name="germandbls" unicode="&#xdf;" horiz-adv-x="1208" 
d="M317 1055v-1055h-221v1055q0 172 134 276q134 105 318 105t315 -102q130 -102 130 -275q0 -174 -155 -283q122 -51 186 -149t61 -211q4 -207 -139 -319t-354 -111q-104 0 -234 41v200q109 -61 205 -61q141 0 222 75t81 176t-81 175t-222 74h-149v190h149q103 0 163 64
t54 145q-6 82 -73 132q-68 50 -159 50t-161 -54t-70 -138z" />
    <glyph glyph-name="agrave" unicode="&#xe0;" horiz-adv-x="1366" 
d="M748 1536h-179l-231 219h262zM1085 0l-137 362h-581l-140 -362h-223l576 1452h151l576 -1452h-222zM657 1122l-215 -565h430z" />
    <glyph glyph-name="aacute" unicode="&#xe1;" horiz-adv-x="1366" 
d="M737 1538h-178l148 219h262zM1085 0l-137 362h-581l-140 -362h-223l576 1452h151l576 -1452h-222zM657 1122l-215 -565h430z" />
    <glyph glyph-name="acircumflex" unicode="&#xe2;" horiz-adv-x="1366" 
d="M549 1534h-225l247 223h177l243 -223h-221l-117 96zM1085 0l-137 362h-581l-140 -362h-223l576 1452h151l576 -1452h-222zM657 1122l-215 -565h430z" />
    <glyph glyph-name="atilde" unicode="&#xe3;" horiz-adv-x="1366" 
d="M1085 0l-137 362h-581l-140 -362h-223l576 1452h151l576 -1452h-222zM657 1122l-215 -565h430zM565 1608q-68 0 -121 -74l-116 72q86 158 233 157q51 -2 120 -41t93 -39q64 0 115 80l106 -77q-33 -76 -90 -116t-115 -39t-126 39q-66 38 -99 38z" />
    <glyph glyph-name="adieresis" unicode="&#xe4;" horiz-adv-x="1366" 
d="M850 1739q49 0 82 -32t33 -79t-33 -82t-81 -35t-81 35t-33 81t32 79t81 33zM461 1739q49 0 82 -32t33 -79t-34 -82q-32 -35 -80 -35t-81 35t-33 81t32 79t81 33zM1085 0l-137 362h-581l-140 -362h-223l576 1452h151l576 -1452h-222zM657 1122l-215 -565h430z" />
    <glyph glyph-name="aring" unicode="&#xe5;" horiz-adv-x="1366" 
d="M592 1599q0 -25 15 -40t41 -15t42 16t16 40q0 26 -16 42t-41 17q-57 0 -57 -60zM457 1600q0 76 56 124t135 48t136 -48t58 -125q0 -103 -108 -153l573 -1446h-222l-137 362h-581l-140 -362h-223l571 1441q-34 12 -62 36q-56 47 -56 123zM657 1122l-215 -565h430z" />
    <glyph glyph-name="ae" unicode="&#xe6;" horiz-adv-x="1832" 
d="M838 510l12 631l-340 -631h328zM1700 1434v-207h-664v-422h650v-201h-650v-397h668v-207h-875l7 315h-430l-170 -315h-234l786 1434h912z" />
    <glyph glyph-name="ccedilla" unicode="&#xe7;" horiz-adv-x="1536" 
d="M47 715q0 293 205 512q207 213 496 213q246 0 426 -142t241 -387h-205q-55 158 -178 241t-284 83q-204 0 -352 -154q-148 -155 -148 -367t147 -366t353 -153q164 0 292 90t183 252h202q-59 -231 -225 -379t-393 -164l-25 -64q94 -6 144 -62t43 -130q-12 -115 -122 -176
q-110 -62 -233 -30t-168 151l129 61q39 -51 91 -61t87 10q36 20 43 48q8 27 -8 51t-69 38t-135 4l69 162q-236 31 -401 207q-205 219 -205 512z" />
    <glyph glyph-name="egrave" unicode="&#xe8;" 
d="M678 1532h-178l-232 219h262zM274 207h666v-207h-874v1432h872v-207h-664v-404h650v-209h-650v-405z" />
    <glyph glyph-name="eacute" unicode="&#xe9;" 
d="M575 1528h-178l148 219h262zM274 612v-405h666v-207h-874v1432h872v-207h-664v-404h650v-209h-650z" />
    <glyph glyph-name="ecircumflex" unicode="&#xea;" 
d="M424 1530h-225l247 223h177l243 -223h-221l-117 96zM274 612v-405h666v-207h-874v1432h872v-207h-664v-404h650v-209h-650z" />
    <glyph glyph-name="edieresis" unicode="&#xeb;" 
d="M723 1745q49 0 82 -32t33 -79t-33 -82q-33 -34 -81 -34t-81 34t-33 81q0 46 32 79t81 33zM334 1745q49 0 82 -32t33 -79t-33 -82q-33 -34 -81 -34t-81 34t-33 81q0 46 32 79t81 33zM274 207h666v-207h-874v1432h872v-207h-664v-404h650v-209h-650v-405z" />
    <glyph glyph-name="igrave" unicode="&#xec;" horiz-adv-x="878" 
d="M516 1530h-178l-232 219h263zM768 1227h-266v-1020h266v-207h-739v207h266v1020h-266v205h739v-205z" />
    <glyph glyph-name="iacute" unicode="&#xed;" horiz-adv-x="876" 
d="M481 1532h-178l148 219h262zM776 1432v-197h-266v-1036h266v-199h-739v199h266v1036h-266v197h739z" />
    <glyph glyph-name="icircumflex" unicode="&#xee;" horiz-adv-x="876" 
d="M299 1534h-225l248 223h176l243 -223h-221l-117 96zM776 1432v-197h-266v-1036h266v-199h-739v199h266v1036h-266v197h739z" />
    <glyph glyph-name="idieresis" unicode="&#xef;" horiz-adv-x="876" 
d="M602 1745q49 0 82 -32t33 -79t-33 -82q-33 -34 -81 -34t-81 34t-33 81q0 46 32 79t81 33zM213 1745q49 0 82 -32t33 -79t-33 -82q-33 -34 -81 -34t-81 34t-33 81q0 46 32 79t81 33zM776 1237h-266v-1038h266v-199h-739v199h266v1038h-266v197h739v-197z" />
    <glyph glyph-name="eth" unicode="&#xf0;" horiz-adv-x="1462" 
d="M330 207h307q236 1 368 151t132 357t-132 359t-368 151h-307v-422h270v-187h-270v-409zM20 616v187h103v629h514q170 0 307 -62t222 -162q175 -209 175 -491t-175 -494q-85 -103 -222 -163t-307 -60h-514v616h-103z" />
    <glyph glyph-name="ntilde" unicode="&#xf1;" horiz-adv-x="1312" 
d="M307 0h-207v1434h160l698 -1010v1010h205v-1434h-164l-692 1001v-1001zM735 1675q64 0 113 78l108 -76q-66 -156 -215 -155q-47 0 -115 38t-100 37q-68 0 -118 -75l-119 71q84 160 231 160q49 -2 120 -40t95 -38z" />
    <glyph glyph-name="ograve" unicode="&#xf2;" horiz-adv-x="1665" 
d="M926 1536h-178l-232 219h262zM68 717q0 299 213 517t515 218t519 -217q213 -219 213 -518t-213 -517t-518 -218t-517 218t-212 517zM1319 717q0 215 -154 371q-155 156 -369 155q-214 0 -367 -155q-153 -156 -153 -372t153 -371t368 -155t370 156q152 156 152 371z" />
    <glyph glyph-name="oacute" unicode="&#xf3;" horiz-adv-x="1665" 
d="M866 1542h-178l148 219h262zM68 717q0 299 213 517t515 218t519 -217q213 -219 213 -518t-213 -517t-518 -218t-517 218t-212 517zM1319 717q0 215 -154 371q-155 156 -369 155q-214 0 -367 -155q-153 -156 -153 -372t153 -371t368 -155t370 156q152 156 152 371z" />
    <glyph glyph-name="ocircumflex" unicode="&#xf4;" horiz-adv-x="1665" 
d="M690 1542h-225l248 223h176l244 -223h-222l-116 96zM68 717q0 299 213 517t515 218t519 -217q213 -219 213 -518t-213 -517t-518 -218t-517 218t-212 517zM1319 717q0 215 -154 371q-155 156 -369 155q-214 0 -367 -155q-153 -156 -153 -372t153 -371t368 -155t370 156
q152 156 152 371z" />
    <glyph glyph-name="otilde" unicode="&#xf5;" horiz-adv-x="1665" 
d="M68 717q0 299 213 517t515 218t519 -217q213 -219 213 -518t-213 -517t-518 -218t-517 218t-212 517zM1319 717q0 215 -154 371q-155 156 -369 155q-214 0 -367 -155q-153 -156 -153 -372t153 -371t368 -155t370 156q152 156 152 371zM707 1612q-66 0 -119 -76l-121 74
q41 78 103 120t122 42t130 -38q71 -38 93 -38q58 0 109 80l113 -80q-66 -154 -215 -158q-47 0 -115 37t-100 37z" />
    <glyph glyph-name="odieresis" unicode="&#xf6;" horiz-adv-x="1665" 
d="M989 1759q49 0 82 -32q33 -33 33 -79t-33 -81t-81 -35t-81 35t-33 81t32 78t81 33zM487 1648q0 46 32 78t81 33q49 0 82 -32q33 -33 33 -79t-33 -81t-81 -35t-81 35t-33 81zM68 717q0 299 213 517t515 218t519 -217q213 -219 213 -518t-213 -517t-518 -218t-517 218
t-212 517zM1319 717q0 215 -154 371q-155 156 -369 155q-214 0 -367 -155q-153 -156 -153 -372t153 -371t368 -155t370 156q152 156 152 371z" />
    <glyph glyph-name="divide" unicode="&#xf7;" horiz-adv-x="1144" 
d="M529 1196q55 0 91 -35t36 -88t-38 -91q-37 -38 -89 -38t-89 39t-37 90t36 87t90 36zM529 498q55 0 91 -35t36 -88t-38 -91q-37 -38 -89 -38t-89 39t-37 90t36 87t90 36zM59 621v192h967v-192h-967z" />
    <glyph glyph-name="oslash" unicode="&#xf8;" horiz-adv-x="1665" 
d="M797 1243q-215 0 -368 -155q-153 -156 -153 -372t154 -370l8 -10l555 866q-94 41 -196 41zM1319 717q0 215 -152 370l-18 17l-557 -871q102 -43 205 -43q215 0 370 156q152 156 152 371zM68 717q0 299 213 517t516 218q162 0 311 -72l127 199h217l-190 -297
q29 -23 53 -47q213 -219 213 -518t-213 -517t-518 -218q-168 0 -320 73l-117 -182h-219l183 285q-23 16 -43 41q-213 219 -213 518z" />
    <glyph glyph-name="ugrave" unicode="&#xf9;" horiz-adv-x="1288" 
d="M754 1530h-179l-231 219h262zM607 -14q-130 0 -248 48q-117 48 -199 152t-82 244v1002h209v-1004q0 -111 98 -173t222 -62t222 63t99 174v1002h209v-1004q0 -138 -82 -242t-200 -152t-248 -48z" />
    <glyph glyph-name="uacute" unicode="&#xfa;" horiz-adv-x="1288" 
d="M668 1532h-179l148 219h262zM607 -14q-130 0 -248 48q-117 48 -199 152t-82 244v1002h209v-1004q0 -111 98 -173t222 -62t222 63t99 174v1002h209v-1004q0 -138 -82 -242t-200 -152t-248 -48z" />
    <glyph glyph-name="ucircumflex" unicode="&#xfb;" horiz-adv-x="1288" 
d="M500 1530h-226l248 223h176l244 -223h-221l-117 96zM607 -14q-130 0 -248 48q-117 48 -199 152t-82 244v1002h209v-1004q0 -111 98 -173t222 -62t222 63t99 174v1002h209v-1004q0 -138 -82 -242t-200 -152t-248 -48z" />
    <glyph glyph-name="udieresis" unicode="&#xfc;" horiz-adv-x="1288" 
d="M809 1745q49 0 82 -32t33 -79t-33 -82q-33 -34 -81 -34t-81 34t-33 81q0 46 32 79t81 33zM420 1745q49 0 82 -32t33 -79t-33 -82q-33 -34 -81 -34t-81 34t-33 81q0 46 32 79t81 33zM607 -14q-130 0 -248 48q-117 48 -199 152t-82 244v1002h209v-1004q0 -111 98 -173
t222 -62t222 63t99 174v1002h209v-1004q0 -138 -82 -242t-200 -152t-248 -48z" />
    <glyph glyph-name="yacute" unicode="&#xfd;" horiz-adv-x="1331" 
d="M690 1532h-178l147 219h263zM733 0h-209v584l-530 850h244l391 -631l391 631h246l-533 -850v-584z" />
    <glyph glyph-name="thorn" unicode="&#xfe;" horiz-adv-x="1173" 
d="M279 440h315q124 0 192 80t68 191t-69 191t-191 81h-315v-543zM70 0v1434h209v-242h315q219 0 342 -142t123 -337t-123 -336t-342 -141h-315v-236h-209z" />
    <glyph glyph-name="ydieresis" unicode="&#xff;" horiz-adv-x="1243" 
d="M766 1737q49 0 82 -32t33 -79t-33 -82t-81 -35t-81 35t-33 81t32 79t81 33zM377 1737q49 0 82 -32t33 -79t-33 -82t-81 -35t-81 35t-33 81t32 79t81 33zM678 0h-209v584l-530 848h243l391 -629l392 629h245l-532 -848v-584z" />
    <glyph glyph-name="Amacron" unicode="&#x100;" horiz-adv-x="1366" 
d="M401 1522v174h502v-174h-502zM1085 0l-137 362h-581l-140 -362h-223l576 1452h151l576 -1452h-222zM657 1122l-215 -565h430z" />
    <glyph glyph-name="amacron" unicode="&#x101;" horiz-adv-x="1366" 
d="M1085 0l-137 362h-581l-140 -362h-223l576 1452h151l576 -1452h-222zM657 1122l-215 -565h430zM391 1511v175h502v-175h-502z" />
    <glyph glyph-name="Abreve" unicode="&#x102;" horiz-adv-x="1363" 
d="M1085 0l-137 362h-581l-140 -362h-223l576 1452h151l576 -1452h-222zM657 1122l-215 -565h430zM754 1735h164q0 -109 -74 -162t-186 -53t-186 52t-73 163h154q0 -53 50 -75q51 -22 101 0t50 75z" />
    <glyph glyph-name="abreve" unicode="&#x103;" horiz-adv-x="1363" 
d="M752 1737h163q1 -109 -73 -162t-186 -53t-186 52t-73 163h154q0 -53 50 -75q51 -22 101 0t50 75zM1085 0l-137 362h-581l-140 -362h-223l576 1452h151l576 -1452h-222zM657 1122l-215 -565h430z" />
    <glyph glyph-name="Aogonek" unicode="&#x104;" horiz-adv-x="1363" 
d="M657 1122l-215 -565h430zM1152 -381q-106 0 -167 81q-27 34 -34 84t14 94q20 44 48 68t72 54l-137 362h-581l-140 -362h-223l576 1452h151l574 -1450l2 -2h-9q-92 -26 -135 -90t-10 -122t133 -69l-112 -100h-22z" />
    <glyph glyph-name="aogonek" unicode="&#x105;" horiz-adv-x="1363" 
d="M657 1122l-215 -565h430zM1152 -381q-106 0 -167 81q-27 34 -34 84t14 94q20 44 48 68t72 54l-137 362h-581l-140 -362h-223l576 1452h151l574 -1450l2 -2h-9q-92 -26 -135 -90t-10 -122t133 -69l-112 -100h-22z" />
    <glyph glyph-name="Cacute" unicode="&#x106;" horiz-adv-x="1536" 
d="M819 1542h-178l147 219h263zM47 715q0 293 205 512q207 213 496 213q246 0 426 -142t241 -387h-205q-55 158 -178 241t-284 83q-204 0 -352 -154q-148 -155 -148 -367t147 -366t353 -153q164 0 292 90t183 252h202q-61 -246 -245 -397t-432 -150q-293 0 -497 216
t-204 509z" />
    <glyph glyph-name="cacute" unicode="&#x107;" horiz-adv-x="1536" 
d="M823 1540h-178l148 219h262zM47 715q0 293 205 512q207 213 496 213q246 0 426 -142t241 -387h-205q-55 158 -178 241t-284 83q-204 0 -352 -154q-148 -155 -148 -367t147 -366t353 -153q164 0 292 90t183 252h202q-61 -246 -245 -397t-432 -150q-293 0 -497 216
t-204 509z" />
    <glyph glyph-name="Ccircumflex" unicode="&#x108;" horiz-adv-x="1536" 
d="M655 1538h-225l248 223h176l244 -223h-221l-117 96zM47 715q0 293 205 512q207 213 496 213q246 0 426 -142t241 -387h-205q-55 158 -178 241t-284 83q-204 0 -352 -154q-148 -155 -148 -367t147 -366t353 -153q164 0 292 90t183 252h202q-61 -246 -245 -397t-432 -150
q-293 0 -497 216t-204 509z" />
    <glyph glyph-name="ccircumflex" unicode="&#x109;" horiz-adv-x="1536" 
d="M645 1538h-225l248 223h176l243 -223h-221l-110 96zM47 715q0 293 205 512q207 213 496 213q246 0 426 -142t241 -387h-205q-55 158 -178 241t-284 83q-204 0 -352 -154q-148 -155 -148 -367t147 -366t353 -153q164 0 292 90t183 252h202q-61 -246 -245 -397t-432 -150
q-293 0 -497 216t-204 509z" />
    <glyph glyph-name="Cdotaccent" unicode="&#x10a;" horiz-adv-x="1536" 
d="M641 1654q0 66 62 100q61 32 125 1t64 -98t-38 -101q-39 -34 -87 -34t-87 33t-39 99zM47 715q0 293 205 512q207 213 496 213q246 0 426 -142t241 -387h-205q-55 158 -178 241t-284 83q-204 0 -352 -154q-148 -155 -148 -367t147 -366t353 -153q164 0 292 90t183 252h202
q-61 -246 -245 -397t-432 -150q-293 0 -497 216t-204 509z" />
    <glyph glyph-name="cdotaccent" unicode="&#x10b;" horiz-adv-x="1536" 
d="M629 1654q0 66 62 100q61 32 125 1t64 -98t-38 -101q-39 -34 -87 -34t-87 33t-39 99zM47 715q0 293 205 512q207 213 496 213q246 0 426 -142t241 -387h-205q-55 158 -178 241t-284 83q-204 0 -352 -154q-148 -155 -148 -367t147 -366t353 -153q164 0 292 90t183 252h202
q-61 -246 -245 -397t-432 -150q-293 0 -497 216t-204 509z" />
    <glyph glyph-name="Ccaron" unicode="&#x10c;" horiz-adv-x="1536" 
d="M864 1757h226l-248 -223h-176l-244 223h221l117 -96zM47 715q0 293 205 512q207 213 496 213q246 0 426 -142t241 -387h-205q-55 158 -178 241t-284 83q-204 0 -352 -154q-148 -155 -148 -367t147 -366t353 -153q164 0 292 90t183 252h202q-61 -246 -245 -397t-432 -150
q-293 0 -497 216t-204 509z" />
    <glyph glyph-name="ccaron" unicode="&#x10d;" horiz-adv-x="1536" 
d="M864 1757h226l-248 -223h-176l-244 223h221l117 -96zM47 715q0 293 205 512q207 213 496 213q246 0 426 -142t241 -387h-205q-55 158 -178 241t-284 83q-204 0 -352 -154q-148 -155 -148 -367t147 -366t353 -153q164 0 292 90t183 252h202q-61 -246 -245 -397t-432 -150
q-293 0 -497 216t-204 509z" />
    <glyph glyph-name="Dcaron" unicode="&#x10e;" horiz-adv-x="1413" 
d="M686 1757h225l-247 -223h-177l-243 223h221l117 -96zM76 1432h514q170 0 307 -62t222 -162q175 -209 175 -491t-175 -494q-85 -103 -222 -163t-307 -60h-514v1432zM283 207h307q236 1 368 151t132 357t-132 359t-368 151h-307v-1018z" />
    <glyph glyph-name="dcaron" unicode="&#x10f;" horiz-adv-x="1413" 
d="M686 1757h225l-247 -223h-177l-243 223h221l117 -96zM76 1432h514q170 0 307 -62t222 -162q175 -209 175 -491t-175 -494q-85 -103 -222 -163t-307 -60h-514v1432zM283 207h307q236 1 368 151t132 357t-132 359t-368 151h-307v-1018z" />
    <glyph glyph-name="Dcroat" unicode="&#x110;" horiz-adv-x="1480" 
d="M330 207h307q236 1 368 151t132 357t-132 359t-368 151h-307v-422h270v-187h-270v-409zM20 616v187h103v629h514q170 0 307 -62t222 -162q175 -209 175 -491t-175 -494q-85 -103 -222 -163t-307 -60h-514v616h-103z" />
    <glyph glyph-name="dcroat" unicode="&#x111;" horiz-adv-x="1478" 
d="M330 207h307q236 1 368 151t132 357t-132 359t-368 151h-307v-422h270v-187h-270v-409zM20 616v187h103v629h514q170 0 307 -62t222 -162q175 -209 175 -491t-175 -494q-85 -103 -222 -163t-307 -60h-514v616h-103z" />
    <glyph glyph-name="Emacron" unicode="&#x112;" 
d="M274 207h666v-207h-874v1432h872v-207h-664v-404h650v-209h-650v-405zM254 1536v168h516v-168h-516z" />
    <glyph glyph-name="emacron" unicode="&#x113;" 
d="M254 1536v168h516v-168h-516zM274 207h666v-207h-874v1432h872v-207h-664v-404h650v-209h-650v-405z" />
    <glyph glyph-name="Ebreve" unicode="&#x114;" 
d="M621 1735h163q0 -109 -74 -162t-185 -53t-185 52t-74 163h154q0 -53 50 -75t100 0t51 75zM274 207h666v-207h-874v1432h872v-207h-664v-404h650v-209h-650v-405z" />
    <glyph glyph-name="ebreve" unicode="&#x115;" 
d="M614 1735h164q0 -109 -74 -162t-185 -53t-185 52t-74 163h154q0 -53 50 -75t100 0t50 75zM274 207h666v-207h-874v1432h872v-207h-664v-404h650v-209h-650v-405z" />
    <glyph glyph-name="Edotaccent" unicode="&#x116;" 
d="M393 1654q1 66 63 100q62 32 126 1t63 -98q0 -67 -39 -101t-87 -34t-87 33t-39 99zM274 207h666v-207h-874v1432h872v-207h-664v-404h650v-209h-650v-405z" />
    <glyph glyph-name="edotaccent" unicode="&#x117;" 
d="M416 1654q0 66 62 100q62 32 126 1t64 -98t-39 -101t-87 -34t-87 33t-39 99zM274 207h666v-207h-874v1432h872v-207h-664v-404h650v-209h-650v-405z" />
    <glyph glyph-name="Eogonek" unicode="&#x118;" 
d="M274 612v-405h666v-207q-123 -58 -129 -150t141 -120l-92 -113q-80 0 -142 34q-80 41 -94 141q-8 58 26 115q34 58 102 93h-686v1432h872v-207h-664v-404h650v-209h-650z" />
    <glyph glyph-name="eogonek" unicode="&#x119;" 
d="M940 207v-207q-123 -58 -129 -150t141 -120l-92 -113q-80 0 -142 34q-80 41 -94 141q-8 58 26 115q34 58 102 93h-686v1432h872v-207h-664v-404h650v-209h-650v-405h666z" />
    <glyph glyph-name="Ecaron" unicode="&#x11a;" 
d="M635 1755h225l-248 -223h-176l-243 223h221l116 -96zM274 612v-405h666v-207h-874v1432h872v-207h-664v-404h650v-209h-650z" />
    <glyph glyph-name="ecaron" unicode="&#x11b;" 
d="M633 1755h225l-248 -223h-176l-244 223h222l116 -96zM274 612v-405h666v-207h-874v1432h872v-207h-664v-404h650v-209h-650z" />
    <glyph glyph-name="Gcircumflex" unicode="&#x11c;" horiz-adv-x="1556" 
d="M639 1538h-225l248 223h176l243 -223h-221l-117 96zM752 1235q-210 1 -354 -147t-144 -373t143 -376t355 -151q143 0 266 72t184 219h-530v207h772q-16 -185 -39 -246q-72 -198 -261 -324t-392 -126q-303 0 -504 205t-201 520t203 521t502 206q222 0 414 -117
q97 -59 169 -163t99 -242h-222q-39 160 -172 238t-288 77z" />
    <glyph glyph-name="gcircumflex" unicode="&#x11d;" horiz-adv-x="1558" 
d="M647 1538h-225l248 223h176l244 -223h-222l-116 96zM752 1235q-210 1 -354 -147t-144 -373t143 -376t355 -151q143 0 266 72t184 219h-530v207h772q-16 -185 -39 -246q-72 -198 -261 -324t-392 -126q-303 0 -504 205t-201 520t203 521t502 206q222 0 414 -117
q97 -59 169 -163t99 -242h-222q-39 160 -172 238t-288 77z" />
    <glyph glyph-name="Gbreve" unicode="&#x11e;" horiz-adv-x="1558" 
d="M848 1743h164q0 -109 -74 -162t-186 -53t-185 52q-74 52 -73 163h153q0 -53 50 -75t101 0q50 22 50 75zM752 1235q-210 1 -354 -147t-144 -373t143 -376t355 -151q143 0 266 72t184 219h-530v207h772q-16 -188 -39 -248q-72 -196 -261 -322t-392 -126q-303 0 -504 205
t-201 520t203 521t502 206q222 0 414 -117q97 -59 169 -163t99 -242h-222q-39 160 -172 238t-288 77z" />
    <glyph glyph-name="gbreve" unicode="&#x11f;" horiz-adv-x="1558" 
d="M848 1743h164q0 -109 -74 -162t-186 -53t-185 52q-74 52 -73 163h153q0 -53 50 -75t101 0q50 22 50 75zM752 1235q-210 1 -354 -147t-144 -373t143 -376t355 -151q143 0 266 72t184 219h-530v207h772q-16 -188 -39 -248q-72 -196 -261 -322t-392 -126q-303 0 -504 205
t-201 520t203 521t502 206q222 0 414 -117q97 -59 169 -163t99 -242h-222q-39 160 -172 238t-288 77z" />
    <glyph glyph-name="Gdotaccent" unicode="&#x120;" horiz-adv-x="1558" 
d="M633 1658q0 66 62 100q61 32 125 1t64 -98t-38 -100q-39 -33 -87 -34t-87 32t-39 99zM752 1235q-210 1 -354 -147t-144 -373t143 -376t355 -151q143 0 266 72t184 219h-530v207h772q-16 -188 -39 -248q-72 -196 -261 -322t-392 -126q-303 0 -504 205t-201 520t203 521
t502 206q222 0 414 -117q97 -59 169 -163t99 -242h-222q-39 160 -172 238t-288 77z" />
    <glyph glyph-name="gdotaccent" unicode="&#x121;" horiz-adv-x="1558" 
d="M633 1658q0 66 62 100q61 32 125 1t64 -98t-38 -100q-39 -33 -87 -34t-87 32t-39 99zM752 1235q-210 1 -354 -147t-144 -373t143 -376t355 -151q143 0 266 72t184 219h-530v207h772q-2 -156 -39 -248q-72 -196 -261 -322t-392 -126q-303 0 -504 205t-201 520t203 521
t502 206q222 0 414 -117q97 -59 169 -163t99 -242h-222q-39 160 -172 238t-288 77z" />
    <glyph glyph-name="Gcommaaccent" unicode="&#x122;" horiz-adv-x="1558" 
d="M752 1235q-210 1 -354 -147t-144 -373t143 -376t355 -151q143 0 266 72t184 219h-530v207h772q-16 -185 -39 -246q-72 -198 -261 -324t-392 -126q-303 0 -504 205t-201 520t203 521t502 206q222 0 414 -117q97 -59 169 -163t99 -242h-222q-39 160 -172 238t-288 77z
M641 -76h223q55 -188 -55 -319l-184 2q43 116 41 188t-25 129z" />
    <glyph glyph-name="gcommaaccent" unicode="&#x123;" horiz-adv-x="1558" 
d="M641 -76h223q55 -188 -55 -319l-184 2q43 116 41 188t-25 129zM752 1235q-210 1 -354 -147t-144 -373t143 -376t355 -151q143 0 266 72t184 219h-530v207h772q-16 -185 -39 -246q-72 -198 -261 -324t-392 -126q-303 0 -504 205t-201 520t203 521t502 206q222 0 414 -117
q97 -59 169 -163t99 -242h-222q-39 160 -172 238t-288 77z" />
    <glyph glyph-name="Hcircumflex" unicode="&#x124;" horiz-adv-x="1234" 
d="M461 1538h-225l247 223h176l244 -223h-221l-117 96zM279 1434v-607h606v607h209v-1434h-209v623h-606v-623h-207v1434h207z" />
    <glyph glyph-name="hcircumflex" unicode="&#x125;" horiz-adv-x="1234" 
d="M475 1538h-225l248 223h176l244 -223h-222l-116 96zM279 1434v-607h606v607h209v-1434h-209v623h-606v-623h-207v1434h207z" />
    <glyph glyph-name="Hbar" unicode="&#x126;" horiz-adv-x="1306" 
d="M307 1042v-215h606v215h-606zM0 1042v177h100v215h207v-215h606v215h209v-215h111v-177h-111v-1042h-209v623h-606v-623h-207v1042h-100z" />
    <glyph glyph-name="hbar" unicode="&#x127;" horiz-adv-x="1306" 
d="M307 1042v-215h606v215h-606zM0 1042v177h100v215h207v-215h606v215h209v-215h111v-177h-111v-1042h-209v623h-606v-623h-207v1042h-100z" />
    <glyph glyph-name="Itilde" unicode="&#x128;" horiz-adv-x="876" 
d="M653 1739l103 -84q-80 -152 -226 -142q-48 5 -112 47t-96 44q-68 4 -125 -68l-113 80q94 150 242 143q52 -4 118 -47t91 -45q65 -4 118 72zM776 1432v-205h-266v-1020h266v-207h-739v207h266v1020h-266v205h739z" />
    <glyph glyph-name="itilde" unicode="&#x129;" horiz-adv-x="876" 
d="M653 1739l103 -84q-80 -152 -226 -142q-48 5 -112 47t-96 44q-68 4 -125 -68l-113 80q94 150 242 143q52 -4 118 -47t91 -45q65 -4 118 72zM776 1432v-205h-266v-1020h266v-207h-739v207h266v1020h-266v205h739z" />
    <glyph glyph-name="Imacron" unicode="&#x12a;" horiz-adv-x="876" 
d="M776 1227h-266v-1020h266v-207h-739v207h266v1020h-266v205h739v-205zM141 1538v166h523v-166h-523z" />
    <glyph glyph-name="imacron" unicode="&#x12b;" horiz-adv-x="876" 
d="M145 1538v166h523v-166h-523zM776 1227h-266v-1020h266v-207h-739v207h266v1020h-266v205h739v-205z" />
    <glyph glyph-name="Ibreve" unicode="&#x12c;" horiz-adv-x="876" 
d="M502 1739h164q0 -109 -74 -162t-186 -53t-185 52q-74 52 -74 163h154q0 -53 50 -75t101 0q50 22 50 75zM776 1227h-266v-1020h266v-207h-739v207h266v1020h-266v205h739v-205z" />
    <glyph glyph-name="ibreve" unicode="&#x12d;" horiz-adv-x="876" 
d="M502 1739h164q0 -109 -74 -162t-186 -53t-185 52q-74 52 -74 163h154q0 -53 50 -75t101 0q50 22 50 75zM776 1227h-266v-1020h266v-207h-739v207h266v1020h-266v205h739v-205z" />
    <glyph glyph-name="Iogonek" unicode="&#x12e;" horiz-adv-x="876" 
d="M776 1432v-205h-266v-1020h266v-207h-241q-127 -66 -111 -174q4 -30 40 -56t68 -36l35 -8l-98 -107q-79 0 -144 36q-30 15 -59 50t-37 89t19 112t88 94h-299v207h266v1020h-266v205h739z" />
    <glyph glyph-name="iogonek" unicode="&#x12f;" horiz-adv-x="876" 
d="M776 1432v-205h-266v-1020h266v-207h-241q-127 -66 -111 -174q4 -30 40 -56t68 -36l35 -8l-98 -107q-79 0 -147 36q-31 15 -60 50t-37 89t19 112t88 94h-295v207h266v1020h-266v205h739z" />
    <glyph glyph-name="Idotaccent" unicode="&#x130;" horiz-adv-x="876" 
d="M274 1658q0 66 62 100q62 32 126 1t64 -98t-39 -100t-87 -34t-87 32t-39 99zM776 1227h-266v-1020h266v-207h-739v207h266v1020h-266v205h739v-205z" />
    <glyph glyph-name="dotlessi" unicode="&#x131;" horiz-adv-x="876" 
d="M776 1432v-205h-266v-1020h266v-207h-739v207h266v1020h-266v205h739z" />
    <glyph glyph-name="IJ" unicode="&#x132;" horiz-adv-x="1570" 
d="M846 0v201q221 1 311 109t90 311v622h-387v189h594v-811q0 -303 -143 -462t-465 -159zM776 1432v-189h-266v-1046h266v-197h-739v197h266v1046h-266v189h739z" />
    <glyph glyph-name="ij" unicode="&#x133;" horiz-adv-x="1570" 
d="M846 0v201q221 1 311 109t90 311v622h-387v189h594v-811q0 -303 -143 -462t-465 -159zM776 1432v-189h-266v-1046h266v-197h-739v197h266v1046h-266v189h739z" />
    <glyph glyph-name="Jcircumflex" unicode="&#x134;" horiz-adv-x="925" 
d="M385 1538h-225l248 223h176l243 -223h-221l-117 96zM799 1432v-811q0 -325 -175 -473t-583 -148v195q307 0 429 101t122 325v622h-387v189h594z" />
    <glyph glyph-name="jcircumflex" unicode="&#x135;" horiz-adv-x="925" 
d="M385 1538h-225l248 223h176l243 -223h-221l-117 96zM799 1432v-811q0 -325 -175 -473t-583 -148v195q307 0 429 101t122 325v622h-387v189h594z" />
    <glyph glyph-name="Kcommaaccent" unicode="&#x136;" horiz-adv-x="1157" 
d="M446 -47h207q53 -182 -63 -320l-160 2q44 120 42 191q-3 70 -26 127zM319 664v104l500 664h260l-547 -711l605 -721h-271zM76 1432h205v-1432h-205v1432z" />
    <glyph glyph-name="kcommaaccent" unicode="&#x137;" horiz-adv-x="1157" 
d="M446 -47h207q55 -188 -55 -320l-168 2q44 120 42 191q-3 70 -26 127zM319 664v104l500 664h260l-547 -711l605 -721h-271zM76 1432h205v-1432h-205v1432z" />
    <glyph glyph-name="kgreenlandic" unicode="&#x138;" horiz-adv-x="1157" 
d="M319 664v104l500 664h260l-547 -711l605 -721h-271zM76 1432h205v-1432h-205v1432z" />
    <glyph glyph-name="Lacute" unicode="&#x139;" horiz-adv-x="1044" 
d="M254 1540h-178l147 219h262zM274 1432v-1225h674v-207h-880v1432h206z" />
    <glyph glyph-name="lacute" unicode="&#x13a;" horiz-adv-x="1044" 
d="M262 1540h-178l147 219h248zM274 1432v-1225h674v-207h-880v1432h206z" />
    <glyph glyph-name="Lcommaaccent" unicode="&#x13b;" horiz-adv-x="1044" 
d="M406 -76h206q53 -182 -63 -319l-160 2q44 120 42 190t-25 127zM274 1432v-1225h674v-207h-880v1432h206z" />
    <glyph glyph-name="lcommaaccent" unicode="&#x13c;" horiz-adv-x="1044" 
d="M422 -76h207q53 -182 -64 -319l-159 2q43 118 41 189t-25 128zM274 1432v-1225h674v-207h-880v1432h206z" />
    <glyph glyph-name="Lcaron" unicode="&#x13d;" horiz-adv-x="1044" 
d="M717 1432h207q53 -182 -64 -320l-160 2q44 120 42 191q-2 70 -25 127zM274 1432v-1225h674v-207h-880v1432h206z" />
    <glyph glyph-name="lcaron" unicode="&#x13e;" horiz-adv-x="1044" 
d="M715 1432h207q26 -80 10 -172t-74 -160l-160 2q44 130 42 202q-2 71 -25 128zM274 1432v-1225h674v-207h-880v1432h206z" />
    <glyph glyph-name="Ldot" unicode="&#x13f;" horiz-adv-x="1044" 
d="M504 796q0 66 63 99t125 2t64 -99q0 -68 -39 -100q-39 -34 -87 -34t-87 32q-39 34 -39 100zM274 1432v-1225h674v-207h-880v1432h206z" />
    <glyph glyph-name="ldot" unicode="&#x140;" horiz-adv-x="1044" 
d="M504 796q0 66 63 99t125 2t64 -99q0 -68 -39 -100q-39 -34 -87 -34t-87 32q-39 34 -39 100zM274 1432v-1225h674v-207h-880v1432h206z" />
    <glyph glyph-name="Lslash" unicode="&#x141;" horiz-adv-x="1093" 
d="M324 207h673v-207h-880v549l-103 -57v204l103 60v676h207v-558l223 130v-209l-223 -127v-461z" />
    <glyph glyph-name="lslash" unicode="&#x142;" horiz-adv-x="1095" 
d="M324 207h673v-207h-880v549l-103 -57v204l103 60v676h207v-558l223 130v-209l-223 -127v-461z" />
    <glyph glyph-name="Nacute" unicode="&#x143;" horiz-adv-x="1308" 
d="M705 1540h-179l148 219h262zM303 0h-207v1436l160 -2l698 -1010v1010h205v-1434h-164l-692 1001v-1001z" />
    <glyph glyph-name="nacute" unicode="&#x144;" horiz-adv-x="1308" 
d="M696 1536h-178l148 219h262zM303 0h-207v1436l160 -2l698 -1010v1010h205v-1434h-164l-692 1001v-1001z" />
    <glyph glyph-name="Ncommaaccent" unicode="&#x145;" horiz-adv-x="1308" 
d="M512 -53h207q53 -182 -64 -320l-159 2q43 116 41 189q-2 72 -25 129zM303 0h-207v1436l160 -2l698 -1010v1010h205v-1434h-164l-692 1001v-1001z" />
    <glyph glyph-name="ncommaaccent" unicode="&#x146;" horiz-adv-x="1308" 
d="M520 -53h207q53 -182 -63 -320l-160 2q44 120 42 191q-3 70 -26 127zM303 0h-207v1436l160 -2l698 -1010v1010h205v-1434h-164l-692 1001v-1001z" />
    <glyph glyph-name="Ncaron" unicode="&#x147;" horiz-adv-x="1308" 
d="M741 1755h226l-248 -223h-176l-244 223h221l117 -96zM303 0h-207v1436l160 -2l698 -1010v1010h205v-1434h-164l-692 1001v-1001z" />
    <glyph glyph-name="ncaron" unicode="&#x148;" horiz-adv-x="1308" 
d="M739 1755h226l-248 -223h-176l-244 223h221l117 -96zM303 0h-207v1436l160 -2l698 -1010v1010h205v-1434h-164l-692 1001v-1001z" />
    <glyph glyph-name="napostrophe" unicode="&#x149;" horiz-adv-x="1478" 
d="M266 0v1436l160 -2l698 -1010v1010h205v-1434h-164l-692 1001v-1001h-207zM10 1440h178q39 -143 -36 -297h-156q33 95 38 149t-24 148z" />
    <glyph glyph-name="Eng" unicode="&#x14a;" horiz-adv-x="1308" 
d="M303 0h-207v1436l160 -2l698 -1010v1010h205v-1502q-1 -172 -109 -258t-313 -71v151q119 0 182 39q62 39 62 139v88l-678 981v-1001z" />
    <glyph glyph-name="eng" unicode="&#x14b;" horiz-adv-x="1308" 
d="M954 1434h205v-1502q-1 -172 -109 -258t-313 -71v151q119 0 182 39q62 39 62 139v88l-678 981v-1001h-207v1436l160 -2l698 -1010v1010z" />
    <glyph glyph-name="Omacron" unicode="&#x14c;" horiz-adv-x="1667" 
d="M68 717q0 299 213 517t515 218t519 -217q213 -219 213 -518t-213 -517t-518 -218t-517 218t-212 517zM1319 717q0 215 -154 371q-155 156 -369 155q-214 0 -367 -155q-153 -156 -153 -372t153 -371t368 -155t370 156q152 156 152 371zM539 1552v183h522v-183h-522z" />
    <glyph glyph-name="omacron" unicode="&#x14d;" horiz-adv-x="1667" 
d="M537 1552v183h522v-183h-522zM68 717q0 299 213 517t515 218t519 -217q213 -219 213 -518t-213 -517t-518 -218t-517 218t-212 517zM1319 717q0 215 -154 371q-155 156 -369 155q-214 0 -367 -155q-153 -156 -153 -372t153 -371t368 -155t370 156q152 156 152 371z" />
    <glyph glyph-name="Obreve" unicode="&#x14e;" horiz-adv-x="1667" 
d="M883 1749h164q0 -109 -74 -162t-186 -53q-111 0 -185 52t-74 163h154q0 -53 50 -75t101 0q50 22 50 75zM68 717q0 299 213 517t515 218t519 -217q213 -219 213 -518t-213 -517t-518 -218t-517 218t-212 517zM1319 717q0 215 -154 371q-155 156 -369 155q-214 0 -367 -155
q-153 -156 -153 -372t153 -371t368 -155t370 156q152 156 152 371z" />
    <glyph glyph-name="obreve" unicode="&#x14f;" horiz-adv-x="1667" 
d="M897 1749h164q0 -109 -74 -162q-73 -53 -185 -53t-186 52t-73 163h153q0 -53 50 -75t101 0q50 22 50 75zM68 717q0 299 213 517t515 218t519 -217q213 -219 213 -518t-213 -517t-518 -218t-517 218t-212 517zM1319 717q0 215 -154 371q-155 156 -369 155
q-214 0 -367 -155q-153 -156 -153 -372t153 -371t368 -155t370 156q152 156 152 371z" />
    <glyph glyph-name="Ohungarumlaut" unicode="&#x150;" horiz-adv-x="1667" 
d="M68 717q0 299 213 517t515 218t519 -217q213 -219 213 -518t-213 -517t-518 -218t-517 218t-212 517zM1319 717q0 215 -154 371q-155 156 -369 155q-214 0 -367 -155q-153 -156 -153 -372t153 -371t368 -155t370 156q152 156 152 371zM561 1530l129 231h205l-156 -231
h-178zM864 1530l140 231h219l-179 -231h-180z" />
    <glyph glyph-name="ohungarumlaut" unicode="&#x151;" horiz-adv-x="1667" 
d="M557 1530l129 231h205l-156 -231h-178zM860 1530l139 231h220l-179 -231h-180zM68 717q0 299 213 517t515 218t519 -217q213 -219 213 -518t-213 -517t-518 -218t-517 218t-212 517zM1319 717q0 215 -154 371q-155 156 -369 155q-214 0 -367 -155q-153 -156 -153 -372
t153 -371t368 -155t370 156q152 156 152 371z" />
    <glyph glyph-name="OE" unicode="&#x152;" horiz-adv-x="1892" 
d="M774 1268q-219 0 -370 -158q-150 -158 -150 -406t153 -392q153 -142 367 -142q70 0 137 18v1059q-63 21 -137 21zM1120 612v-405h666v-207h-848q-80 -18 -164 -18q-313 0 -521 200t-208 529t210 535t519 206q92 0 172 -20h838v-207h-664v-404h649v-209h-649z" />
    <glyph glyph-name="oe" unicode="&#x153;" horiz-adv-x="1892" 
d="M774 1268q-219 0 -370 -158q-150 -158 -150 -406t153 -392q153 -142 367 -142q70 0 137 18v1059q-63 21 -137 21zM1120 612v-405h666v-207h-848q-80 -18 -164 -18q-313 0 -521 200t-208 529t210 535t519 206q92 0 172 -20h838v-207h-664v-404h649v-209h-649z" />
    <glyph glyph-name="Racute" unicode="&#x154;" horiz-adv-x="1187" 
d="M578 1540h-179l148 219h262zM356 727h242q123 0 192 74q68 74 68 175t-68 175q-69 74 -192 74h-317v-1225h-205v1434h522q221 0 344 -136t123 -309q0 -172 -97 -296t-274 -154l453 -539h-268l-523 629v98z" />
    <glyph glyph-name="racute" unicode="&#x155;" horiz-adv-x="1187" 
d="M578 1540h-179l148 219h262zM356 727h242q123 0 192 74q68 74 68 175t-68 175q-69 74 -192 74h-317v-1225h-205v1434h522q221 0 344 -136t123 -309q0 -172 -97 -296t-274 -154l453 -539h-268l-523 629v98z" />
    <glyph glyph-name="Rcommaaccent" unicode="&#x156;" horiz-adv-x="1187" 
d="M442 -29h207q53 -182 -63 -319l-160 2q44 120 42 190q-3 70 -26 127zM356 727h242q123 0 192 74q68 74 68 175t-68 175q-69 74 -192 74h-317v-1225h-205v1434h522q221 0 344 -136t123 -309q0 -172 -97 -296t-274 -154l453 -539h-268l-523 629v98z" />
    <glyph glyph-name="rcommaaccent" unicode="&#x157;" horiz-adv-x="1187" 
d="M449 -29h206q53 -182 -63 -319l-160 2q44 120 42 190t-25 127zM356 727h242q123 0 192 74q68 74 68 175t-68 175q-69 74 -192 74h-317v-1225h-205v1434h522q221 0 344 -136t123 -309q0 -172 -97 -296t-274 -154l453 -539h-268l-523 629v98z" />
    <glyph glyph-name="Rcaron" unicode="&#x158;" horiz-adv-x="1187" 
d="M621 1755h225l-248 -223h-176l-244 223h221l117 -96zM356 727h242q123 0 192 74q68 74 68 175t-68 175q-69 74 -192 74h-317v-1225h-205v1434h522q221 0 344 -136t123 -309q0 -172 -97 -296t-274 -154l453 -539h-268l-523 629v98z" />
    <glyph glyph-name="rcaron" unicode="&#x159;" horiz-adv-x="1189" 
d="M635 1755h225l-248 -223h-176l-243 223h221l116 -96zM356 727h242q123 0 192 74q68 74 68 175t-68 175q-69 74 -192 74h-317v-1225h-205v1434h522q221 0 344 -136t123 -309q0 -172 -97 -296t-274 -154l453 -539h-268l-523 629v98z" />
    <glyph glyph-name="Sacute" unicode="&#x15a;" horiz-adv-x="1216" 
d="M657 1540h-178l148 219h262zM1100 424q0 -196 -162 -316t-371 -120q-258 0 -420 175q-84 91 -96 212l-2 39l209 4l2 -23q10 -94 104 -148t212 -54t217 64q98 65 98 169q0 75 -36 108q-36 34 -104 53t-165 28t-155 19q-157 28 -257 109q-100 80 -112 238q-13 158 77 276
q70 91 188 141t246 50q182 0 322 -96q139 -97 166 -281l-205 -8q-20 90 -105 137t-188 45q-178 -4 -260 -108q-41 -53 -36 -130t65 -119q61 -42 132 -50q70 -8 144 -16q420 -48 476 -288q16 -66 16 -110z" />
    <glyph glyph-name="sacute" unicode="&#x15b;" horiz-adv-x="1216" 
d="M657 1538h-178l148 219h262zM1100 424q0 -196 -162 -316t-371 -120q-258 0 -420 175q-84 91 -96 212l-2 39l209 4l2 -23q10 -94 104 -148t212 -54t217 64q98 65 98 169q0 75 -36 108q-36 34 -104 53t-165 28t-155 19q-157 28 -257 109q-100 80 -112 238q-13 158 77 276
q70 91 188 141t246 50q182 0 322 -96q139 -97 166 -281l-205 -8q-20 90 -105 137t-188 45q-178 -4 -260 -108q-41 -53 -36 -130t65 -119q61 -42 132 -50q70 -8 144 -16q420 -48 476 -288q16 -66 16 -110z" />
    <glyph glyph-name="Scircumflex" unicode="&#x15c;" horiz-adv-x="1216" 
d="M473 1536h-225l248 223h176l243 -223h-221l-116 96zM1100 424q0 -196 -162 -316t-371 -120q-258 0 -420 175q-84 91 -96 212l-2 39l209 4l2 -23q10 -94 104 -148t212 -54t217 64q98 65 98 169q0 75 -36 108q-36 34 -104 53t-165 28t-155 19q-157 28 -257 109
q-100 80 -112 238q-13 158 77 276q70 91 188 141t246 50q182 0 322 -96q139 -97 166 -281l-205 -8q-20 90 -105 137t-188 45q-178 -4 -260 -108q-41 -53 -36 -130t65 -119q61 -42 132 -50q70 -8 144 -16q420 -48 476 -288q16 -66 16 -110z" />
    <glyph glyph-name="scircumflex" unicode="&#x15d;" horiz-adv-x="1216" 
d="M467 1534h-225l247 223h177l243 -223h-221l-117 96zM1100 424q0 -196 -162 -316t-371 -120q-258 0 -420 175q-84 91 -96 212l-2 39l209 4l2 -23q10 -94 104 -148t212 -54t217 64q98 65 98 169q0 75 -36 108q-36 34 -104 53t-165 28t-155 19q-157 28 -257 109
q-100 80 -112 238q-13 158 77 276q70 91 188 141t246 50q182 0 322 -96q139 -97 166 -281l-205 -8q-20 90 -105 137t-188 45q-178 -4 -260 -108q-41 -53 -36 -130t65 -119q61 -42 132 -50q70 -8 144 -16q420 -48 476 -288q16 -66 16 -110z" />
    <glyph glyph-name="Scedilla" unicode="&#x15e;" horiz-adv-x="1216" 
d="M1100 424q0 -174 -131 -290t-314 -140l-26 -66q88 -4 136 -56t40 -124t-75 -125q-68 -53 -148 -64t-160 25t-113 119l123 57q35 -47 84 -57t84 9t42 45t-8 46q-14 19 -66 33t-130 4l68 152q-170 16 -304 118t-151 265l-2 39l209 4l2 -23q10 -94 104 -148t212 -54t217 64
q98 65 98 169q0 75 -36 108q-36 34 -104 53t-165 28t-155 19q-157 28 -257 109q-100 80 -112 238q-13 158 77 276q70 91 188 141t246 50q182 0 322 -96q139 -97 166 -281l-205 -8q-20 90 -105 137t-188 45q-178 -4 -260 -108q-41 -53 -36 -130t65 -119q61 -42 132 -50
q70 -8 144 -16q420 -48 476 -288q16 -66 16 -110z" />
    <glyph glyph-name="scedilla" unicode="&#x15f;" horiz-adv-x="1216" 
d="M1100 424q0 -176 -133 -292t-320 -138l-20 -53q88 -5 136 -57t40 -124t-75 -124q-68 -54 -148 -65t-160 26t-113 118l123 58q35 -47 84 -57t84 8q35 20 42 46q15 56 -75 79q-51 13 -129 4l62 139q-168 18 -299 118t-148 265l-2 39l209 4l2 -23q10 -94 104 -148t212 -54
t217 64q98 65 98 169q0 75 -36 108q-36 34 -104 53t-165 28t-155 19q-157 28 -257 109q-100 80 -112 238q-13 158 77 276q70 91 188 141t246 50q182 0 322 -96q139 -97 166 -281l-205 -8q-20 90 -105 137t-188 45q-178 -4 -260 -108q-41 -53 -36 -130t65 -119
q61 -42 132 -50q70 -8 144 -16q420 -48 476 -288q16 -66 16 -110z" />
    <glyph glyph-name="Scaron" unicode="&#x160;" horiz-adv-x="1216" 
d="M694 1759h226l-252 -227h-176l-250 227h221l123 -102zM1100 424q0 -196 -162 -316t-371 -120q-258 0 -420 175q-84 91 -96 212l-2 39l209 4l2 -23q10 -94 104 -148t212 -54t217 64q98 65 98 169q0 75 -36 108q-36 34 -104 53t-165 28t-155 19q-157 28 -257 109
q-100 80 -112 238q-13 158 77 276q70 91 188 141t246 50q182 0 322 -96q139 -97 166 -281l-205 -8q-20 90 -105 137t-188 45q-178 -4 -260 -108q-41 -53 -36 -130t65 -119q61 -42 132 -50q70 -8 144 -16q420 -48 476 -288q16 -66 16 -110z" />
    <glyph glyph-name="scaron" unicode="&#x161;" horiz-adv-x="1216" 
d="M694 1749h226l-252 -227h-176l-250 227h221l123 -102zM1100 424q0 -199 -162 -321q-162 -121 -358 -121t-353 105q-158 105 -176 286l-2 41l209 4l2 -23q10 -94 104 -150q94 -57 212 -57t217 66q98 66 98 181t-122 149q-85 24 -176 32q-254 23 -358 86q-104 64 -144 160
q-23 57 -30 129q-12 156 78 277q70 92 188 142t246 50q180 0 321 -97q140 -98 167 -284l-205 -8q-20 90 -105 138t-188 46q-180 -4 -260 -110q-41 -53 -35 -135q7 -145 233 -172q35 -4 109 -12q298 -34 409 -166q81 -94 81 -236z" />
    <glyph glyph-name="Tcommaaccent" unicode="&#x162;" horiz-adv-x="1196" 
d="M469 1235h-434v199h1073v-199h-432v-1241h-43l-21 -53q88 -5 136 -57t40 -124t-74 -125q-67 -53 -148 -64q-80 -11 -160 26t-113 118l123 58q35 -47 84 -57t84 8q35 20 42 46q15 55 -81 79q-53 14 -131 4l55 141v1241z" />
    <glyph glyph-name="tcommaaccent" unicode="&#x163;" horiz-adv-x="1214" 
d="M469 1235h-434v199h1073v-199h-432v-1241h-43l-21 -53q88 -5 136 -57t40 -124t-74 -125q-67 -53 -148 -64q-80 -11 -160 26t-113 118l123 58q35 -47 84 -57t84 8q35 20 42 46q15 55 -81 79q-53 14 -131 4l55 141v1241z" />
    <glyph glyph-name="Tcaron" unicode="&#x164;" horiz-adv-x="1196" 
d="M676 1755h225l-248 -223h-176l-244 223h222l116 -96zM676 0h-207v1235h-434v199h1073v-199h-432v-1235z" />
    <glyph glyph-name="tcaron" unicode="&#x165;" horiz-adv-x="1196" 
d="M678 1755h225l-248 -223h-176l-243 223h221l116 -96zM676 -6h-207v1241h-434v199h1073v-199h-432v-1241z" />
    <glyph glyph-name="Tbar" unicode="&#x166;" horiz-adv-x="1196" 
d="M676 0h-207v629h-248v176h248v430h-434v199h1073v-199h-432v-430h254v-176h-254v-629z" />
    <glyph glyph-name="tbar" unicode="&#x167;" horiz-adv-x="1196" 
d="M676 0h-207v629h-248v176h248v430h-434v199h1073v-199h-432v-430h254v-176h-254v-629z" />
    <glyph glyph-name="Utilde" unicode="&#x168;" horiz-adv-x="1284" 
d="M520 1608q-68 0 -121 -74l-116 72q86 158 233 157q51 -2 120 -41t93 -39q64 0 115 80l106 -77q-33 -76 -90 -116q-58 -40 -116 -39t-124 39t-100 38zM607 -14q-130 0 -248 48q-117 48 -199 152t-82 244v1002h209v-1004q0 -111 98 -173t222 -62t222 63t99 174v1002h209
v-1004q0 -138 -82 -242t-200 -152t-248 -48z" />
    <glyph glyph-name="utilde" unicode="&#x169;" horiz-adv-x="1284" 
d="M522 1608q-68 0 -121 -74l-116 72q86 158 233 157q51 -2 120 -41t93 -39q64 0 115 80l106 -77q-33 -76 -90 -116q-58 -40 -116 -39t-124 39t-100 38zM607 -14q-130 0 -248 48q-117 48 -199 152t-82 244v1002h209v-1004q0 -111 98 -173t222 -62t222 63t99 174v1002h209
v-1004q0 -138 -82 -242t-200 -152t-248 -48z" />
    <glyph glyph-name="Umacron" unicode="&#x16a;" horiz-adv-x="1284" 
d="M607 -14q-130 0 -248 48q-117 48 -199 152t-82 244v1002h209v-1004q0 -111 98 -173t222 -62t222 63t99 174v1002h209v-1004q0 -138 -82 -242t-200 -152t-248 -48zM348 1536v160h522v-160h-522z" />
    <glyph glyph-name="umacron" unicode="&#x16b;" horiz-adv-x="1284" 
d="M348 1536v160h522v-160h-522zM607 -14q-130 0 -248 48q-117 48 -199 152t-82 244v1002h209v-1004q0 -111 98 -173t222 -62t222 63t99 174v1002h209v-1004q0 -138 -82 -242t-200 -152t-248 -48z" />
    <glyph glyph-name="Ubreve" unicode="&#x16c;" horiz-adv-x="1284" 
d="M705 1741h163q0 -109 -74 -162t-185 -53t-185 52t-74 163h154q0 -53 50 -75t100 0t51 75zM607 -14q-130 0 -248 48q-117 48 -199 152t-82 244v1002h209v-1004q0 -111 98 -173t222 -62t222 63t99 174v1002h209v-1004q0 -138 -82 -242t-200 -152t-248 -48z" />
    <glyph glyph-name="ubreve" unicode="&#x16d;" horiz-adv-x="1284" 
d="M709 1739h163q0 -109 -74 -162t-185 -53t-185 52t-74 163h154q0 -53 50 -75t100 0t51 75zM607 -14q-130 0 -248 48q-117 48 -199 152t-82 244v1002h209v-1004q0 -111 98 -173t222 -62t222 63t99 174v1002h209v-1004q0 -138 -82 -242t-200 -152t-248 -48z" />
    <glyph glyph-name="Uring" unicode="&#x16e;" horiz-adv-x="1284" 
d="M626 1618q26 0 42 15t16 41t-16 42t-41 17q-57 0 -58 -60q-1 -25 15 -40t42 -15zM626 1503q-79 0 -136 47q-56 47 -56 124t56 124t136 47t136 -47q57 -47 57 -124t-57 -124t-136 -47zM607 -14q-130 0 -248 48q-117 48 -199 152t-82 244v1002h209v-1004q0 -111 98 -173
t222 -62t222 63t99 174v1002h209v-1004q0 -138 -82 -242t-200 -152t-248 -48z" />
    <glyph glyph-name="uring" unicode="&#x16f;" horiz-adv-x="1284" 
d="M624 1618q26 0 42 15t16 41t-16 42t-41 17q-57 0 -58 -60q-1 -25 15 -40t42 -15zM624 1503q-79 0 -136 47q-56 47 -56 124t56 124t136 47t136 -47q57 -47 57 -124t-57 -124t-136 -47zM607 -14q-130 0 -248 48q-117 48 -199 152t-82 244v1004h209v-1006q0 -111 98 -173
t222 -62t222 63t99 174v1004h209v-1006q0 -138 -82 -242t-200 -152t-248 -48z" />
    <glyph glyph-name="Uhungarumlaut" unicode="&#x170;" horiz-adv-x="1284" 
d="M356 1530l129 231h205l-155 -231h-179zM659 1530l140 231h219l-178 -231h-181zM607 -14q-130 0 -248 48q-117 48 -199 152t-82 244v1002h209v-1004q0 -111 98 -173t222 -62t222 63t99 174v1002h209v-1004q0 -138 -82 -242t-200 -152t-248 -48z" />
    <glyph glyph-name="uhungarumlaut" unicode="&#x171;" horiz-adv-x="1284" 
d="M352 1530l129 231h205l-156 -231h-178zM655 1530l140 231h219l-178 -231h-181zM607 -14q-130 0 -248 48q-117 48 -199 152t-82 244v1002h209v-1004q0 -111 98 -173t222 -62t222 63t99 174v1002h209v-1004q0 -138 -82 -242t-200 -152t-248 -48z" />
    <glyph glyph-name="Uogonek" unicode="&#x172;" horiz-adv-x="1284" 
d="M608 -14q-131 0 -249 48q-117 48 -199 152t-82 244v1002h209v-1004q0 -111 98 -173t222 -62t222 63t99 174v1002h209v-1004q0 -209 -181 -336q-80 -72 -80 -117t34 -79q32 -34 65 -48l35 -14l-119 -121q-113 9 -175 101t-3 182q-58 -10 -105 -10z" />
    <glyph glyph-name="uogonek" unicode="&#x173;" horiz-adv-x="1284" 
d="M608 -14q-131 0 -249 48q-117 48 -199 152t-82 244v1002h209v-1004q0 -111 98 -173t222 -62t222 63t99 174v1002h209v-1004q0 -209 -181 -336q-80 -72 -80 -117t34 -79q32 -34 65 -48l35 -14l-119 -121q-113 9 -175 101t-3 182q-58 -10 -105 -10z" />
    <glyph glyph-name="Wcircumflex" unicode="&#x174;" horiz-adv-x="1816" 
d="M772 1538h-225l248 223h176l243 -223h-221l-116 96zM1192 399l344 1035h217l-481 -1442h-146l-252 690l-247 -690h-146l-481 1442h215l342 -1037l236 670h165z" />
    <glyph glyph-name="wcircumflex" unicode="&#x175;" horiz-adv-x="1814" 
d="M772 1534h-225l248 223h176l243 -223h-221l-116 96zM1192 399l344 1035h217l-481 -1442h-146l-252 690l-247 -690h-146l-481 1442h215l342 -1037l236 670h165z" />
    <glyph glyph-name="Ycircumflex" unicode="&#x176;" horiz-adv-x="1329" 
d="M518 1534h-225l248 223h176l244 -223h-222l-116 96zM733 0h-209v584l-530 850h244l391 -631l391 631h246l-533 -850v-584z" />
    <glyph glyph-name="ycircumflex" unicode="&#x177;" horiz-adv-x="1329" 
d="M518 1534h-225l248 223h176l244 -223h-222l-116 96zM733 0h-209v584l-530 850h244l391 -631l391 631h246l-533 -850v-584z" />
    <glyph glyph-name="Ydieresis" unicode="&#x178;" horiz-adv-x="1243" 
d="M766 1737q49 0 82 -32t33 -79t-33 -82t-81 -35t-81 35t-33 81t32 79t81 33zM377 1737q49 0 82 -32t33 -79t-33 -82t-81 -35t-81 35t-33 81t32 79t81 33zM678 0h-209v584l-530 848h243l391 -629l392 629h245l-532 -848v-584z" />
    <glyph glyph-name="Zacute" unicode="&#x179;" horiz-adv-x="1224" 
d="M1104 1434v-162l-799 -1088h809v-184h-1048v170l794 1079h-794v185h1038zM651 1538h-178l148 219h262z" />
    <glyph glyph-name="zacute" unicode="&#x17a;" horiz-adv-x="1224" 
d="M1104 1434v-162l-799 -1088h809v-184h-1048v170l794 1079h-794v185h1038zM651 1538h-178l148 219h262z" />
    <glyph glyph-name="Zdotaccent" unicode="&#x17b;" horiz-adv-x="1224" 
d="M1114 184v-184h-1048v170l794 1079h-794v185h1038v-162l-799 -1088h809zM485 1658q1 66 63 100q62 32 126 1t63 -98q0 -67 -39 -100t-87 -34t-87 32t-39 99z" />
    <glyph glyph-name="zdotaccent" unicode="&#x17c;" horiz-adv-x="1224" 
d="M1114 184v-184h-1048v170l794 1079h-794v185h1038v-162l-799 -1088h809zM485 1658q1 66 63 100q62 32 126 1t63 -98q0 -67 -39 -100t-87 -34t-87 32t-39 99z" />
    <glyph glyph-name="Zcaron" unicode="&#x17d;" horiz-adv-x="1222" 
d="M727 1751h225l-252 -227h-176l-250 227h222l122 -102zM1104 1434v-162l-799 -1088h809v-184h-1048v170l794 1079h-794v185h1038z" />
    <glyph glyph-name="zcaron" unicode="&#x17e;" horiz-adv-x="1200" 
d="M731 1759h225l-251 -227h-177l-249 227h221l123 -102zM1104 1434v-162l-799 -1088h809v-184h-1048v170l794 1079h-794v185h1038z" />
    <glyph glyph-name="longs" unicode="&#x17f;" horiz-adv-x="1019" 
d="M272 1233v-1233h-206v1434h854v-201h-648z" />
    <glyph glyph-name="florin" unicode="&#x192;" horiz-adv-x="1058" 
d="M977 1440l-29 -174q-79 13 -131 1t-81 -37q-30 -25 -43 -52q-13 -28 -19 -42t-12 -40q-6 -27 -10 -40t-7 -42h213l-31 -185h-213l-172 -909q-39 -219 -183 -302t-361 -26l26 177q133 -35 201 3t106 183l166 874h-186l31 185h192q2 8 14 66t48 132q37 74 96 134
q126 126 385 94z" />
    <glyph glyph-name="Scommaaccent" unicode="&#x218;" horiz-adv-x="1216" 
d="M465 -88h207q37 -154 -37 -295h-184q31 57 35 137q6 80 -21 158zM1100 424q0 -196 -162 -316t-371 -120q-258 0 -420 175q-84 91 -96 212l-2 39l209 4l2 -23q10 -94 104 -148t212 -54t217 64q98 65 98 169q0 75 -36 108q-36 34 -104 53t-165 28t-155 19q-157 28 -257 109
q-100 80 -112 238q-13 158 77 276q70 91 188 141t246 50q182 0 322 -96q139 -97 166 -281l-205 -8q-20 90 -105 137t-188 45q-178 -4 -260 -108q-41 -53 -36 -130t65 -119q61 -42 132 -50q70 -8 144 -16q420 -48 476 -288q16 -66 16 -110z" />
    <glyph glyph-name="scommaaccent" unicode="&#x219;" horiz-adv-x="1216" 
d="M1100 424q0 -196 -162 -316t-371 -120q-258 0 -420 175q-84 91 -96 212l-2 39l209 4l2 -23q10 -94 104 -148t212 -54t217 64q98 65 98 169q0 75 -36 108q-36 34 -104 53t-165 28t-155 19q-157 28 -257 109q-100 80 -112 238q-13 158 77 276q70 91 188 141t246 50
q182 0 322 -96q139 -97 166 -281l-205 -8q-20 90 -105 137t-188 45q-178 -4 -260 -108q-41 -53 -36 -130t65 -119q61 -42 132 -50q70 -8 144 -16q420 -48 476 -288q16 -66 16 -110zM465 -88h207q37 -154 -37 -295h-184q65 158 14 295z" />
    <glyph glyph-name="uni021A" unicode="&#x21a;" horiz-adv-x="1196" 
d="M475 -84h207q37 -154 -37 -295h-184q65 158 14 295zM676 0h-207v1235h-434v199h1073v-199h-432v-1235z" />
    <glyph glyph-name="uni021B" unicode="&#x21b;" horiz-adv-x="1196" 
d="M469 -84h207q37 -154 -37 -295h-184q65 158 14 295zM676 0h-207v1237h-434v197h1073v-197h-432v-1237z" />
    <glyph glyph-name="circumflex" unicode="&#x2c6;" horiz-adv-x="720" 
d="M238 1278h-226l248 223h176l244 -223h-221l-117 96z" />
    <glyph glyph-name="caron" unicode="&#x2c7;" horiz-adv-x="794" 
d="M496 1556h225l-252 -227h-176l-250 227h221l123 -102z" />
    <glyph glyph-name="breve" unicode="&#x2d8;" horiz-adv-x="765" 
d="M451 1612h163q0 -109 -74 -162t-185 -53t-185 52t-74 163h154q0 -53 50 -75t100 0t51 75z" />
    <glyph glyph-name="dotaccent" unicode="&#x2d9;" horiz-adv-x="747" 
d="M223 1658q1 66 63 100q62 32 126 1t63 -98q0 -67 -39 -100t-87 -34t-87 32t-39 99z" />
    <glyph glyph-name="ring" unicode="&#x2da;" horiz-adv-x="638" 
d="M286 1618q26 0 42 15t16 41t-16 42t-41 17q-57 0 -58 -60q-1 -25 15 -40t42 -15zM286 1503q-79 0 -135 47q-57 47 -57 124t56 124t136 47q79 0 136 -47t57 -124t-57 -124t-136 -47z" />
    <glyph glyph-name="ogonek" unicode="&#x2db;" horiz-adv-x="1103" 
d="M349 -313q-28 33 -34 79t10 90q15 44 60 93t84 67l20 13l222 -4l-22 -11q-107 -49 -156 -130q-49 -80 17 -118q52 -32 130 -32l-123 -119q-2 2 -34 -3t-89 19q-57 23 -85 56z" />
    <glyph glyph-name="tilde" unicode="&#x2dc;" horiz-adv-x="823" 
d="M627 1710l104 -82q-74 -152 -223 -145q-47 2 -113 43t-98 43q-66 4 -123 -70l-115 78q92 154 240 147q51 -4 119 -45t92 -43q62 -4 117 74z" />
    <glyph glyph-name="hungarumlaut" unicode="&#x2dd;" horiz-adv-x="913" 
d="M104 1532l140 231h215l-178 -231h-177zM397 1532l140 231h215l-179 -231h-176z" />
    <glyph glyph-name="tonos" unicode="&#x384;" horiz-adv-x="739" 
d="M184 1532l140 231h215l-179 -231h-176z" />
    <glyph glyph-name="dieresistonos" unicode="&#x385;" horiz-adv-x="1103" 
d="M719 1704q0 66 54 94q53 28 107 0q54 -27 54 -92t-53 -93q-53 -27 -107 -1t-55 92zM113 1704q0 66 53 94t107 0q55 -27 55 -92t-54 -93q-54 -27 -107 -1q-54 26 -54 92zM541 1567h-187l115 266h236z" />
    <glyph glyph-name="Alphatonos" unicode="&#x386;" horiz-adv-x="1363" 
d="M424 1454l-154 -283h-180l115 283h219zM1085 0l-137 362h-581l-140 -362h-223l576 1452h151l576 -1452h-222zM657 1122l-215 -565h430z" />
    <glyph glyph-name="Epsilontonos" unicode="&#x388;" horiz-adv-x="1353" 
d="M328 1434l-154 -283h-180l115 283h219zM567 614v-407h666v-207h-875v1434h873v-207h-664v-404h650v-209h-650z" />
    <glyph glyph-name="Etatonos" unicode="&#x389;" horiz-adv-x="1513" 
d="M313 1434l-153 -283h-180l114 283h219zM557 1434v-607h606v607h209v-1434h-209v623h-606v-623h-207v1434h207z" />
    <glyph glyph-name="Iotatonos" unicode="&#x38a;" horiz-adv-x="1175" 
d="M313 1434l-153 -283h-180l114 283h219zM1075 1434v-197h-266v-1038h266v-199h-739v199h266v1038h-266v197h739z" />
    <glyph glyph-name="Omicrontonos" unicode="&#x38c;" horiz-adv-x="1740" 
d="M330 1434l-154 -283h-180l115 283h219zM143 717q0 299 213 517t515 218t520 -217q213 -219 213 -518t-213 -517t-519 -218t-517 218q-212 218 -212 517zM1395 717q0 215 -154 371t-369 155q-215 0 -366 -156q-154 -155 -154 -371t153 -371t367 -155t371 156
q152 156 152 371z" />
    <glyph glyph-name="Upsilontonos" unicode="&#x38e;" horiz-adv-x="1656" 
d="M315 1434l-153 -283h-180l114 283h219zM1059 0h-209v584l-531 848h244l391 -629l392 629h245l-532 -848v-584z" />
    <glyph glyph-name="Omegatonos" unicode="&#x38f;" horiz-adv-x="1724" 
d="M330 1434l-154 -283h-180l115 283h219zM858 1262q-226 0 -374 -153t-148 -368t108 -357t297 -220l-41 -164h-614v180h297q-121 84 -189 232t-67 317q0 323 205 525q206 202 528 202t526 -206t203 -521q1 -159 -71 -313t-187 -238h301v-178h-602l-33 168q188 88 287 222
q98 134 98 350t-148 369q-149 153 -376 153z" />
    <glyph glyph-name="iotadieresistonos" unicode="&#x390;" horiz-adv-x="878" 
d="M610 1640q0 66 54 94t107 1q54 -27 54 -93t-54 -93q-53 -27 -107 -1t-54 92zM33 1640q0 66 53 94q54 28 108 1t54 -93t-53 -93t-107 -1t-55 92zM461 1503h-187l91 266h235zM778 1237h-266v-1038h266v-199h-739v199h266v1038h-266v197h739v-197z" />
    <glyph glyph-name="Alpha" unicode="&#x391;" horiz-adv-x="1366" 
d="M1085 0l-137 362h-581l-140 -362h-223l576 1452h151l576 -1452h-222zM657 1122l-215 -565h430z" />
    <glyph glyph-name="Beta" unicode="&#x392;" horiz-adv-x="1249" 
d="M279 657v-456h442q98 1 153 69t56 160q0 92 -56 160t-153 67h-442zM74 1434h596q164 0 272 -118t105 -275q-4 -157 -136 -253q115 -49 170 -146t56 -210q0 -174 -111 -303t-305 -129h-647v1434zM279 1237v-375h387q63 0 108 39q78 67 56 203q-9 55 -53 94t-107 39h-391z
" />
    <glyph glyph-name="Gamma" unicode="&#x393;" 
d="M274 1233v-1233h-208v1434h872v-201h-664z" />
    <glyph glyph-name="Delta" unicode="&#x394;" horiz-adv-x="1370" 
d="M657 1122l-360 -942h719zM4 0l576 1452h151l576 -1452h-1303z" />
    <glyph glyph-name="Epsilon" unicode="&#x395;" horiz-adv-x="1067" 
d="M281 614v-407h665v-207h-874v1434h872v-207h-663v-404h649v-209h-649z" />
    <glyph glyph-name="Zeta" unicode="&#x396;" horiz-adv-x="1224" 
d="M1104 1434v-162l-799 -1088h809v-184h-1048v170l794 1079h-794v185h1038z" />
    <glyph glyph-name="Eta" unicode="&#x397;" horiz-adv-x="1234" 
d="M279 1434v-607h606v607h209v-1434h-209v623h-606v-623h-207v1434h207z" />
    <glyph glyph-name="Theta" unicode="&#x398;" horiz-adv-x="1665" 
d="M68 717q0 299 213 517t515 218t519 -217q213 -219 213 -518t-213 -517t-518 -218t-517 218t-212 517zM1319 717q0 215 -154 371q-155 156 -369 155q-214 0 -367 -155q-153 -156 -153 -372t153 -371t368 -155t370 156q152 156 152 371zM393 618v191h809v-191h-809z" />
    <glyph glyph-name="Iota" unicode="&#x399;" horiz-adv-x="876" 
d="M776 1432v-197h-266v-1036h266v-199h-739v199h266v1036h-266v197h739z" />
    <glyph glyph-name="Kappa" unicode="&#x39a;" horiz-adv-x="1177" 
d="M319 664v104l500 664h260l-547 -711l605 -721h-271zM76 1432h205v-1432h-205v1432z" />
    <glyph glyph-name="Lambda" unicode="&#x39b;" horiz-adv-x="1372" 
d="M657 1104l-426 -1104h-227l576 1452h151l576 -1452h-226z" />
    <glyph glyph-name="Mu" unicode="&#x39c;" horiz-adv-x="1513" 
d="M287 0h-207v1434h168l473 -697l473 697h164v-1434h-205v1010l-375 -557h-116l-375 557v-1010z" />
    <glyph glyph-name="Nu" unicode="&#x39d;" horiz-adv-x="1314" 
d="M303 0h-207v1436l160 -2l698 -1010v1010h205v-1434h-164l-692 1001v-1001z" />
    <glyph glyph-name="Xi" unicode="&#x39e;" horiz-adv-x="1079" 
d="M920 616h-828v201h828v-201zM63 203h895v-203h-895v203zM956 1229h-893v205h893v-205z" />
    <glyph glyph-name="Omicron" unicode="&#x39f;" horiz-adv-x="1665" 
d="M68 717q0 299 213 517t515 218t519 -217q213 -219 213 -518t-213 -517t-518 -218t-517 218t-212 517zM1319 717q0 215 -154 371q-155 156 -369 155q-214 0 -367 -155q-153 -156 -153 -372t153 -371t368 -155t370 156q152 156 152 371z" />
    <glyph glyph-name="Pi" unicode="&#x3a0;" horiz-adv-x="1234" 
d="M72 1434h1022v-1434h-209v1231h-606v-1231h-207v1434z" />
    <glyph glyph-name="Rho" unicode="&#x3a1;" horiz-adv-x="1161" 
d="M279 682h315q124 0 192 80t68 190t-69 192q-69 81 -191 81h-315v-543zM70 1434h524q219 0 342 -142t123 -338q0 -195 -123 -336t-342 -141h-315v-477h-209v1434z" />
    <glyph glyph-name="Sigma" unicode="&#x3a3;" horiz-adv-x="1239" 
d="M1126 182v-182h-997l-84 115l444 639l-432 544l70 136h991v-187h-782l366 -465v-61l-376 -539h800z" />
    <glyph glyph-name="Tau" unicode="&#x3a4;" horiz-adv-x="1196" 
d="M676 0h-207v1237h-434v197h1073v-197h-432v-1237z" />
    <glyph glyph-name="Upsilon" unicode="&#x3a5;" horiz-adv-x="1331" 
d="M733 0h-209v584l-530 852h244l391 -633l391 633h246l-533 -852v-584z" />
    <glyph glyph-name="Phi" unicode="&#x3a6;" horiz-adv-x="1589" 
d="M254 723q0 -174 110 -288t300 -124v813q-195 -8 -303 -117q-107 -110 -107 -284zM862 1124v-813q195 14 301 122t107 284q0 177 -108 285t-300 122zM659 1440h207v-135q287 -13 449 -183t162 -400t-163 -401t-448 -186v-135h-207v133q-147 6 -266 58q-119 53 -193 135
q-152 169 -153 396q-1 228 161 400t451 183v135z" />
    <glyph glyph-name="Chi" unicode="&#x3a7;" horiz-adv-x="1355" 
d="M-2 1434h254l389 -527l391 527h252l-518 -705l518 -729h-252l-391 563l-389 -563h-254l518 729z" />
    <glyph glyph-name="Psi" unicode="&#x3a8;" horiz-adv-x="1550" 
d="M639 1434h209v-963q180 23 267 133t89 275v555h211v-555q-2 -238 -141 -406t-426 -190v-283h-209v283q-285 25 -425 193t-142 401v557h209v-555q2 -155 93 -267t265 -139v961z" />
    <glyph glyph-name="Omega" unicode="&#x3a9;" horiz-adv-x="1671" 
d="M805 1262q-227 0 -375 -153t-147 -368t109 -357t296 -220l-41 -164h-614v180h297q-121 84 -189 232t-67 317q0 323 205 525t527 202t526 -206t204 -521q0 -159 -72 -313t-186 -238h301v-178h-602l-33 168q188 88 287 222q98 134 98 350t-148 369q-149 153 -376 153z" />
    <glyph glyph-name="Iotadieresis" unicode="&#x3aa;" horiz-adv-x="876" 
d="M606 1741q49 0 82 -32t33 -79t-33 -82t-81 -35t-81 35q-32 35 -32 81t31 79q32 33 81 33zM217 1741q49 0 82 -32t33 -79t-33 -82t-81 -35t-81 35t-33 81t32 79t81 33zM776 1235h-266v-1036h266v-199h-739v199h266v1036h-266v197h739v-197z" />
    <glyph glyph-name="Upsilondieresis" unicode="&#x3ab;" horiz-adv-x="1243" 
d="M766 1737q49 0 82 -32t33 -79t-33 -82t-81 -35t-81 35t-33 81t32 79t81 33zM377 1737q49 0 82 -32t33 -79t-33 -82t-81 -35t-81 35t-33 81t32 79t81 33zM678 0h-209v584l-530 848h243l391 -629l392 629h245l-532 -848v-584z" />
    <glyph glyph-name="alphatonos" unicode="&#x3ac;" horiz-adv-x="1363" 
d="M424 1454l-154 -283h-180l115 283h219zM1085 0l-137 362h-581l-140 -362h-223l576 1452h151l576 -1452h-222zM657 1122l-215 -565h430z" />
    <glyph glyph-name="epsilontonos" unicode="&#x3ad;" horiz-adv-x="1353" 
d="M328 1434l-154 -283h-180l115 283h219zM567 614v-407h666v-207h-875v1434h873v-207h-664v-404h650v-209h-650z" />
    <glyph glyph-name="etatonos" unicode="&#x3ae;" horiz-adv-x="1513" 
d="M313 1434l-153 -283h-180l114 283h219zM557 1434v-607h606v607h209v-1434h-209v623h-606v-623h-207v1434h207z" />
    <glyph glyph-name="iotatonos" unicode="&#x3af;" horiz-adv-x="1175" 
d="M313 1434l-153 -283h-180l114 283h219zM1075 1434v-197h-266v-1038h266v-199h-739v199h266v1038h-266v197h739z" />
    <glyph glyph-name="upsilondieresistonos" unicode="&#x3b0;" horiz-adv-x="1331" 
d="M844 1640q0 66 53 94t107 1t55 -93q0 -66 -54 -93q-53 -27 -107 -1t-54 92zM266 1640q0 66 53 94t107 1t55 -93q0 -66 -54 -93q-53 -27 -107 -1t-54 92zM694 1503h-186l90 266h236zM733 0h-209v584l-530 848h244l391 -629l391 629h246l-533 -848v-584z" />
    <glyph glyph-name="alpha" unicode="&#x3b1;" horiz-adv-x="1366" 
d="M1085 0l-137 362h-581l-140 -362h-223l576 1452h151l576 -1452h-222zM657 1122l-215 -565h430z" />
    <glyph glyph-name="beta" unicode="&#x3b2;" horiz-adv-x="1259" 
d="M289 657v-456h442q98 0 154 68q55 69 55 161t-55 160t-154 67h-442zM84 1432h596q129 0 217 -65t131 -171q46 -102 22 -218t-126 -190q115 -49 169 -146t54 -210q0 -174 -111 -303t-305 -129h-647v1432zM289 1235v-373h387q63 0 108 38q79 67 57 204q-9 55 -53 93
t-108 38h-391z" />
    <glyph glyph-name="gamma" unicode="&#x3b3;" horiz-adv-x="1077" 
d="M291 1231v-1231h-209v1432h872v-201h-663z" />
    <glyph glyph-name="delta" unicode="&#x3b4;" horiz-adv-x="1370" 
d="M657 1122l-360 -942h719zM4 0l576 1452h151l576 -1452h-1303z" />
    <glyph glyph-name="epsilon" unicode="&#x3b5;" 
d="M274 614v-407h666v-207h-874v1434h872v-207h-664v-404h650v-209h-650z" />
    <glyph glyph-name="zeta" unicode="&#x3b6;" horiz-adv-x="1224" 
d="M1104 1434v-162l-799 -1088h809v-184h-1048v170l794 1079h-794v185h1038z" />
    <glyph glyph-name="eta" unicode="&#x3b7;" horiz-adv-x="1234" 
d="M279 1434v-607h606v607h209v-1434h-209v623h-606v-623h-207v1434h207z" />
    <glyph glyph-name="theta" unicode="&#x3b8;" horiz-adv-x="1665" 
d="M68 717q0 299 213 517t515 218t519 -217q213 -219 213 -518t-213 -517t-518 -218t-517 218t-212 517zM1319 717q0 215 -154 371q-155 156 -369 155q-214 0 -367 -155q-153 -156 -153 -372t153 -371t368 -155t370 156q152 156 152 371zM393 618v191h809v-191h-809z" />
    <glyph glyph-name="iota" unicode="&#x3b9;" horiz-adv-x="876" 
d="M776 1432v-197h-266v-1036h266v-199h-739v199h266v1036h-266v197h739z" />
    <glyph glyph-name="kappa" unicode="&#x3ba;" horiz-adv-x="1177" 
d="M319 664v104l500 664h260l-547 -711l605 -721h-271zM76 1432h205v-1432h-205v1432z" />
    <glyph glyph-name="lambda" unicode="&#x3bb;" horiz-adv-x="1372" 
d="M657 1122l-430 -1122h-223l576 1452h151l576 -1452h-222z" />
    <glyph glyph-name="mu" unicode="&#x3bc;" horiz-adv-x="1513" 
d="M287 0h-207v1434h168l473 -697l473 697h164v-1434h-205v1010l-375 -557h-116l-375 557v-1010z" />
    <glyph glyph-name="nu" unicode="&#x3bd;" horiz-adv-x="1314" 
d="M303 0h-207v1436l160 -2l698 -1010v1010h205v-1434h-164l-692 1001v-1001z" />
    <glyph glyph-name="xi" unicode="&#x3be;" horiz-adv-x="1079" 
d="M920 616h-828v201h828v-201zM63 203h895v-203h-895v203zM956 1229h-893v205h893v-205z" />
    <glyph glyph-name="omicron" unicode="&#x3bf;" horiz-adv-x="1665" 
d="M68 717q0 299 213 517t515 218t519 -217q213 -219 213 -518t-213 -517t-518 -218t-517 218t-212 517zM1319 717q0 215 -154 371q-155 156 -369 155q-214 0 -367 -155q-153 -156 -153 -372t153 -371t368 -155t370 156q152 156 152 371z" />
    <glyph glyph-name="pi" unicode="&#x3c0;" horiz-adv-x="1234" 
d="M72 1434h1022v-1434h-209v1231h-606v-1231h-207v1434z" />
    <glyph glyph-name="rho" unicode="&#x3c1;" horiz-adv-x="1161" 
d="M279 682h315q124 0 192 80t68 190t-69 192q-69 81 -191 81h-315v-543zM70 1434h524q219 0 342 -142t123 -338q0 -195 -123 -336t-342 -141h-315v-477h-209v1434z" />
    <glyph glyph-name="sigma1" unicode="&#x3c2;" horiz-adv-x="1536" 
d="M47 715q0 293 205 512q207 213 496 213q246 0 426 -142t241 -387h-205q-55 158 -178 241t-284 83q-204 0 -352 -154q-148 -155 -148 -367t147 -366t353 -153q164 0 292 90t183 252h202q-61 -246 -245 -397t-432 -150q-293 0 -497 216t-204 509z" />
    <glyph glyph-name="sigma" unicode="&#x3c3;" horiz-adv-x="1239" 
d="M1126 182v-182h-997l-84 115l444 639l-432 544l70 136h991v-187h-782l366 -465v-61l-376 -539h800z" />
    <glyph glyph-name="tau" unicode="&#x3c4;" horiz-adv-x="1196" 
d="M676 0h-207v1237h-434v197h1073v-197h-432v-1237z" />
    <glyph glyph-name="upsilon" unicode="&#x3c5;" horiz-adv-x="1331" 
d="M733 0h-209v584l-530 848h244l391 -629l391 629h246l-533 -848v-584z" />
    <glyph glyph-name="phi" unicode="&#x3c6;" horiz-adv-x="1589" 
d="M254 723q0 -174 110 -288t300 -124v813q-195 -8 -303 -117q-107 -110 -107 -284zM862 1124v-813q195 14 301 122t107 284q0 177 -108 285t-300 122zM659 1440h207v-135q287 -13 449 -183t162 -400t-163 -401t-448 -186v-135h-207v133q-147 6 -266 58q-119 53 -193 135
q-152 169 -153 396q-1 228 161 400t451 183v135z" />
    <glyph glyph-name="chi" unicode="&#x3c7;" horiz-adv-x="1355" 
d="M-2 1434h254l389 -527l391 527h252l-518 -705l518 -729h-252l-391 563l-389 -563h-254l518 729z" />
    <glyph glyph-name="psi" unicode="&#x3c8;" horiz-adv-x="1550" 
d="M639 1434h209v-963q180 23 267 133t89 275v555h211v-555q-2 -238 -141 -406t-426 -190v-283h-209v283q-285 25 -425 193t-142 401v557h209v-555q2 -155 93 -267t265 -139v961z" />
    <glyph glyph-name="omega" unicode="&#x3c9;" horiz-adv-x="1671" 
d="M805 1262q-227 0 -375 -153t-147 -368t109 -357t296 -220l-41 -164h-614v180h297q-121 84 -189 232t-67 317q0 323 205 525t527 202t526 -206t204 -521q0 -159 -72 -313t-186 -238h301v-178h-602l-33 168q188 88 287 222q98 134 98 350t-148 369q-149 153 -376 153z" />
    <glyph glyph-name="iotadieresis" unicode="&#x3ca;" horiz-adv-x="876" 
d="M602 1745q49 0 82 -32t33 -79t-33 -82q-33 -34 -81 -34t-81 34t-33 81q0 46 32 79t81 33zM213 1745q49 0 82 -32t33 -79t-33 -82q-33 -34 -81 -34t-81 34t-33 81q0 46 32 79t81 33zM776 1237h-266v-1038h266v-199h-739v199h266v1038h-266v197h739v-197z" />
    <glyph glyph-name="upsilondieresis" unicode="&#x3cb;" horiz-adv-x="1243" 
d="M766 1737q49 0 82 -32t33 -79t-33 -82t-81 -35t-81 35t-33 81t32 79t81 33zM377 1737q49 0 82 -32t33 -79t-33 -82t-81 -35t-81 35t-33 81t32 79t81 33zM678 0h-209v584l-530 848h243l391 -629l392 629h245l-532 -848v-584z" />
    <glyph glyph-name="omicrontonos" unicode="&#x3cc;" horiz-adv-x="1665" 
d="M866 1542h-178l148 219h262zM68 717q0 299 213 517t515 218t519 -217q213 -219 213 -518t-213 -517t-518 -218t-517 218t-212 517zM1319 717q0 215 -154 371q-155 156 -369 155q-214 0 -367 -155q-153 -156 -153 -372t153 -371t368 -155t370 156q152 156 152 371z" />
    <glyph glyph-name="upsilontonos" unicode="&#x3cd;" horiz-adv-x="1331" 
d="M690 1532h-178l147 219h263zM733 0h-209v584l-530 850h244l391 -631l391 631h246l-533 -850v-584z" />
    <glyph glyph-name="omegatonos" unicode="&#x3ce;" horiz-adv-x="1671" 
d="M883 1534h-178l147 219h262zM805 1262q-227 0 -375 -153t-147 -368t109 -357t296 -220l-41 -164h-614v180h297q-121 84 -189 232t-67 317q0 323 205 525t527 202t526 -206t204 -521q0 -159 -72 -313t-186 -238h301v-178h-602l-33 168q188 88 287 222q98 134 98 350
t-148 369q-149 153 -376 153z" />
    <glyph glyph-name="afii10023" unicode="&#x401;" 
d="M719 1745q49 0 82 -32t33 -79t-33 -82q-33 -34 -81 -34t-81 34t-33 81q0 46 32 79t81 33zM330 1745q49 0 82 -32q32 -32 32 -79t-32 -82q-32 -34 -81 -34q-48 0 -81 34t-33 81q0 46 32 79t81 33zM274 207h666v-207h-874v1432h872v-207h-664v-404h650v-209h-650v-405z" />
    <glyph glyph-name="afii10051" unicode="&#x402;" horiz-adv-x="1497" 
d="M659 0h-206v1239h-435v195h1074v-195h-433v-256q106 43 205 43q200 0 350 -117t150 -329v-162q2 -228 -102 -324t-353 -96v186q129 0 188 48q58 48 58 186v164q0 130 -93 196q-92 66 -208 66t-195 -64v-780z" />
    <glyph glyph-name="afii10052" unicode="&#x403;" 
d="M578 1534h-179l148 219h262zM274 1233v-1233h-208v1434h872v-201h-664z" />
    <glyph glyph-name="afii10053" unicode="&#x404;" horiz-adv-x="1546" 
d="M1001 819v-192h-735q25 -160 140 -279q147 -154 352 -153q164 0 292 90t183 252h203q-62 -246 -246 -397t-432 -150q-293 0 -497 216t-204 509t205 512q207 213 496 213q246 0 426 -142t241 -387h-204q-55 158 -179 241t-284 83q-205 0 -352 -154q-109 -115 -138 -262
h733z" />
    <glyph glyph-name="afii10054" unicode="&#x405;" horiz-adv-x="1216" 
d="M1100 424q0 -196 -162 -316t-371 -120q-258 0 -420 175q-84 91 -96 212l-2 39l209 4l2 -23q10 -94 104 -148t212 -54t217 64q98 65 98 169q0 75 -36 108q-36 34 -104 53t-165 28t-155 19q-157 28 -257 109q-100 80 -112 238q-13 158 77 276q70 91 188 141t246 50
q182 0 322 -96q139 -97 166 -281l-205 -8q-20 90 -105 137t-188 45q-178 -4 -260 -108q-41 -53 -36 -130t65 -119q61 -42 132 -50q70 -8 144 -16q420 -48 476 -288q16 -66 16 -110z" />
    <glyph glyph-name="afii10055" unicode="&#x406;" horiz-adv-x="876" 
d="M776 1432v-197h-266v-1036h266v-199h-739v199h266v1036h-266v197h739z" />
    <glyph glyph-name="afii10056" unicode="&#x407;" horiz-adv-x="876" 
d="M602 1745q49 0 82 -32t33 -79t-33 -82q-33 -34 -81 -34t-81 34t-33 81q0 46 32 79t81 33zM213 1745q49 0 82 -32t33 -79t-33 -82q-33 -34 -81 -34t-81 34t-33 81q0 46 32 79t81 33zM776 1235h-266v-1036h266v-199h-739v199h266v1036h-266v197h739v-197z" />
    <glyph glyph-name="afii10057" unicode="&#x408;" horiz-adv-x="925" 
d="M799 1432v-811q0 -325 -175 -473t-583 -148v195q307 0 429 101t122 325v622h-387v189h594z" />
    <glyph glyph-name="afii10058" unicode="&#x409;" horiz-adv-x="1857" 
d="M1294 680h-268v-475h268q115 0 182 74q66 73 66 163t-65 164q-66 74 -183 74zM1294 0h-477v1210h-18l-561 -1210h-230l672 1434h346v-549h268q145 0 253 -66q202 -123 202 -377q0 -253 -204 -376q-108 -66 -251 -66z" />
    <glyph glyph-name="afii10059" unicode="&#x40a;" horiz-adv-x="1847" 
d="M1284 680h-268v-475h268q116 0 182 74q66 73 66 163t-66 164t-182 74zM1284 0h-477v680h-524v-680h-207v1434h207v-549h524v549h209v-549h268q145 0 253 -66q202 -123 202 -377q0 -253 -204 -376q-108 -66 -251 -66z" />
    <glyph glyph-name="afii10060" unicode="&#x40b;" horiz-adv-x="1501" 
d="M1364 0h-209v571q0 131 -93 197q-92 66 -208 66t-195 -64v-770h-206v1239h-435v195h1074v-195h-433v-266q106 43 205 43q200 0 350 -117t150 -330v-569z" />
    <glyph glyph-name="afii10061" unicode="&#x40c;" horiz-adv-x="1181" 
d="M610 1534h-178l148 219h262zM319 664v104l506 666h254l-547 -713l605 -721h-271zM72 1434h209v-1434h-209v1434z" />
    <glyph glyph-name="afii10062" unicode="&#x40e;" horiz-adv-x="1212" 
d="M313 1708h531v-180h-531v180zM496 -2h-226l203 461l-475 975h233l254 -514l107 -230l92 228l221 516h236z" />
    <glyph glyph-name="afii10145" unicode="&#x40f;" horiz-adv-x="1234" 
d="M483 -236v236h-411v1434h209v-1231h602v1231h211v-1434h-408v-236h-203z" />
    <glyph glyph-name="bgA" unicode="&#x410;" horiz-adv-x="1366" 
d="M1085 0l-137 362h-581l-140 -362h-223l576 1452h151l576 -1452h-222zM657 1122l-215 -565h430z" />
    <glyph glyph-name="afii10018" unicode="&#x411;" horiz-adv-x="1257" 
d="M287 664v-463h442q98 0 154 68q55 69 55 161t-55 163t-154 71h-442zM1032 1434v-201h-745v-371h442q186 0 301 -126t115 -302t-111 -305t-305 -129h-647v1434h950z" />
    <glyph glyph-name="afii10019" unicode="&#x412;" horiz-adv-x="1257" 
d="M287 657v-456h442q98 0 154 68q55 69 55 161t-55 160t-154 67h-442zM82 1434h596q164 0 272 -118t105 -275q-4 -157 -135 -253q115 -49 170 -146t55 -210q0 -174 -111 -303t-305 -129h-647v1434zM287 1237v-375h387q63 0 108 39q79 68 57 203q-9 55 -53 94t-108 39h-391z
" />
    <glyph glyph-name="afii10020" unicode="&#x413;" horiz-adv-x="1077" 
d="M291 1233v-1233h-209v1434h872v-201h-663z" />
    <glyph glyph-name="afii10021" unicode="&#x414;" horiz-adv-x="1413" 
d="M969 203v1032h-443l-30 -510q-6 -143 -12 -214t-32 -160q-24 -89 -67 -148h584zM1182 203h116v-432h-202v229h-852v-229h-207v395l115 22q94 98 122 402l56 844h852v-1231z" />
    <glyph glyph-name="afii10022" unicode="&#x415;" horiz-adv-x="1077" 
d="M291 614v-407h665v-207h-874v1434h872v-207h-663v-404h649v-209h-649z" />
    <glyph glyph-name="afii10024" unicode="&#x416;" horiz-adv-x="1880" 
d="M768 768v-104l-502 -664h-258l553 721l-500 713h244zM1057 664v104l463 666h243l-499 -713l553 -721h-258zM809 1434h209v-1434h-209v1434z" />
    <glyph glyph-name="afii10025" unicode="&#x417;" horiz-adv-x="1181" 
d="M377 639v190h215q98 0 147 65t49 160t-78 145q-80 50 -180 50t-171 -46t-89 -126l-186 45q37 156 159 241t273 85q203 0 339 -101t137 -309t-130 -297q195 -115 193 -344q-3 -168 -143 -292q-140 -123 -370 -123t-351 106q-122 106 -148 268l193 35q14 -92 90 -154
q76 -63 219 -63t224 72t81 166t-65 160t-193 67h-215z" />
    <glyph glyph-name="afii10026" unicode="&#x418;" horiz-adv-x="1308" 
d="M1159 0h-207v1001l-692 -1001h-164v1434h205v-1010l698 1010h160v-1434z" />
    <glyph glyph-name="afii10027" unicode="&#x419;" horiz-adv-x="1308" 
d="M369 1708h567v-180h-567v180zM1159 0h-207v1001l-692 -1001h-164v1434h205v-1010l698 1010h160v-1434z" />
    <glyph glyph-name="afii10028" unicode="&#x41a;" horiz-adv-x="1196" 
d="M319 664v104l506 666h254l-547 -713l605 -721h-271zM72 1434h209v-1434h-209v1434z" />
    <glyph glyph-name="afii10029" unicode="&#x41b;" horiz-adv-x="1382" 
d="M657 1094l-428 -1094h-225l576 1452h151l576 -1452h-226z" />
    <glyph glyph-name="afii10030" unicode="&#x41c;" horiz-adv-x="1513" 
d="M287 0h-207v1434h168l473 -697l473 697h164v-1434h-205v1010l-375 -557h-116l-375 557v-1010z" />
    <glyph glyph-name="afii10031" unicode="&#x41d;" horiz-adv-x="1234" 
d="M279 1434v-607h606v607h209v-1434h-209v623h-606v-623h-207v1434h207z" />
    <glyph glyph-name="afii10032" unicode="&#x41e;" horiz-adv-x="1665" 
d="M68 717q0 299 213 517t515 218t519 -217q213 -219 213 -518t-213 -517t-518 -218t-517 218t-212 517zM1319 717q0 215 -154 371q-155 156 -369 155q-214 0 -367 -155q-153 -156 -153 -372t153 -371t368 -155t370 156q152 156 152 371z" />
    <glyph glyph-name="afii10033" unicode="&#x41f;" horiz-adv-x="1234" 
d="M72 1434h1022v-1434h-211v1231h-602v-1231h-209v1434z" />
    <glyph glyph-name="afii10034" unicode="&#x420;" horiz-adv-x="1161" 
d="M279 682h315q124 0 192 80t68 190t-69 192q-69 81 -191 81h-315v-543zM70 1434h524q219 0 342 -142t123 -338q0 -195 -123 -336t-342 -141h-315v-477h-209v1434z" />
    <glyph glyph-name="afii10035" unicode="&#x421;" horiz-adv-x="1558" 
d="M70 722q0 300 205 513q206 213 495 213q246 0 426 -142t242 -386h-205q-55 158 -178 240t-285 83q-227 0 -363 -161q-137 -160 -137 -370t148 -364t352 -153q164 0 292 90t183 252h203q-62 -246 -246 -397t-432 -150q-293 0 -496 213q-204 219 -204 519z" />
    <glyph glyph-name="afii10036" unicode="&#x422;" horiz-adv-x="1196" 
d="M676 0h-207v1237h-434v197h1073v-197h-432v-1237z" />
    <glyph glyph-name="afii10037" unicode="&#x423;" horiz-adv-x="1212" 
d="M496 -2h-226l203 461l-475 975h233l254 -514l107 -230l92 228l221 516h236z" />
    <glyph glyph-name="afii10038" unicode="&#x424;" horiz-adv-x="1648" 
d="M293 723q-1 -174 109 -288t300 -124v813q-195 -8 -302 -118t-107 -283zM901 1124v-813q195 14 301 122t107 284q1 177 -107 285t-301 122zM698 1440h207v-135q291 -11 454 -179t163 -410t-162 -404q-162 -163 -455 -177v-135h-207v133q-296 14 -458 176t-162 408t162 410
t458 178v135z" />
    <glyph glyph-name="afii10039" unicode="&#x425;" horiz-adv-x="1345" 
d="M-2 1434h254l389 -527l391 527h252l-518 -705l518 -729h-252l-391 563l-389 -563h-254l518 729z" />
    <glyph glyph-name="afii10040" unicode="&#x426;" horiz-adv-x="1251" 
d="M1032 190h117v-481h-203v291h-868v1434h211v-1244h530v1244h213v-1244z" />
    <glyph glyph-name="afii10041" unicode="&#x427;" horiz-adv-x="1189" 
d="M1038 1434v-1434h-215v516q-94 -27 -198 -27q-229 0 -387 115t-158 342v488h217v-488q0 -128 98 -198t236 -70q88 0 192 29v727h215z" />
    <glyph glyph-name="afii10042" unicode="&#x428;" horiz-adv-x="1824" 
d="M76 1434h219v-1246h475v1246h217v-1246h475v1246h219v-1434h-1605v1434z" />
    <glyph glyph-name="afii10043" unicode="&#x429;" horiz-adv-x="1908" 
d="M76 1434h217v-1246h473v1246h219v-1246h475v1246h219v-1246h125v-479h-211v291h-1517v1434z" />
    <glyph glyph-name="afii10044" unicode="&#x42a;" horiz-adv-x="1312" 
d="M741 752h-315v-547h315q123 0 192 82q69 81 69 193t-69 192t-192 80zM23 1231v203h403v-478h315q219 0 342 -141t123 -336t-123 -337t-342 -142h-524v1231h-194z" />
    <glyph glyph-name="afii10045" unicode="&#x42b;" horiz-adv-x="1523" 
d="M1169 0v1434h211v-1434h-211zM594 752h-315v-547h315q124 0 192 82q68 81 68 193t-68 192t-192 80zM594 0h-524v1434h209v-478h315q219 0 342 -141t123 -336t-123 -337t-342 -142z" />
    <glyph glyph-name="afii10046" unicode="&#x42c;" horiz-adv-x="1177" 
d="M594 752h-315v-547h315q124 0 192 82q68 81 68 193t-68 192t-192 80zM594 0h-524v1434h209v-478h315q219 0 342 -141t123 -336t-123 -337t-342 -142z" />
    <glyph glyph-name="afii10047" unicode="&#x42d;" horiz-adv-x="1529" 
d="M467 627v192h733q-29 147 -137 262q-147 154 -352 154q-162 0 -285 -83t-178 -241h-205q61 244 241 386t427 143q289 0 495 -213q205 -219 205 -512t-204 -509t-496 -216q-248 0 -432 150t-246 397h203q55 -162 183 -252t292 -90q205 0 352 153q115 119 139 279h-735z
" />
    <glyph glyph-name="afii10048" unicode="&#x42e;" horiz-adv-x="2088" 
d="M1749 717q0 215 -154 371q-155 156 -369 155q-214 0 -367 -155q-153 -156 -153 -372t154 -371q152 -155 367 -155t370 156q152 156 152 371zM1226 1452q302 0 519 -217q213 -219 213 -518t-213 -517t-518 -218t-516 217q-178 184 -207 424h-203v-623h-207v1434h207v-607
h205q37 236 205 408q213 217 515 217z" />
    <glyph glyph-name="bgQ" unicode="&#x42f;" horiz-adv-x="1210" 
d="M786 727v-98l-522 -629h-268l453 539q-176 31 -274 154q-97 124 -97 296t123 308t344 137h522v-1434h-205v1225h-317q-123 0 -192 -74t-69 -175t70 -175q68 -74 191 -74h241z" />
    <glyph glyph-name="bga" unicode="&#x430;" horiz-adv-x="1366" 
d="M1085 0l-137 362h-581l-140 -362h-223l576 1452h151l576 -1452h-222zM657 1122l-215 -565h430z" />
    <glyph glyph-name="afii10066" unicode="&#x431;" horiz-adv-x="1249" 
d="M279 664v-463h442q98 1 153 69t56 160q0 92 -56 163t-153 71h-442zM1024 1434v-201h-745v-371h442q186 0 301 -126t115 -302t-111 -305t-305 -129h-647v1434h950z" />
    <glyph glyph-name="afii10067" unicode="&#x432;" horiz-adv-x="1249" 
d="M279 657v-456h442q98 1 153 69t56 160q0 92 -56 160t-153 67h-442zM74 1434h596q164 0 272 -118t105 -275q-4 -157 -136 -253q115 -49 170 -146t56 -210q0 -174 -111 -303t-305 -129h-647v1434zM279 1237v-375h387q63 0 108 39q78 67 56 203q-9 55 -53 94t-107 39h-391z
" />
    <glyph glyph-name="afii10068" unicode="&#x433;" horiz-adv-x="1077" 
d="M291 1233v-1233h-209v1434h872v-201h-663z" />
    <glyph glyph-name="afii10069" unicode="&#x434;" horiz-adv-x="1390" 
d="M965 203v1032h-443l-30 -510q-6 -143 -12 -214t-32 -160q-24 -89 -67 -148h584zM1178 203h116v-432h-202v229h-852v-229h-207v395l114 22q94 98 123 402l56 844h852v-1231z" />
    <glyph glyph-name="afii10070" unicode="&#x435;" 
d="M274 614v-407h666v-207h-874v1434h872v-207h-664v-404h650v-209h-650z" />
    <glyph glyph-name="afii10072" unicode="&#x436;" horiz-adv-x="1843" 
d="M750 768v-104l-502 -664h-258l553 721l-500 713h244zM1038 664v104l463 666h244l-500 -713l553 -721h-258zM791 1434h208v-1434h-208v1434z" />
    <glyph glyph-name="afii10073" unicode="&#x437;" horiz-adv-x="1175" 
d="M373 639v190h215q98 0 147 65t49 160t-78 145q-80 50 -180 50t-171 -46t-89 -126l-186 45q37 156 159 241t273 85q203 0 339 -101t137 -309t-130 -297q195 -115 193 -344q-3 -168 -143 -292q-140 -123 -370 -123t-351 106q-122 106 -148 268l192 35q15 -92 91 -154
q76 -63 219 -63t224 72t81 166t-65 160t-193 67h-215z" />
    <glyph glyph-name="afii10074" unicode="&#x438;" horiz-adv-x="1308" 
d="M1159 0h-207v1001l-692 -1001h-164v1434h205v-1010l698 1010h160v-1434z" />
    <glyph glyph-name="afii10075" unicode="&#x439;" horiz-adv-x="1308" 
d="M369 1708h567v-180h-567v180zM1159 0h-207v1001l-692 -1001h-164v1434h205v-1010l698 1010h160v-1434z" />
    <glyph glyph-name="afii10076" unicode="&#x43a;" horiz-adv-x="1193" 
d="M332 664v104l506 666h254l-547 -713l604 -721h-270zM84 1434h209v-1434h-209v1434z" />
    <glyph glyph-name="afii10077" unicode="&#x43b;" horiz-adv-x="1372" 
d="M657 1094l-428 -1094h-225l576 1452h151l576 -1452h-226z" />
    <glyph glyph-name="afii10078" unicode="&#x43c;" horiz-adv-x="1513" 
d="M287 0h-207v1434h168l473 -697l473 697h164v-1434h-205v1010l-375 -557h-116l-375 557v-1010z" />
    <glyph glyph-name="afii10079" unicode="&#x43d;" horiz-adv-x="1234" 
d="M279 1434v-607h606v607h209v-1434h-209v623h-606v-623h-207v1434h207z" />
    <glyph glyph-name="afii10080" unicode="&#x43e;" horiz-adv-x="1665" 
d="M68 717q0 299 213 517t515 218t519 -217q213 -219 213 -518t-213 -517t-518 -218t-517 218t-212 517zM1319 717q0 215 -154 371q-155 156 -369 155q-214 0 -367 -155q-153 -156 -153 -372t153 -371t368 -155t370 156q152 156 152 371z" />
    <glyph glyph-name="afii10081" unicode="&#x43f;" horiz-adv-x="1234" 
d="M72 1434h1022v-1434h-211v1231h-602v-1231h-209v1434z" />
    <glyph glyph-name="afii10082" unicode="&#x440;" horiz-adv-x="1187" 
d="M291 682h315q123 0 192 80q68 80 68 190t-68 192q-69 81 -192 81h-315v-543zM82 1434h524q219 0 342 -142t123 -338q0 -195 -123 -336t-342 -141h-315v-477h-209v1434z" />
    <glyph glyph-name="afii10083" unicode="&#x441;" horiz-adv-x="1536" 
d="M47 715q0 293 205 512q207 213 496 213q246 0 426 -142t241 -387h-205q-55 158 -178 241t-284 83q-204 0 -352 -154q-148 -155 -148 -367t147 -366t353 -153q164 0 292 90t183 252h202q-61 -246 -245 -397t-432 -150q-293 0 -497 216t-204 509z" />
    <glyph glyph-name="afii10084" unicode="&#x442;" horiz-adv-x="1196" 
d="M676 0h-207v1237h-434v197h1073v-197h-432v-1237z" />
    <glyph glyph-name="afii10085" unicode="&#x443;" horiz-adv-x="1212" 
d="M494 -6h-226l205 465l-475 983h233l254 -522l107 -230l92 228l221 524h236z" />
    <glyph glyph-name="afii10086" unicode="&#x444;" horiz-adv-x="1605" 
d="M270 723q0 -174 110 -288t300 -124v813q-194 -8 -302 -118t-108 -283zM1286 717q0 177 -107 285t-300 122v-813q195 14 301 122t106 284zM676 1440h207v-135q287 -13 449 -183t161 -400q0 -230 -163 -401t-447 -186v-135h-207v133q-147 6 -266 58q-119 53 -194 135
q-153 168 -153 396t162 400t451 183v135z" />
    <glyph glyph-name="afii10087" unicode="&#x445;" horiz-adv-x="1345" 
d="M-2 1434h254l389 -527l391 527h252l-518 -705l518 -729h-252l-391 563l-389 -563h-254l518 729z" />
    <glyph glyph-name="afii10088" unicode="&#x446;" horiz-adv-x="1255" 
d="M1036 190h117v-481h-203v291h-868v1434h211v-1244h530v1244h213v-1244z" />
    <glyph glyph-name="afii10089" unicode="&#x447;" horiz-adv-x="1169" 
d="M1018 1434v-1434h-207v516q-94 -27 -199 -27q-229 0 -387 115t-157 342v488h213v-488q0 -128 100 -198t237 -70q88 0 193 29v727h207z" />
    <glyph glyph-name="afii10090" unicode="&#x448;" horiz-adv-x="1824" 
d="M76 1434h219v-1246h475v1246h217v-1246h475v1246h219v-1434h-1605v1434z" />
    <glyph glyph-name="afii10091" unicode="&#x449;" horiz-adv-x="1908" 
d="M76 1434h217v-1246h473v1246h219v-1246h475v1246h219v-1246h125v-479h-211v291h-1517v1434z" />
    <glyph glyph-name="afii10092" unicode="&#x44a;" horiz-adv-x="1312" 
d="M741 752h-315v-547h315q123 0 192 82q69 81 69 193t-69 192t-192 80zM23 1231v203h403v-478h315q219 0 342 -141t123 -336t-123 -337t-342 -142h-524v1231h-194z" />
    <glyph glyph-name="afii10093" unicode="&#x44b;" horiz-adv-x="1523" 
d="M1169 0v1434h211v-1434h-211zM594 752h-315v-547h315q124 0 192 82q68 81 68 193t-68 192t-192 80zM594 0h-524v1434h209v-478h315q219 0 342 -141t123 -336t-123 -337t-342 -142z" />
    <glyph glyph-name="afii10094" unicode="&#x44c;" horiz-adv-x="1165" 
d="M594 752h-315v-547h315q124 0 192 82q68 81 68 193t-68 192t-192 80zM594 0h-524v1434h209v-478h315q219 0 342 -141t123 -336t-123 -337t-342 -142z" />
    <glyph glyph-name="afii10095" unicode="&#x44d;" horiz-adv-x="1529" 
d="M467 627v192h733q-29 147 -137 262q-147 154 -352 154q-162 0 -285 -83t-178 -241h-205q61 244 241 386t427 143q289 0 495 -213q205 -219 205 -512t-204 -509t-496 -216q-248 0 -432 150t-246 397h203q55 -162 183 -252t292 -90q205 0 352 153q115 119 139 279h-735z
" />
    <glyph glyph-name="afii10096" unicode="&#x44e;" horiz-adv-x="2072" 
d="M1733 717q0 215 -154 371t-369 155q-215 0 -366 -156q-154 -155 -154 -371t153 -371t367 -155t371 156q152 156 152 371zM1209 1452q302 0 520 -217q213 -219 213 -518t-213 -517t-519 -218t-516 217q-178 184 -207 424h-202v-623h-207v1434h207v-607h204q37 236 205 408
q213 217 515 217z" />
    <glyph glyph-name="bgq" unicode="&#x44f;" horiz-adv-x="1210" 
d="M786 727v-98l-522 -629h-268l453 539q-176 31 -274 154q-97 124 -97 296t123 308t344 137h522v-1434h-207v1225h-315q-123 0 -192 -74t-69 -175t70 -175q68 -74 191 -74h241z" />
    <glyph glyph-name="afii10071" unicode="&#x451;" 
d="M723 1745q49 0 82 -32t33 -79t-33 -82q-33 -34 -81 -34t-81 34t-33 81q0 46 32 79t81 33zM334 1745q49 0 82 -32t33 -79t-33 -82q-33 -34 -81 -34t-81 34t-33 81q0 46 32 79t81 33zM274 207h666v-207h-874v1432h872v-207h-664v-404h650v-209h-650v-405z" />
    <glyph glyph-name="afii10099" unicode="&#x452;" horiz-adv-x="1497" 
d="M659 0h-206v1239h-435v195h1074v-195h-433v-256q106 43 205 43q200 0 350 -117t150 -329v-162q2 -228 -102 -324t-353 -96v186q129 0 188 48q58 48 58 186v164q0 130 -93 196q-92 66 -208 66t-195 -64v-780z" />
    <glyph glyph-name="afii10100" unicode="&#x453;" 
d="M578 1534h-179l148 219h262zM274 1233v-1233h-208v1434h872v-201h-664z" />
    <glyph glyph-name="afii10101" unicode="&#x454;" horiz-adv-x="1546" 
d="M1001 819v-192h-735q25 -160 140 -279q147 -154 352 -153q164 0 292 90t183 252h203q-62 -246 -246 -397t-432 -150q-293 0 -497 216t-204 509t205 512q207 213 496 213q246 0 426 -142t241 -387h-204q-55 158 -179 241t-284 83q-205 0 -352 -154q-109 -115 -138 -262
h733z" />
    <glyph glyph-name="afii10102" unicode="&#x455;" horiz-adv-x="1216" 
d="M1100 424q0 -196 -162 -316t-371 -120q-258 0 -420 175q-84 91 -96 212l-2 39l209 4l2 -23q10 -94 104 -148t212 -54t217 64q98 65 98 169q0 75 -36 108q-36 34 -104 53t-165 28t-155 19q-157 28 -257 109q-100 80 -112 238q-13 158 77 276q70 91 188 141t246 50
q182 0 322 -96q139 -97 166 -281l-205 -8q-20 90 -105 137t-188 45q-178 -4 -260 -108q-41 -53 -36 -130t65 -119q61 -42 132 -50q70 -8 144 -16q420 -48 476 -288q16 -66 16 -110z" />
    <glyph glyph-name="afii10103" unicode="&#x456;" horiz-adv-x="876" 
d="M776 1432v-197h-266v-1036h266v-199h-739v199h266v1036h-266v197h739z" />
    <glyph glyph-name="afii10104" unicode="&#x457;" horiz-adv-x="876" 
d="M602 1745q49 0 82 -32t33 -79t-33 -82q-33 -34 -81 -34t-81 34t-33 81q0 46 32 79t81 33zM213 1745q49 0 82 -32t33 -79t-33 -82q-33 -34 -81 -34t-81 34t-33 81q0 46 32 79t81 33zM776 1237h-266v-1038h266v-199h-739v199h266v1038h-266v197h739v-197z" />
    <glyph glyph-name="afii10105" unicode="&#x458;" horiz-adv-x="925" 
d="M799 1434v-813q0 -325 -175 -473t-583 -148v195q307 0 429 101t122 325v624h-387v189h594z" />
    <glyph glyph-name="afii10106" unicode="&#x459;" horiz-adv-x="1857" 
d="M1294 680h-268v-475h268q115 0 182 74q66 73 66 163t-65 164q-66 74 -183 74zM1294 0h-477v1210h-18l-561 -1210h-230l672 1434h346v-549h268q145 0 253 -66q202 -123 202 -377q0 -253 -204 -376q-108 -66 -251 -66z" />
    <glyph glyph-name="afii10107" unicode="&#x45a;" horiz-adv-x="1847" 
d="M1284 680h-268v-475h268q116 0 182 74q66 73 66 163t-66 164t-182 74zM1284 0h-477v680h-524v-680h-207v1434h207v-549h524v549h209v-549h268q145 0 253 -66q202 -123 202 -377q0 -253 -204 -376q-108 -66 -251 -66z" />
    <glyph glyph-name="afii10108" unicode="&#x45b;" horiz-adv-x="1501" 
d="M1364 0h-209v571q0 131 -93 197q-92 66 -208 66t-195 -64v-770h-206v1239h-435v195h1074v-195h-433v-266q106 43 205 43q200 0 350 -117t150 -330v-569z" />
    <glyph glyph-name="afii10109" unicode="&#x45c;" horiz-adv-x="1181" 
d="M610 1534h-178l148 219h262zM319 664v104l506 666h254l-547 -713l605 -721h-271zM72 1434h209v-1434h-209v1434z" />
    <glyph glyph-name="afii10110" unicode="&#x45e;" horiz-adv-x="1212" 
d="M313 1708h531v-180h-531v180zM496 -2h-226l203 461l-475 975h233l254 -514l107 -230l92 228l221 516h236z" />
    <glyph glyph-name="afii10193" unicode="&#x45f;" horiz-adv-x="1234" 
d="M483 -236v236h-411v1434h209v-1231h602v1231h211v-1434h-408v-236h-203z" />
    <glyph glyph-name="afii10050" unicode="&#x490;" 
d="M750 1434v157h188v-358h-664v-1233h-208v1434h684z" />
    <glyph glyph-name="afii10098" unicode="&#x491;" 
d="M750 1434v157h188v-358h-664v-1233h-208v1434h684z" />
    <glyph glyph-name="uni1E9E" unicode="&#x1e9e;" horiz-adv-x="1208" 
d="M317 1055v-1055h-221v1055q0 172 134 276q134 105 318 105t315 -102q130 -102 130 -275q0 -174 -155 -283q122 -51 186 -149t61 -211q4 -207 -139 -319t-354 -111q-104 0 -234 41v200q109 -61 205 -61q141 0 222 75t81 176t-81 175t-222 74h-149v190h149q103 0 163 64
t54 145q-6 82 -73 132q-68 50 -159 50t-161 -54t-70 -138z" />
    <glyph glyph-name="thinspace" unicode="&#x2009;" horiz-adv-x="28" 
 />
    <glyph glyph-name="endash" unicode="&#x2013;" horiz-adv-x="1280" 
d="M82 612v197h1048v-197h-1048z" />
    <glyph glyph-name="emdash" unicode="&#x2014;" horiz-adv-x="1585" 
d="M59 612v193h1403v-193h-1403z" />
    <glyph glyph-name="quoteleft" unicode="&#x2018;" horiz-adv-x="487" 
d="M381 1444l-107 -408h-213l154 408h166z" />
    <glyph glyph-name="quoteright" unicode="&#x2019;" horiz-adv-x="475" 
d="M61 1034l107 408h213l-154 -408h-166z" />
    <glyph glyph-name="quotesinglbase" unicode="&#x201a;" horiz-adv-x="466" 
d="M178 -205h-188l149 377h230z" />
    <glyph glyph-name="quotedblleft" unicode="&#x201c;" horiz-adv-x="739" 
d="M647 1444l-106 -408h-213l153 408h166zM360 1444l-106 -408h-213l154 408h165z" />
    <glyph glyph-name="quotedblright" unicode="&#x201d;" horiz-adv-x="768" 
d="M49 1034l107 408h213l-154 -408h-166zM336 1034l106 408h213l-153 -408h-166z" />
    <glyph glyph-name="quotedblbase" unicode="&#x201e;" horiz-adv-x="768" 
d="M481 -205h-188l149 377h230zM178 -205h-188l149 377h230z" />
    <glyph glyph-name="dagger" unicode="&#x2020;" horiz-adv-x="1019" 
d="M387 -98v956h-348v178h348v394h191v-394h352v-178h-352v-956h-191z" />
    <glyph glyph-name="daggerdbl" unicode="&#x2021;" horiz-adv-x="1036" 
d="M47 338v168h350v356h-350v174h350v394h189v-394h350v-174h-350v-356h350v-168h-350v-436h-189v436h-350z" />
    <glyph glyph-name="bullet" unicode="&#x2022;" horiz-adv-x="686" 
d="M313 502q-95 0 -163 68t-68 164q0 97 68 165t164 68t163 -68q68 -68 68 -165q0 -96 -68 -164t-164 -68z" />
    <glyph glyph-name="ellipsis" unicode="&#x2026;" horiz-adv-x="1107" 
d="M875 246q55 0 91 -35t36 -88t-38 -91q-36 -38 -88 -38t-90 39q-36 39 -36 90t35 87q36 36 90 36zM527 246q54 0 90 -35t36 -88t-37 -91t-89 -38t-89 39t-37 90t36 87t90 36zM175 246q54 0 90 -35t36 -88t-37 -91t-89 -38t-89 39t-37 90t36 87t90 36z" />
    <glyph glyph-name="perthousand" unicode="&#x2030;" horiz-adv-x="2369" 
d="M2081 336q0 72 -47 122t-115 50t-115 -50t-47 -122t47 -121t116 -49t115 49t46 121zM2271 337q0 -143 -103 -245q-102 -102 -248 -102t-249 101q-102 101 -102 245t102 246q101 102 247 102t250 -101q103 -102 103 -246zM1319 336q0 72 -47 122t-115 50t-115 -50
t-47 -122t47 -121t116 -49t115 49t46 121zM1509 337q0 -143 -103 -245q-102 -102 -248 -102t-249 101q-102 101 -102 245t102 246q101 102 247 102t250 -101q103 -102 103 -246zM571 1079q0 72 -47 122q-46 50 -114 50t-114 -50t-46 -122t46 -121t115 -49t115 49t45 121z
M1130 1417h236l-934 -1435h-233zM762 1080q0 -144 -104 -245t-247 -101t-247 100q-104 102 -104 246t102 246q104 102 248 101q144 1 248 -101t104 -246z" />
    <glyph glyph-name="guilsinglleft" unicode="&#x2039;" horiz-adv-x="720" 
d="M375 201l-340 424l340 426h239l-338 -426q49 -63 167 -209t171 -215h-239z" />
    <glyph glyph-name="guilsinglright" unicode="&#x203a;" horiz-adv-x="714" 
d="M53 274l334 424l-338 426h240l338 -426l-338 -424h-236z" />
    <glyph glyph-name="fraction" unicode="&#x2044;" horiz-adv-x="491" 
d="M-49 -96h-203l744 1558h202z" />
    <glyph glyph-name="zerosuperior" unicode="&#x2070;" horiz-adv-x="1212" 
d="M558 -4q-167 0 -289 102t-178 255t-56 331t56 332t178 256t290 102q246 0 385 -206t139 -484q0 -391 -235 -586q-123 -102 -290 -102zM559 1176q-156 0 -242 -146t-86 -346q0 -201 86 -345t242 -144t242 145t86 345q0 199 -86 345t-242 146z" />
    <glyph glyph-name="foursuperior" unicode="&#x2074;" horiz-adv-x="1165" 
d="M733 520v555l-448 -555h448zM934 1434v-910h117v-200h-117v-324h-205v324h-715v145l760 965h160z" />
    <glyph glyph-name="fivesuperior" unicode="&#x2075;" horiz-adv-x="1175" 
d="M57 1440h914v-201h-705v-287q258 84 486 -8q143 -59 221 -179t80 -265q3 -204 -137 -352t-388 -148q-360 0 -489 326l190 77q96 -195 299 -194q152 0 235 86t81 205q0 78 -44 148t-122 104q-250 102 -504 -47l-117 53v682z" />
    <glyph glyph-name="sixsuperior" unicode="&#x2076;" horiz-adv-x="1191" 
d="M1071 492q0 -200 -138 -346t-384 -146t-384 146t-138 346q0 153 88 286l467 656h254l-351 -494q79 29 177 23t172 -48q115 -67 176 -181t61 -242zM864 492q0 118 -82 202t-232 84q-151 0 -234 -85t-83 -201t83 -200q83 -83 234 -83q150 0 232 83t82 200z" />
    <glyph glyph-name="sevensuperior" unicode="&#x2077;" horiz-adv-x="1120" 
d="M27 1434h1009v-142l-706 -1292h-238l672 1231h-737v203z" />
    <glyph glyph-name="eightsuperior" unicode="&#x2078;" horiz-adv-x="1173" 
d="M1004 1042q0 -84 -48 -170t-133 -122q119 -46 181 -138t61 -196q0 -174 -137 -302t-383 -128t-381 124t-135 306q0 98 65 190q66 92 182 144q-104 43 -146 127t-42 167q2 190 139 296t336 106t320 -120t121 -284zM545 1264q-98 0 -175 -60t-77 -149q1 -90 67 -156
q66 -65 186 -65t186 66t67 155q0 89 -78 149t-176 60zM858 414q0 92 -82 160t-229 69q-147 0 -231 -69q-84 -68 -83 -160q-1 -92 83 -164t230 -72t229 72t83 164z" />
    <glyph glyph-name="ninesuperior" unicode="&#x2079;" horiz-adv-x="1204" 
d="M37 950q0 203 139 350q139 148 387 148t388 -148t141 -350q0 -151 -88 -288l-472 -662h-256l353 500q-80 -31 -179 -25t-171 47q-117 68 -180 184q-62 116 -62 244zM563 662q152 0 235 86t83 204t-83 201q-83 84 -235 84q-153 0 -235 -84t-82 -202q0 -117 82 -203
t235 -86z" />
    <glyph glyph-name="zeroinferior" unicode="&#x2080;" horiz-adv-x="1212" 
d="M558 -4q-167 0 -289 102t-178 255t-56 331t56 332t178 256t290 102q246 0 385 -206t139 -484q0 -391 -235 -586q-123 -102 -290 -102zM559 1176q-156 0 -242 -146t-86 -346q0 -201 86 -345t242 -144t242 145t86 345q0 199 -86 345t-242 146z" />
    <glyph glyph-name="oneinferior" unicode="&#x2081;" horiz-adv-x="632" 
d="M485 0h-204v1044l-193 -262l-156 113l387 545h166v-1440z" />
    <glyph glyph-name="twoinferior" unicode="&#x2082;" horiz-adv-x="1169" 
d="M547 1442q157 0 277 -64q218 -115 243 -381q10 -115 -47 -229t-170 -193q-98 -80 -227 -184t-236 -192h657v-199h-1005v160l674 573h-2q111 80 133 200q24 120 -58 211t-224 91q-142 1 -216 -73t-92 -201l-207 16q29 205 158 335t342 130z" />
    <glyph glyph-name="threeinferior" unicode="&#x2083;" horiz-adv-x="1144" 
d="M354 623v194h215q98 0 148 66q49 67 49 157t-81 144t-179 55q-98 0 -169 -46t-89 -126l-187 45q37 156 159 240t294 84t314 -106q140 -106 142 -308q2 -203 -130 -291q188 -111 184 -334q-2 -168 -138 -292q-136 -123 -366 -123t-351 106q-122 106 -149 268l193 35
q14 -92 90 -154q75 -63 219 -63t230 74t78 161t-71 150q-62 63 -190 64h-215z" />
    <glyph glyph-name="fourinferior" unicode="&#x2084;" horiz-adv-x="1165" 
d="M733 520v555l-448 -555h448zM934 1434v-910h117v-200h-117v-324h-205v324h-715v145l760 965h160z" />
    <glyph glyph-name="fiveinferior" unicode="&#x2085;" horiz-adv-x="1175" 
d="M57 1440h914v-201h-705v-287q258 84 486 -8q143 -59 221 -179t80 -265q3 -204 -137 -352t-388 -148q-360 0 -489 326l190 77q96 -195 299 -194q152 0 235 86t81 205q0 78 -44 148t-122 104q-250 102 -504 -47l-117 53v682z" />
    <glyph glyph-name="sixinferior" unicode="&#x2086;" horiz-adv-x="1191" 
d="M1071 492q0 -200 -138 -346t-384 -146t-384 146t-138 346q0 153 88 286l467 656h254l-351 -494q79 29 177 23t172 -48q115 -67 176 -181t61 -242zM864 492q0 118 -82 202t-232 84q-151 0 -234 -85t-83 -201t83 -200q83 -83 234 -83q150 0 232 83t82 200z" />
    <glyph glyph-name="seveninferior" unicode="&#x2087;" horiz-adv-x="1120" 
d="M27 1434h1009v-142l-706 -1292h-238l672 1231h-737v203z" />
    <glyph glyph-name="eightinferior" unicode="&#x2088;" horiz-adv-x="1173" 
d="M1004 1042q0 -84 -48 -170t-133 -122q119 -46 181 -138t61 -196q0 -174 -137 -302t-383 -128t-381 124t-135 306q0 98 65 190q66 92 182 144q-104 43 -146 127t-42 167q2 190 139 296t336 106t320 -120t121 -284zM545 1264q-98 0 -175 -60t-77 -149q1 -90 67 -156
q66 -65 186 -65t186 66t67 155q0 89 -78 149t-176 60zM858 414q0 92 -82 160t-229 69q-147 0 -231 -69q-84 -68 -83 -160q-1 -92 83 -164t230 -72t229 72t83 164z" />
    <glyph glyph-name="nineinferior" unicode="&#x2089;" horiz-adv-x="1204" 
d="M37 950q0 203 139 350q139 148 387 148t388 -148t141 -350q0 -151 -88 -288l-472 -662h-256l353 500q-80 -31 -179 -25t-171 47q-117 68 -180 184q-62 116 -62 244zM563 662q152 0 235 86t83 204t-83 201q-83 84 -235 84q-153 0 -235 -84t-82 -202q0 -117 82 -203
t235 -86z" />
    <glyph glyph-name="Euro" unicode="&#x20ac;" horiz-adv-x="1593" 
d="M104 664v79h-98l33 172h94q47 172 176 312q207 213 496 213q246 0 426 -142t242 -387h-205q-55 158 -178 241t-285 83q-209 0 -354 -152q-68 -72 -109 -168h621l-33 -172h-625v-30q0 -33 2 -49h590l-35 -166h-512q39 -90 101 -152q145 -152 354 -151q164 0 292 90
t183 252h203q-61 -246 -245 -397t-433 -150q-293 0 -496 213q-121 127 -172 295h-141l39 166h69z" />
    <glyph glyph-name="afii61352" unicode="&#x2116;" horiz-adv-x="2418" 
d="M303 0h-207v1434h160l698 -1010v1010h205v-1434h-164l-692 1001v-1001zM2298 518q0 -231 -148 -387t-380 -156t-379 156t-147 386t146 386q148 156 379 156t380 -155t149 -386zM1452 518q0 -166 93 -257t225 -91t226 90q93 90 93 257t-93 256q-94 89 -226 89t-225 -89
t-93 -255z" />
    <glyph glyph-name="trademark" unicode="&#x2122;" horiz-adv-x="1814" 
d="M770 649v783h184l260 -459q129 217 267 459h180v-783h-184l4 453l-195 -359h-139l-199 365l4 -459h-182zM688 1274h-219v-625h-182v625h-219v160h620v-160z" />
    <glyph glyph-name="minus" unicode="&#x2212;" horiz-adv-x="1089" 
d="M53 625v204h924v-204h-924z" />
    <glyph glyph-name="infinity" unicode="&#x221e;" horiz-adv-x="1011" 
d="M519 377q-140 0 -239 99q-100 100 -100 240t98 237t240 97t240 -96q98 -98 98 -238t-98 -240q-99 -99 -239 -99z" />
    <glyph glyph-name="approxequal" unicode="&#x2248;" horiz-adv-x="1155" 
d="M356 422q-111 0 -215 -111l-116 142q162 166 331 165q102 0 219 -67t166 -68q121 0 217 107l115 -144q-154 -158 -332 -157q-103 1 -217 67t-168 66zM356 961q102 0 238 -80q102 -57 147 -58q121 0 217 109l99 -127q-166 -174 -316 -174q-87 0 -167 40q-19 9 -70 38
q-184 115 -363 -56l-116 140q160 168 331 168z" />
    <glyph glyph-name="notequal" unicode="&#x2260;" horiz-adv-x="1071" 
d="M41 338v184h303l152 203h-455v186h580l161 226l127 -93l-96 -133h158v-186h-281l-151 -203h432v-184h-555l-160 -229l-131 92l96 137h-180z" />
    <glyph glyph-name="lessequal" unicode="&#x2264;" horiz-adv-x="1026" 
d="M889 1282v-227l-580 -287l580 -291v-217l-836 434v142zM63 201h848v-199h-848v199z" />
    <glyph glyph-name="greaterequal" unicode="&#x2265;" horiz-adv-x="1021" 
d="M74 1055v227l835 -446v-142l-835 -434v217l579 291zM51 201h848v-199h-848v199z" />
    <glyph glyph-name="fontfabric" horiz-adv-x="3624" 
d="M162 1432h688v-347h-12q-41 152 -125 236t-248 84h-303v27zM573 1047v-625h-14q-16 131 -81 220t-183 87h-133v27h117q92 -2 145 30t84 113q4 14 21 59t30 89h14zM1673 728q0 -150 -53 -279q-80 -160 -145 -226q-119 -119 -233 -172t-271 -53h-13v27h13q258 0 372 172
q57 78 78 213q27 205 27 307q0 315 -92 475q-88 213 -385 213h-13v27h13q207 0 386 -118t263 -308q53 -128 53 -278zM2429 1432h252v-1434h-66l-876 1407h-213v27h440l676 -1100h12v1073h-225v27zM1526 25h479v-27h-479v27zM2746 1432h717v-361h-29q-45 164 -130 249
t-238 85h-121v-1380h225v-27h-424v1434z" />
    <glyph glyph-name="zero.tnum" horiz-adv-x="1212" 
d="M558 -4q-167 0 -289 102t-178 255t-56 331t56 332t178 256t290 102q246 0 385 -206t139 -484q0 -391 -235 -586q-123 -102 -290 -102zM559 1176q-156 0 -242 -146t-86 -346q0 -201 86 -345t242 -144t242 145t86 345q0 199 -86 345t-242 146z" />
    <glyph glyph-name="one.tnum" horiz-adv-x="632" 
d="M485 0h-204v1044l-193 -262l-156 113l387 545h166v-1440z" />
    <glyph glyph-name="two.tnum" horiz-adv-x="1169" 
d="M547 1442q157 0 277 -64q218 -115 243 -381q10 -115 -47 -229t-170 -193q-98 -80 -227 -184t-236 -192h657v-199h-1005v160l674 573h-2q111 80 133 200q24 120 -58 211t-224 91q-142 1 -216 -73t-92 -201l-207 16q29 205 158 335t342 130z" />
    <glyph glyph-name="three.tnum" horiz-adv-x="1144" 
d="M354 623v194h215q98 0 148 66q49 67 49 157t-81 144t-179 55q-98 0 -169 -46t-89 -126l-187 45q37 156 159 240t294 84t314 -106q140 -106 142 -308q2 -203 -130 -291q188 -111 184 -334q-2 -168 -138 -292q-136 -123 -366 -123t-351 106q-122 106 -149 268l193 35
q14 -92 90 -154q75 -63 219 -63t230 74t78 161t-71 150q-62 63 -190 64h-215z" />
    <glyph glyph-name="four.tnum" horiz-adv-x="1165" 
d="M733 520v555l-448 -555h448zM934 1434v-910h117v-200h-117v-324h-205v324h-715v145l760 965h160z" />
    <glyph glyph-name="five.tnum" horiz-adv-x="1175" 
d="M57 1440h914v-201h-705v-287q258 84 486 -8q143 -59 221 -179t80 -265q3 -204 -137 -352t-388 -148q-360 0 -489 326l190 77q96 -195 299 -194q152 0 235 86t81 205q0 78 -44 148t-122 104q-250 102 -504 -47l-117 53v682z" />
    <glyph glyph-name="six.tnum" horiz-adv-x="1191" 
d="M1071 492q0 -200 -138 -346t-384 -146t-384 146t-138 346q0 153 88 286l467 656h254l-351 -494q79 29 177 23t172 -48q115 -67 176 -181t61 -242zM864 492q0 118 -82 202t-232 84q-151 0 -234 -85t-83 -201t83 -200q83 -83 234 -83q150 0 232 83t82 200z" />
    <glyph glyph-name="seven.tnum" horiz-adv-x="1120" 
d="M27 1434h1009v-142l-706 -1292h-238l672 1231h-737v203z" />
    <glyph glyph-name="eight.tnum" horiz-adv-x="1173" 
d="M1004 1042q0 -84 -48 -170t-133 -122q119 -46 181 -138t61 -196q0 -174 -137 -302t-383 -128t-381 124t-135 306q0 98 65 190q66 92 182 144q-104 43 -146 127t-42 167q2 190 139 296t336 106t320 -120t121 -284zM545 1264q-98 0 -175 -60t-77 -149q1 -90 67 -156
q66 -65 186 -65t186 66t67 155q0 89 -78 149t-176 60zM858 414q0 92 -82 160t-229 69q-147 0 -231 -69q-84 -68 -83 -160q-1 -92 83 -164t230 -72t229 72t83 164z" />
    <glyph glyph-name="nine.tnum" horiz-adv-x="1204" 
d="M37 950q0 203 139 350q139 148 387 148t388 -148t141 -350q0 -151 -88 -288l-472 -662h-256l353 500q-80 -31 -179 -25t-171 47q-117 68 -180 184q-62 116 -62 244zM563 662q152 0 235 86t83 204t-83 201q-83 84 -235 84q-153 0 -235 -84t-82 -202q0 -117 82 -203
t235 -86z" />
    <glyph glyph-name="zero.p_osf" horiz-adv-x="1212" 
d="M558 -4q-167 0 -289 102t-178 255t-56 331t56 332t178 256t290 102q246 0 385 -206t139 -484q0 -391 -235 -586q-123 -102 -290 -102zM559 1176q-156 0 -242 -146t-86 -346q0 -201 86 -345t242 -144t242 145t86 345q0 199 -86 345t-242 146z" />
    <glyph glyph-name="one.p_osf" horiz-adv-x="632" 
d="M485 0h-204v1044l-193 -262l-156 113l387 545h166v-1440z" />
    <glyph glyph-name="two.p_osf" horiz-adv-x="1169" 
d="M547 1442q157 0 277 -64q218 -115 243 -381q10 -115 -47 -229t-170 -193q-98 -80 -227 -184t-236 -192h657v-199h-1005v160l674 573h-2q111 80 133 200q24 120 -58 211t-224 91q-142 1 -216 -73t-92 -201l-207 16q29 205 158 335t342 130z" />
    <glyph glyph-name="three.p_osf" horiz-adv-x="1144" 
d="M354 623v194h215q98 0 148 66q49 67 49 157t-81 144t-179 55q-98 0 -169 -46t-89 -126l-187 45q37 156 159 240t294 84t314 -106q140 -106 142 -308q2 -203 -130 -291q188 -111 184 -334q-2 -168 -138 -292q-136 -123 -366 -123t-351 106q-122 106 -149 268l193 35
q14 -92 90 -154q75 -63 219 -63t230 74t78 161t-71 150q-62 63 -190 64h-215z" />
    <glyph glyph-name="four.p_osf" horiz-adv-x="1165" 
d="M733 520v555l-448 -555h448zM934 1434v-910h117v-200h-117v-324h-205v324h-715v145l760 965h160z" />
    <glyph glyph-name="five.p_osf" horiz-adv-x="1175" 
d="M57 1440h914v-201h-705v-287q258 84 486 -8q143 -59 221 -179t80 -265q3 -204 -137 -352t-388 -148q-360 0 -489 326l190 77q96 -195 299 -194q152 0 235 86t81 205q0 78 -44 148t-122 104q-250 102 -504 -47l-117 53v682z" />
    <glyph glyph-name="six.p_osf" horiz-adv-x="1191" 
d="M1071 492q0 -200 -138 -346t-384 -146t-384 146t-138 346q0 153 88 286l467 656h254l-351 -494q79 29 177 23t172 -48q115 -67 176 -181t61 -242zM864 492q0 118 -82 202t-232 84q-151 0 -234 -85t-83 -201t83 -200q83 -83 234 -83q150 0 232 83t82 200z" />
    <glyph glyph-name="seven.p_osf" horiz-adv-x="1120" 
d="M27 1434h1009v-142l-706 -1292h-238l672 1231h-737v203z" />
    <glyph glyph-name="eight.p_osf" horiz-adv-x="1173" 
d="M1004 1042q0 -84 -48 -170t-133 -122q119 -46 181 -138t61 -196q0 -174 -137 -302t-383 -128t-381 124t-135 306q0 98 65 190q66 92 182 144q-104 43 -146 127t-42 167q2 190 139 296t336 106t320 -120t121 -284zM545 1264q-98 0 -175 -60t-77 -149q1 -90 67 -156
q66 -65 186 -65t186 66t67 155q0 89 -78 149t-176 60zM858 414q0 92 -82 160t-229 69q-147 0 -231 -69q-84 -68 -83 -160q-1 -92 83 -164t230 -72t229 72t83 164z" />
    <glyph glyph-name="nine.p_osf" horiz-adv-x="1204" 
d="M37 950q0 203 139 350q139 148 387 148t388 -148t141 -350q0 -151 -88 -288l-472 -662h-256l353 500q-80 -31 -179 -25t-171 47q-117 68 -180 184q-62 116 -62 244zM563 662q152 0 235 86t83 204t-83 201q-83 84 -235 84q-153 0 -235 -84t-82 -202q0 -117 82 -203
t235 -86z" />
    <glyph glyph-name="zero.t_osf" horiz-adv-x="1212" 
d="M558 -4q-167 0 -289 102t-178 255t-56 331t56 332t178 256t290 102q246 0 385 -206t139 -484q0 -391 -235 -586q-123 -102 -290 -102zM559 1176q-156 0 -242 -146t-86 -346q0 -201 86 -345t242 -144t242 145t86 345q0 199 -86 345t-242 146z" />
    <glyph glyph-name="one.t_osf" horiz-adv-x="632" 
d="M485 0h-204v1044l-193 -262l-156 113l387 545h166v-1440z" />
    <glyph glyph-name="two.t_osf" horiz-adv-x="1169" 
d="M547 1442q157 0 277 -64q218 -115 243 -381q10 -115 -47 -229t-170 -193q-98 -80 -227 -184t-236 -192h657v-199h-1005v160l674 573h-2q111 80 133 200q24 120 -58 211t-224 91q-142 1 -216 -73t-92 -201l-207 16q29 205 158 335t342 130z" />
    <glyph glyph-name="three.t_osf" horiz-adv-x="1144" 
d="M354 623v194h215q98 0 148 66q49 67 49 157t-81 144t-179 55q-98 0 -169 -46t-89 -126l-187 45q37 156 159 240t294 84t314 -106q140 -106 142 -308q2 -203 -130 -291q188 -111 184 -334q-2 -168 -138 -292q-136 -123 -366 -123t-351 106q-122 106 -149 268l193 35
q14 -92 90 -154q75 -63 219 -63t230 74t78 161t-71 150q-62 63 -190 64h-215z" />
    <glyph glyph-name="four.t_osf" horiz-adv-x="1165" 
d="M733 520v555l-448 -555h448zM934 1434v-910h117v-200h-117v-324h-205v324h-715v145l760 965h160z" />
    <glyph glyph-name="five.t_osf" horiz-adv-x="1175" 
d="M57 1440h914v-201h-705v-287q258 84 486 -8q143 -59 221 -179t80 -265q3 -204 -137 -352t-388 -148q-360 0 -489 326l190 77q96 -195 299 -194q152 0 235 86t81 205q0 78 -44 148t-122 104q-250 102 -504 -47l-117 53v682z" />
    <glyph glyph-name="six.t_osf" horiz-adv-x="1191" 
d="M1071 492q0 -200 -138 -346t-384 -146t-384 146t-138 346q0 153 88 286l467 656h254l-351 -494q79 29 177 23t172 -48q115 -67 176 -181t61 -242zM864 492q0 118 -82 202t-232 84q-151 0 -234 -85t-83 -201t83 -200q83 -83 234 -83q150 0 232 83t82 200z" />
    <glyph glyph-name="seven.t_osf" horiz-adv-x="1120" 
d="M27 1434h1009v-142l-706 -1292h-238l672 1231h-737v203z" />
    <glyph glyph-name="eight.t_osf" horiz-adv-x="1173" 
d="M1004 1042q0 -84 -48 -170t-133 -122q119 -46 181 -138t61 -196q0 -174 -137 -302t-383 -128t-381 124t-135 306q0 98 65 190q66 92 182 144q-104 43 -146 127t-42 167q2 190 139 296t336 106t320 -120t121 -284zM545 1264q-98 0 -175 -60t-77 -149q1 -90 67 -156
q66 -65 186 -65t186 66t67 155q0 89 -78 149t-176 60zM858 414q0 92 -82 160t-229 69q-147 0 -231 -69q-84 -68 -83 -160q-1 -92 83 -164t230 -72t229 72t83 164z" />
    <glyph glyph-name="nine.t_osf" horiz-adv-x="1204" 
d="M37 950q0 203 139 350q139 148 387 148t388 -148t141 -350q0 -151 -88 -288l-472 -662h-256l353 500q-80 -31 -179 -25t-171 47q-117 68 -180 184q-62 116 -62 244zM563 662q152 0 235 86t83 204t-83 201q-83 84 -235 84q-153 0 -235 -84t-82 -202q0 -117 82 -203
t235 -86z" />
    <glyph glyph-name="dollar.osf" horiz-adv-x="1208" 
d="M295 1141h-2q-63 -99 -8 -201t176 -100v395q-117 -28 -166 -94zM666 608v-409q127 -5 188 103t9 212t-197 94zM461 1552h205v-110q152 -27 260 -114t127 -238l-203 -21q-14 63 -66 109t-118 55v-418q182 -6 303 -102t121 -289t-116 -289t-308 -133v-125h-205v125
q-158 27 -279 125t-137 252v14l207 2l2 -2q14 -63 76 -119t131 -75v432q-119 -12 -217 46q-200 119 -190 364q5 118 79 219q115 149 328 182v110z" />
    <glyph glyph-name="cent.osf" horiz-adv-x="1536" 
d="M248 714q0 -212 147 -366q109 -115 260 -145v1022q-151 -31 -260 -144q-147 -155 -147 -367zM655 1622h195v-190q210 -29 360 -166t205 -355h-205q-47 131 -141 211t-219 103v-1022q129 25 228 111t145 223h202q-55 -221 -208 -366q-154 -144 -367 -173v-205h-195v203
q-238 31 -403 207q-205 219 -205 512t205 512q165 172 403 207v188z" />
    <glyph glyph-name="sterling.osf" horiz-adv-x="1191" 
d="M1069 1079h-195q0 131 -120 183q-121 50 -245 -12t-132 -210v-231h434v-168h-434v-461h688v-180h-1008v147l113 31v463h-117v168h117v231q0 158 92 264t224 133q132 26 266 4q134 -23 225 -121q92 -98 92 -241z" />
    <glyph glyph-name="yen.osf" horiz-adv-x="1318" 
d="M213 330v168h303v86l-6 10h-297v168h190l-417 670h243l392 -648l391 648h245l-421 -670h192v-168h-297l-6 -10v-86h303v-168h-303v-330h-209v330h-303z" />
    <glyph glyph-name="florin.osf" horiz-adv-x="1058" 
d="M977 1440l-29 -174q-79 13 -131 1t-81 -37q-30 -25 -43 -52q-13 -28 -19 -42t-12 -40q-6 -27 -10 -40t-7 -42h213l-31 -185h-213l-172 -909q-39 -219 -183 -302t-361 -26l26 177q133 -35 201 3t106 183l166 874h-186l31 185h192q2 8 14 66t48 132q37 74 96 134
q126 126 385 94z" />
    <glyph glyph-name="Euro.osf" horiz-adv-x="1593" 
d="M104 664v79h-98l33 172h94q47 172 176 312q207 213 496 213q246 0 426 -142t242 -387h-205q-55 158 -178 241t-285 83q-209 0 -354 -152q-68 -72 -109 -168h621l-33 -172h-625v-30q0 -33 2 -49h590l-35 -166h-512q39 -90 101 -152q145 -152 354 -151q164 0 292 90
t183 252h203q-61 -246 -245 -397t-433 -150q-293 0 -496 213q-121 127 -172 295h-141l39 166h69z" />
    <glyph glyph-name="zero.numerator" horiz-adv-x="1212" 
d="M558 -4q-167 0 -289 102t-178 255t-56 331t56 332t178 256t290 102q246 0 385 -206t139 -484q0 -391 -235 -586q-123 -102 -290 -102zM559 1176q-156 0 -242 -146t-86 -346q0 -201 86 -345t242 -144t242 145t86 345q0 199 -86 345t-242 146z" />
    <glyph glyph-name="one.numerator" horiz-adv-x="632" 
d="M485 0h-204v1044l-193 -262l-156 113l387 545h166v-1440z" />
    <glyph glyph-name="two.numerator" horiz-adv-x="1169" 
d="M547 1442q157 0 277 -64q218 -115 243 -381q10 -115 -47 -229t-170 -193q-98 -80 -227 -184t-236 -192h657v-199h-1005v160l674 573h-2q111 80 133 200q24 120 -58 211t-224 91q-142 1 -216 -73t-92 -201l-207 16q29 205 158 335t342 130z" />
    <glyph glyph-name="three.numerator" horiz-adv-x="1144" 
d="M354 623v194h215q98 0 148 66q49 67 49 157t-81 144t-179 55q-98 0 -169 -46t-89 -126l-187 45q37 156 159 240t294 84t314 -106q140 -106 142 -308q2 -203 -130 -291q188 -111 184 -334q-2 -168 -138 -292q-136 -123 -366 -123t-351 106q-122 106 -149 268l193 35
q14 -92 90 -154q75 -63 219 -63t230 74t78 161t-71 150q-62 63 -190 64h-215z" />
    <glyph glyph-name="four.numerator" horiz-adv-x="1165" 
d="M733 520v555l-448 -555h448zM934 1434v-910h117v-200h-117v-324h-205v324h-715v145l760 965h160z" />
    <glyph glyph-name="five.numerator" horiz-adv-x="1175" 
d="M57 1440h914v-201h-705v-287q258 84 486 -8q143 -59 221 -179t80 -265q3 -204 -137 -352t-388 -148q-360 0 -489 326l190 77q96 -195 299 -194q152 0 235 86t81 205q0 78 -44 148t-122 104q-250 102 -504 -47l-117 53v682z" />
    <glyph glyph-name="six.numerator" horiz-adv-x="1191" 
d="M1071 492q0 -200 -138 -346t-384 -146t-384 146t-138 346q0 153 88 286l467 656h254l-351 -494q79 29 177 23t172 -48q115 -67 176 -181t61 -242zM864 492q0 118 -82 202t-232 84q-151 0 -234 -85t-83 -201t83 -200q83 -83 234 -83q150 0 232 83t82 200z" />
    <glyph glyph-name="seven.numerator" horiz-adv-x="1120" 
d="M27 1434h1009v-142l-706 -1292h-238l672 1231h-737v203z" />
    <glyph glyph-name="eight.numerator" horiz-adv-x="1173" 
d="M1004 1042q0 -84 -48 -170t-133 -122q119 -46 181 -138t61 -196q0 -174 -137 -302t-383 -128t-381 124t-135 306q0 98 65 190q66 92 182 144q-104 43 -146 127t-42 167q2 190 139 296t336 106t320 -120t121 -284zM545 1264q-98 0 -175 -60t-77 -149q1 -90 67 -156
q66 -65 186 -65t186 66t67 155q0 89 -78 149t-176 60zM858 414q0 92 -82 160t-229 69q-147 0 -231 -69q-84 -68 -83 -160q-1 -92 83 -164t230 -72t229 72t83 164z" />
    <glyph glyph-name="nine.numerator" horiz-adv-x="1204" 
d="M37 950q0 203 139 350q139 148 387 148t388 -148t141 -350q0 -151 -88 -288l-472 -662h-256l353 500q-80 -31 -179 -25t-171 47q-117 68 -180 184q-62 116 -62 244zM563 662q152 0 235 86t83 204t-83 201q-83 84 -235 84q-153 0 -235 -84t-82 -202q0 -117 82 -203
t235 -86z" />
    <glyph glyph-name="zero.denominator" horiz-adv-x="1212" 
d="M558 -4q-167 0 -289 102t-178 255t-56 331t56 332t178 256t290 102q246 0 385 -206t139 -484q0 -391 -235 -586q-123 -102 -290 -102zM559 1176q-156 0 -242 -146t-86 -346q0 -201 86 -345t242 -144t242 145t86 345q0 199 -86 345t-242 146z" />
    <glyph glyph-name="one.denominator" horiz-adv-x="632" 
d="M485 0h-204v1044l-193 -262l-156 113l387 545h166v-1440z" />
    <glyph glyph-name="two.denominator" horiz-adv-x="1169" 
d="M547 1442q157 0 277 -64q218 -115 243 -381q10 -115 -47 -229t-170 -193q-98 -80 -227 -184t-236 -192h657v-199h-1005v160l674 573h-2q111 80 133 200q24 120 -58 211t-224 91q-142 1 -216 -73t-92 -201l-207 16q29 205 158 335t342 130z" />
    <glyph glyph-name="three.denominator" horiz-adv-x="1144" 
d="M354 623v194h215q98 0 148 66q49 67 49 157t-81 144t-179 55q-98 0 -169 -46t-89 -126l-187 45q37 156 159 240t294 84t314 -106q140 -106 142 -308q2 -203 -130 -291q188 -111 184 -334q-2 -168 -138 -292q-136 -123 -366 -123t-351 106q-122 106 -149 268l193 35
q14 -92 90 -154q75 -63 219 -63t230 74t78 161t-71 150q-62 63 -190 64h-215z" />
    <glyph glyph-name="four.denominator" horiz-adv-x="1165" 
d="M733 520v555l-448 -555h448zM934 1434v-910h117v-200h-117v-324h-205v324h-715v145l760 965h160z" />
    <glyph glyph-name="five.denominator" horiz-adv-x="1175" 
d="M57 1440h914v-201h-705v-287q258 84 486 -8q143 -59 221 -179t80 -265q3 -204 -137 -352t-388 -148q-360 0 -489 326l190 77q96 -195 299 -194q152 0 235 86t81 205q0 78 -44 148t-122 104q-250 102 -504 -47l-117 53v682z" />
    <glyph glyph-name="six.denominator" horiz-adv-x="1191" 
d="M1071 492q0 -200 -138 -346t-384 -146t-384 146t-138 346q0 153 88 286l467 656h254l-351 -494q79 29 177 23t172 -48q115 -67 176 -181t61 -242zM864 492q0 118 -82 202t-232 84q-151 0 -234 -85t-83 -201t83 -200q83 -83 234 -83q150 0 232 83t82 200z" />
    <glyph glyph-name="seven.denominator" horiz-adv-x="1120" 
d="M27 1434h1009v-142l-706 -1292h-238l672 1231h-737v203z" />
    <glyph glyph-name="eight.denominator" horiz-adv-x="1173" 
d="M1004 1042q0 -84 -48 -170t-133 -122q119 -46 181 -138t61 -196q0 -174 -137 -302t-383 -128t-381 124t-135 306q0 98 65 190q66 92 182 144q-104 43 -146 127t-42 167q2 190 139 296t336 106t320 -120t121 -284zM545 1264q-98 0 -175 -60t-77 -149q1 -90 67 -156
q66 -65 186 -65t186 66t67 155q0 89 -78 149t-176 60zM858 414q0 92 -82 160t-229 69q-147 0 -231 -69q-84 -68 -83 -160q-1 -92 83 -164t230 -72t229 72t83 164z" />
    <glyph glyph-name="nine.denominator" horiz-adv-x="1204" 
d="M37 950q0 203 139 350q139 148 387 148t388 -148t141 -350q0 -151 -88 -288l-472 -662h-256l353 500q-80 -31 -179 -25t-171 47q-117 68 -180 184q-62 116 -62 244zM563 662q152 0 235 86t83 204t-83 201q-83 84 -235 84q-153 0 -235 -84t-82 -202q0 -117 82 -203
t235 -86z" />
    </font>
</defs>
</svg>
