<?xml version="1.0" standalone="no"?>
<!DOCTYPE svg PUBLIC "-//W3C//DTD SVG 1.1//EN" "http://www.w3.org/Graphics/SVG/1.1/DTD/svg11.dtd" >
<svg xmlns="http://www.w3.org/2000/svg">
<metadata>
Created by FontPrep 20130207 at Fri Oct 31 22:48:12 2014
 By Jefry
Copyright (C) 2006, 2007 Hoefler &#38; Frere-Jones. http://www.typography.com
</metadata>
<defs>
<font id="21661efc977bfcfec5c6c16307c05ceb" horiz-adv-x='1024' >
  <font-face 
    font-family="GothamRounded-Book"
    font-weight="325"
    font-stretch="normal"
    units-per-em="2048"
    panose-1="0 0 0 0 0 0 0 0 0 0"
    ascent="1638"
    descent="-410"
    x-height="1059"
    cap-height="1444"
    bbox="-98 -498 2374 2130"
    underline-thickness="102"
    underline-position="-102"
    unicode-range="U+0020-FB04"
  />
<missing-glyph horiz-adv-x="1024" 
d="M512 492l-367 -799h734zM922 1384l-353 -770l353 -770v1540zM102 -156l353 770l-353 770v-1540zM145 1536l367 -799l367 799h-734zM0 -410v2048h1024v-2048h-1024z" />
    <glyph glyph-name="f_f" unicode="ff" horiz-adv-x="1505" 
d="M987 70v850h-86q-29 0 -48 20t-19 48t19 48t48 21h86v92q0 180 87 267t233 87q74 0 125 -12q57 -12 57 -68q0 -31 -23 -51t-71 -13t-68 7q-184 0 -184 -225v-86h274q29 1 49 -19t20 -49t-20 -48t-49 -19h-272v-850q0 -33 -23 -57q-24 -23 -56 -23t-56 24t-23 56zM236 70
v850h-86q-29 0 -49 20q-19 20 -19 48t20 48t48 21h86v92q0 180 87 267t232 87q72 0 127 -12t55 -68q-1 -31 -23 -51t-70 -13t-69 7q-184 0 -184 -225v-86h275q29 1 49 -19t20 -49t-20 -48t-49 -19h-273v-850q-1 -33 -23 -57q-22 -23 -55 -23t-56 24t-23 56z" />
    <glyph glyph-name="fi" unicode="fi" horiz-adv-x="1292" 
d="M236 70v850h-86q-29 0 -49 20q-19 20 -19 48t20 48t48 21h86v92q0 180 87 267t232 87q72 0 127 -12t55 -68q-1 -31 -23 -51t-70 -13t-69 7q-184 0 -184 -225v-86h275q29 1 49 -19t20 -49t-20 -48t-49 -19h-273v-850q-1 -33 -23 -57q-22 -23 -55 -23t-56 24t-23 56z
M942 70v919q0 33 23 57t55 24t56 -24q24 -22 24 -57v-919q0 -35 -23 -58q-23 -22 -57 -22t-56 24t-22 56zM928 1364v27q0 37 26 61t67 23q41 0 67 -24t26 -60v-27q0 -36 -27 -60t-67 -24t-66 24t-26 60z" />
    <glyph glyph-name="fl" unicode="fl" horiz-adv-x="1292" 
d="M236 70v850h-86q-29 0 -49 20q-19 20 -19 48t20 48t48 21h86v92q0 180 87 267t232 87q72 0 127 -12t55 -68q-1 -31 -23 -51t-70 -13t-69 7q-184 0 -184 -225v-86h275q29 1 49 -19t20 -49t-20 -48t-49 -19h-273v-850q-1 -33 -23 -57q-22 -23 -55 -23t-56 24t-23 56z
M942 70v1355q0 33 23 57t55 24t56 -24t24 -57v-1355q0 -35 -23 -58q-23 -22 -57 -22t-56 24t-22 56z" />
    <glyph glyph-name="f_f_i" unicode="ffi" horiz-adv-x="2043" 
d="M987 70v850h-86q-29 0 -48 20t-19 48t19 48t48 21h86v92q0 180 87 267t233 87q74 0 125 -12q57 -12 57 -68q0 -31 -23 -51t-71 -13t-68 7q-184 0 -184 -225v-86h274q29 1 49 -19t20 -49t-20 -48t-49 -19h-272v-850q0 -33 -23 -57q-24 -23 -56 -23t-56 24t-23 56zM236 70
v850h-86q-29 0 -49 20q-19 20 -19 48t20 48t48 21h86v92q0 180 87 267t232 87q72 0 127 -12t55 -68q-1 -31 -23 -51t-70 -13t-69 7q-184 0 -184 -225v-86h275q29 1 49 -19t20 -49t-20 -48t-49 -19h-273v-850q-1 -33 -23 -57q-22 -23 -55 -23t-56 24t-23 56zM1694 70v919
q0 33 22 57q23 24 57 24q35 0 57 -24q22 -22 21 -57v-919q-1 -35 -23 -58q-22 -22 -54 -22t-57 23q-23 24 -23 57zM1679 1364v27q0 37 27 61t67 23q41 0 67 -24t26 -60v-27q0 -36 -27 -60t-67 -24t-66 24q-27 24 -27 60z" />
    <glyph glyph-name="f_f_l" unicode="ffl" horiz-adv-x="2041" 
d="M1694 70v1355q0 33 22 57q23 24 56 24q32 0 56 -24t23 -57v-1355q-1 -35 -23 -58q-22 -22 -54 -22t-57 23q-23 24 -23 57zM987 70v850h-86q-29 0 -48 20t-19 48t19 48t48 21h86v92q0 180 87 267t233 87q74 0 125 -12q57 -12 57 -68q0 -31 -23 -51t-71 -13t-68 7
q-184 0 -184 -225v-86h274q29 1 49 -19t20 -49t-20 -48t-49 -19h-272v-850q0 -33 -23 -57q-24 -23 -56 -23t-56 24t-23 56zM236 70v850h-86q-29 0 -49 20q-19 20 -19 48t20 48t48 21h86v92q0 180 87 267t232 87q72 0 127 -12t55 -68q-1 -31 -23 -51t-70 -13t-69 7
q-184 0 -184 -225v-86h275q29 1 49 -19t20 -49t-20 -48t-49 -19h-273v-850q-1 -33 -23 -57q-22 -23 -55 -23t-56 24t-23 56z" />
    <glyph glyph-name=".notdef" horiz-adv-x="1024" 
d="M512 492l-367 -799h734zM922 1384l-353 -770l353 -770v1540zM102 -156l353 770l-353 770v-1540zM145 1536l367 -799l367 799h-734zM0 -410v2048h1024v-2048h-1024z" />
    <glyph glyph-name=".null" horiz-adv-x="0" 
 />
    <glyph glyph-name="nonmarkingreturn" horiz-adv-x="681" 
 />
    <glyph glyph-name="space" unicode=" " horiz-adv-x="614" 
 />
    <glyph glyph-name="exclam" unicode="!" horiz-adv-x="555" 
d="M180 129q0 41 28 69t70 28t70 -28t27 -69v-41q0 -41 -28 -70q-27 -28 -69 -28t-70 28t-28 70v41zM313 1440q27 0 44 -18t16 -48l-47 -930q-2 -20 -16 -33t-31 -14q-46 0 -50 47l-47 930q-2 27 16 46t44 20h71z" />
    <glyph glyph-name="quotedbl" unicode="&#x22;" horiz-adv-x="901" 
d="M270 1440h54q47 0 47 -49q0 -2 -11 -48l-129 -428q-16 -47 -49 -47q-51 1 -45 54l51 440q10 78 82 78zM670 1440h53q47 0 47 -49q0 -2 -10 -48l-129 -428q-16 -47 -49 -47q-51 1 -45 54l51 440q10 78 82 78z" />
    <glyph glyph-name="numbersign" unicode="#" horiz-adv-x="1433" 
d="M487 504h383l76 434h-383zM154 362q-30 0 -50 20t-20 50q0 28 20 50t50 22h188l76 434h-185q-29 0 -51 20t-20 50q0 30 22 50q22 22 49 21h209l52 301q9 62 75 64q31 0 51 -27t15 -59l-49 -279h385l51 301q4 29 24 46q20 18 52 18q31 0 50 -27t15 -59l-47 -279h162
q28 0 50 -20t22 -49t-22 -51t-50 -21h-186l-76 -434h182q28 0 50 -20t22 -50q0 -28 -22 -50t-50 -22h-207l-53 -309q-2 -27 -22 -45t-53 -18q-32 0 -51 26t-15 60l51 286h-385l-53 -309q-4 -27 -24 -45t-51 -18t-51 26t-16 60l49 286h-163z" />
    <glyph glyph-name="dollar" unicode="$" horiz-adv-x="1302" 
d="M326 1066q0 -94 59 -152t219 -101v483q-127 -6 -203 -70q-75 -65 -75 -160zM1008 373q0 98 -62 156t-223 100v-494q131 8 208 74t77 164zM598 1497q0 27 19 46t47 19t46 -18q19 -20 19 -47v-67q184 -20 346 -132q41 -32 41 -66t-22 -54t-53 -20q-30 0 -48 13
q-135 98 -270 119v-506q233 -51 337 -146t105 -255q0 -160 -121 -265t-315 -118v-145q0 -27 -19 -46t-46 -19q-26 0 -46 18q-20 20 -20 47v149q-238 20 -444 182q-35 25 -35 61q1 35 23 57t51 22t49 -17q172 -145 362 -168v514q-228 55 -332 147t-104 252q0 159 121 264
t309 116v63z" />
    <glyph glyph-name="percent" unicode="%" horiz-adv-x="1708" 
d="M1087 350q-1 -106 55 -179t137 -73t133 72t52 176v4q0 106 -55 179t-136 73t-133 -72t-53 -176v-4zM435 831q81 0 133 72t53 176v4q1 105 -55 179t-137 74t-133 -72t-52 -177v-4q0 -106 55 -179t136 -73zM1275 -16q-142 0 -233 106q-90 106 -90 256v4q0 150 92 258
t234 109q142 -1 231 -107q90 -106 90 -256v-4q0 -152 -91 -259t-233 -107zM305 46q0 22 12 40l975 1329q24 29 50 29t43 -18q35 -36 6 -78l-975 -1330q-24 -28 -50 -28t-44 17t-17 39zM430 717q-141 0 -232 106t-92 256v4q0 151 92 259t235 108t233 -106t90 -257v-4
q0 -150 -92 -258t-234 -108z" />
    <glyph glyph-name="ampersand" unicode="&#x26;" horiz-adv-x="1425" 
d="M555 117q193 0 360 188l-385 393q-138 -51 -206 -132t-68 -175v-4q0 -117 84 -193t215 -77zM870 1122v4q0 86 -57 142t-149 57q-92 0 -152 -59t-61 -148v-4q1 -64 31 -120t112 -144q276 94 276 272zM1266 -18q-33 0 -66 28l-186 195q-209 -225 -471 -225q-195 0 -323 112
t-128 289v4q0 279 346 414q-143 168 -143 315v4q0 144 105 242q104 98 264 98t259 -94t99 -229v-5q0 -254 -338 -372l328 -334q84 125 149 272q23 43 60 43q37 1 59 -21q36 -36 10 -89q-86 -180 -178 -305l199 -203q60 -67 9 -118q-21 -21 -54 -21z" />
    <glyph glyph-name="quotesingle" unicode="'" horiz-adv-x="501" 
d="M270 1440h54q47 0 47 -49q0 -10 -9 -48l-131 -428q-16 -47 -49 -47q-51 1 -45 54l51 440q10 78 82 78z" />
    <glyph glyph-name="parenleft" unicode="(" horiz-adv-x="888" 
d="M776 -214q0 -30 -18 -48t-45 -19q-27 0 -35 9q-539 317 -539 860t539 860q8 8 35 8t45 -18t18 -48t-31 -51q-446 -293 -446 -751t446 -752q31 -20 31 -50z" />
    <glyph glyph-name="parenright" unicode=")" horiz-adv-x="888" 
d="M176 -281q-27 1 -45 19t-18 48t30 50q446 293 447 752q0 459 -447 751q-31 21 -31 51t19 48q18 18 45 18t35 -8q539 -317 539 -860t-539 -860q-8 -9 -35 -9z" />
    <glyph glyph-name="asterisk" unicode="*" horiz-adv-x="880" 
d="M194 932q-19 0 -35 15q-15 15 -15 44t36 41l199 92l-199 93q-37 17 -37 43q-1 26 15 42q33 33 78 1l172 -121l-17 207q-2 25 12 42t37 17t38 -17t11 -40l-16 -209l172 121q23 16 42 16t35 -15t15 -43q0 -28 -37 -44l-198 -93l198 -92q37 -12 37 -40t-15 -44
q-14 -16 -34 -16t-43 16l-172 121l16 -209q4 -23 -11 -40t-38 -17t-38 17t-11 40l17 209l-172 -121q-23 -16 -42 -16z" />
    <glyph glyph-name="plus" unicode="+" horiz-adv-x="1280" 
d="M563 293v354h-358q-31 0 -53 22q-22 23 -23 53q0 30 23 52t53 21h358v354q0 33 23 55q22 22 54 21q32 0 54 -22t23 -54v-354h360q31 0 53 -22q22 -23 21 -53q0 -30 -22 -52t-52 -21h-360v-354q0 -33 -23 -55q-22 -22 -54 -21q-32 -1 -54 21t-23 55z" />
    <glyph glyph-name="comma" unicode="," horiz-adv-x="501" 
d="M92 -205q0 27 27 37q121 53 114 168q-80 18 -79 98v33q0 41 26 68q27 27 70 27t71 -32q28 -30 27 -81v-39q0 -172 -74 -246q-30 -30 -72 -52t-67 -22q-43 0 -43 41z" />
    <glyph glyph-name="hyphen" unicode="-" horiz-adv-x="835" 
d="M205 532q-33 0 -58 25t-25 59t25 58q25 25 58 24h426q33 0 57 -24t25 -59q0 -35 -25 -59t-57 -24h-426z" />
    <glyph glyph-name="period" unicode="." horiz-adv-x="501" 
d="M154 129q0 41 27 69q28 28 70 28t70 -28t27 -69v-41q0 -41 -28 -70q-28 -28 -69 -28q-42 0 -70 28t-27 70v41z" />
    <glyph glyph-name="slash" unicode="/" horiz-adv-x="1040" 
d="M-8 -212q0 24 10 38l891 1778q20 41 54 41q34 -1 52 -19q33 -34 11 -80l-893 -1777q-19 -41 -53 -41t-53 18t-19 42z" />
    <glyph glyph-name="zero" unicode="0" horiz-adv-x="1464" 
d="M735 123q195 0 315 173t119 417v4q0 244 -121 419q-122 175 -317 175t-315 -172t-121 -418v-4q1 -244 123 -419t317 -175zM731 -25q-270 0 -437 214t-167 524v4q0 309 169 525t439 216t436 -214t166 -523v-4q0 -309 -168 -525t-438 -217z" />
    <glyph glyph-name="one" unicode="1" horiz-adv-x="733" 
d="M367 72v1210l-201 -65q-54 -18 -79 8t-26 55q0 49 58 70l235 82q59 18 88 18h4q35 0 58 -24t22 -56v-1298q0 -35 -24 -59q-24 -23 -56 -23q-33 0 -56 24t-23 58z" />
    <glyph glyph-name="two" unicode="2" horiz-adv-x="1226" 
d="M172 0q-34 0 -58 22t-24 59q0 38 39 71l489 432q168 150 234 246t66 212q0 115 -84 191t-199 76q-115 1 -199 -51t-164 -158q-22 -29 -56 -29t-56 22q-22 21 -21 49q0 28 17 48q96 133 206 199q110 65 292 65q180 0 306 -115t125 -290v-5q1 -150 -79 -266t-283 -291
l-383 -340h694q32 1 54 -21t22 -52t-23 -52t-53 -22h-862z" />
    <glyph glyph-name="three" unicode="3" horiz-adv-x="1255" 
d="M637 -25q-307 0 -500 218q-27 27 -27 59t24 54q24 24 58 24t58 -25q160 -182 389 -182q133 0 223 78t90 200v5q0 132 -110 204t-291 72h-51q-28 0 -50 20t-22 50t33 63l418 473h-635q-31 0 -54 20t-22 52q0 30 22 52t54 22h782q34 0 56 -20t22 -53q0 -34 -39 -77
l-422 -469q205 -15 339 -117t134 -286v-4q0 -188 -138 -310t-341 -123z" />
    <glyph glyph-name="four" unicode="4" horiz-adv-x="1374" 
d="M885 475v739l-602 -739h602zM885 68v272h-713q-34 0 -58 22t-24 58q0 35 31 76l745 909q39 49 83 49t69 -24t24 -60v-895h162q29 0 49 -20q21 -20 21 -48q0 -27 -20 -47t-50 -20h-162v-272q0 -33 -24 -56q-24 -22 -56 -22t-55 22q-22 23 -22 56z" />
    <glyph glyph-name="five" unicode="5" horiz-adv-x="1253" 
d="M623 -25q-258 0 -467 187q-33 28 -33 62t22 58q23 24 55 24t56 -21q178 -162 369 -162q151 0 247 89t97 228v4q1 134 -99 218t-258 83q-100 -1 -194 -35t-96 -34q-35 0 -78 29t-39 90l33 561q2 34 24 56t53 22h689q30 0 52 -22t22 -54t-22 -52q-22 -22 -52 -22h-619
l-31 -459q145 63 283 64q215 0 355 -119t141 -319v-5q1 -207 -143 -339t-367 -132z" />
    <glyph glyph-name="six" unicode="6" horiz-adv-x="1325" 
d="M683 119q157 0 252 94t95 233v5q0 133 -98 220t-253 87t-256 -94t-101 -220v-4q0 -137 102 -229t259 -92zM1196 453q0 -207 -148 -343t-372 -135q-225 0 -371 146q-92 92 -136 219t-44 336v4q0 336 161 557t435 221q203 0 373 -127q39 -27 39 -63t-23 -60
q-24 -22 -52 -22t-48 14q-145 111 -297 111q-193 0 -307 -176t-113 -457q150 219 407 219q208 0 352 -122t144 -318v-4z" />
    <glyph glyph-name="seven" unicode="7" horiz-adv-x="1220" 
d="M412 -10q-42 0 -66 22t-24 48t12 55l594 1171h-723q-31 0 -53 22t-23 52q0 30 23 52t53 22h839q35 0 57 -20q45 -40 -1 -124l-619 -1243q-27 -57 -69 -57z" />
    <glyph glyph-name="eight" unicode="8" horiz-adv-x="1290" 
d="M270 389q0 -113 102 -191t274 -77q171 0 273 78q101 78 101 190v4q0 119 -109 196t-267 77t-266 -77t-108 -196v-4zM645 799q139 0 234 73q94 74 94 189v4q0 106 -94 177q-95 71 -235 71t-233 -71t-94 -177v-4q1 -115 95 -189t233 -73zM645 -20q-231 0 -385 114t-154 291
v4q0 123 80 213t215 139q-246 113 -245 330v4q0 162 144 271q144 108 345 108t345 -108t145 -271v-4q0 -217 -246 -330q135 -51 215 -139t80 -211v-4q0 -179 -154 -293t-385 -114z" />
    <glyph glyph-name="nine" unicode="9" horiz-adv-x="1325" 
d="M648 662q157 0 256 97t100 226v4q0 139 -102 233t-261 93q-158 0 -252 -98t-94 -238v-4q0 -137 98 -225t255 -88zM604 -25q-209 0 -399 144q-37 27 -37 63t22 58q44 44 107 6q150 -123 311 -123q193 0 312 176t114 453q-143 -229 -405 -230q-221 0 -361 125
q-139 125 -139 320v4q0 207 145 347q144 140 372 140t376 -147q178 -178 178 -555v-4q0 -342 -166 -560t-430 -217z" />
    <glyph glyph-name="colon" unicode=":" horiz-adv-x="522" 
d="M164 129q0 41 27 69q28 28 70 28t70 -28t27 -69v-41q0 -41 -28 -70q-28 -28 -69 -28q-42 0 -70 28t-27 70v41zM164 973q0 41 28 69t69 27q42 0 70 -28t27 -68v-43q0 -41 -28 -69q-28 -27 -69 -27q-42 0 -70 28t-27 68v43z" />
    <glyph glyph-name="semicolon" unicode=";" horiz-adv-x="522" 
d="M102 -205q0 27 27 37q121 53 115 168q-80 18 -80 98v33q0 41 26 68q27 27 70 27t71 -32q28 -30 27 -81v-39q0 -172 -73 -246q-31 -30 -73 -52t-67 -22q-43 0 -43 41zM164 973q0 41 28 69t69 27q42 0 70 -28t27 -68v-43q0 -41 -28 -69q-28 -27 -69 -27q-42 0 -70 28
t-27 68v43z" />
    <glyph glyph-name="less" unicode="&#x3c;" horiz-adv-x="1280" 
d="M1102 285q0 -38 -20 -58t-40 -20q-22 0 -49 10l-809 412q-59 31 -59 88v8q0 57 59 88l809 412q56 28 89 -10q20 -21 20 -59t-47 -60l-752 -373l752 -377q47 -23 47 -61z" />
    <glyph glyph-name="equal" unicode="=" horiz-adv-x="1280" 
d="M231 885q-31 -1 -53 21t-22 54t22 54t53 22h818q33 0 55 -22t22 -54t-22 -54t-55 -21h-818zM231 406q-31 0 -53 22t-22 52q0 32 22 55q23 23 53 22h818q33 -1 55 -23t22 -54t-22 -54t-55 -20h-818z" />
    <glyph glyph-name="greater" unicode="&#x3e;" horiz-adv-x="1280" 
d="M178 1158q0 36 20 56t40 21q20 0 51 -10l807 -412q61 -31 61 -88v-8q0 -57 -61 -88l-807 -412q-59 -24 -84 4q-27 27 -27 63t47 62l752 373l-752 377q-47 26 -47 62z" />
    <glyph glyph-name="question" unicode="?" horiz-adv-x="1099" 
d="M403 129q0 41 29 69t70 28q42 0 70 -28t28 -69v-41q0 -41 -29 -70q-29 -28 -69 -28t-70 28q-29 28 -29 70v41zM508 395h-8q-20 -1 -36 15t-18 41l-22 229q-4 61 59 72q166 12 260 85t95 199v4q0 113 -82 190t-217 77q-190 0 -338 -160q-27 -23 -57 -23t-52 20t-20 52
q0 31 24 55q184 201 447 201q205 0 331 -115t127 -290v-5q-1 -182 -119 -285t-307 -130l-14 -176q-6 -56 -53 -56z" />
    <glyph glyph-name="at" unicode="@" horiz-adv-x="2007" 
d="M672 528q0 -120 70 -188t190 -68q121 0 223 112t102 241q-1 129 -71 203t-190 73q-120 0 -223 -108q-101 -109 -101 -265zM1022 -332q-389 0 -651 261t-262 631t261 634t634 264q374 0 634 -243t260 -568q0 -244 -114 -373t-268 -129q-109 0 -183 46t-104 126
q-145 -172 -338 -172q-154 -1 -260 103t-107 270q0 211 146 361q146 149 338 149t288 -170l17 88q12 70 71 70q34 0 54 -26t14 -60l-74 -414q-14 -80 -14 -142t46 -105q46 -44 128 -44q119 0 203 109t84 313q0 291 -239 516q-238 225 -584 225t-583 -241
q-237 -242 -237 -587t238 -584t602 -238q266 0 494 131q8 4 20 4t22 -10q10 -11 9 -23q0 -12 -17 -28q-245 -144 -528 -144z" />
    <glyph glyph-name="A" unicode="A" horiz-adv-x="1605" 
d="M469 526h659l-329 734zM178 -10q-30 0 -52 21t-22 48t11 47l581 1272q33 72 103 72h8q72 0 100 -72l582 -1269q10 -25 10 -49q-1 -24 -23 -48q-22 -23 -55 -22q-53 0 -80 59l-149 330h-786l-150 -334q-23 -55 -78 -55z" />
    <glyph glyph-name="B" unicode="B" horiz-adv-x="1478" 
d="M362 145h482q164 0 258 69t94 187v5q0 119 -97 182t-284 63h-453v-506zM362 795h424q150 1 240 67t90 189v4q0 109 -83 171t-234 62h-437v-493zM203 82v1270q-1 34 23 58t57 24h530q244 0 375 -127q92 -96 92 -230v-4q0 -233 -227 -332q307 -92 307 -346v-4
q0 -183 -141 -287t-379 -104h-557q-33 0 -57 24t-23 58z" />
    <glyph glyph-name="C" unicode="C" horiz-adv-x="1511" 
d="M855 -25q-304 0 -510 213t-206 525v4q0 309 207 525t518 216q162 0 282 -47t230 -139q33 -29 33 -64q0 -34 -25 -58q-26 -24 -54 -24t-56 19q-184 164 -417 164t-391 -170t-159 -418v-4q0 -250 160 -421q159 -171 395 -171t426 174q22 23 52 23t54 -24t24 -56t-27 -56
q-232 -211 -536 -211z" />
    <glyph glyph-name="D" unicode="D" horiz-adv-x="1601" 
d="M365 150h335q266 0 430 160t164 403v4q0 243 -164 405t-430 162h-335v-1134zM203 82v1270q-1 34 23 58t57 24h417q334 0 548 -204t214 -509v-4q0 -307 -214 -512t-548 -205h-417q-33 0 -57 24t-23 58z" />
    <glyph glyph-name="E" unicode="E" horiz-adv-x="1372" 
d="M283 0q-33 0 -57 25t-23 57v1270q-1 34 23 58t57 24h891q30 0 52 -22t22 -52t-22 -52t-52 -22h-809v-489h716q31 0 53 -23q22 -22 22 -52t-22 -52t-53 -21h-716v-502h819q30 1 52 -21t22 -52t-22 -52t-52 -22h-901z" />
    <glyph glyph-name="F" unicode="F" horiz-adv-x="1343" 
d="M203 72v1280q-1 34 23 58t57 24h886q31 0 53 -22t22 -52t-22 -54q-22 -22 -53 -22h-804v-512h712q31 0 53 -22t21 -52q0 -30 -22 -52t-52 -21h-712v-553q0 -35 -25 -59q-26 -23 -58 -23t-56 24q-23 25 -23 58z" />
    <glyph glyph-name="G" unicode="G" horiz-adv-x="1605" 
d="M868 -25q-330 0 -530 211t-199 527v4q0 303 203 522t500 219t506 -153q32 -25 32 -62t-24 -61t-52 -25q-29 0 -55 21q-172 131 -401 131t-385 -172t-156 -416v-4q0 -260 155 -428q154 -168 402 -168t424 143v357h-385q-29 -1 -51 21t-21 52q0 30 22 50q22 22 50 22h461
q32 0 56 -25t24 -57v-436q0 -61 -55 -98q-238 -175 -521 -175z" />
    <glyph glyph-name="H" unicode="H" horiz-adv-x="1556" 
d="M203 72v1290q-1 34 23 58t57 24t57 -24t25 -58v-565h827v565q0 34 25 58t57 24t56 -25t24 -57v-1290q0 -33 -24 -58q-24 -24 -56 -24t-58 24q-24 24 -24 58v573h-827v-573q0 -35 -25 -59q-26 -23 -58 -23t-56 24q-23 25 -23 58z" />
    <glyph glyph-name="I" unicode="I" horiz-adv-x="595" 
d="M217 72v1290q0 34 24 58q23 24 57 24t58 -24t23 -58v-1290q0 -35 -24 -59q-23 -23 -57 -23t-58 24t-23 58z" />
    <glyph glyph-name="J" unicode="J" horiz-adv-x="1132" 
d="M506 -20q-254 0 -406 204q-23 23 -22 56q0 32 24 56t56 24q33 0 57 -29q61 -84 130 -123t179 -39t189 89q78 89 78 255v889q1 34 25 58t56 24t57 -24q24 -24 23 -58v-887q0 -246 -131 -377q-122 -118 -315 -118z" />
    <glyph glyph-name="K" unicode="K" horiz-adv-x="1462" 
d="M203 72v1290q-1 34 23 58t57 24t57 -24t25 -58v-784l817 837q34 29 64 29t54 -25t23 -55q0 -30 -27 -57l-508 -504l545 -672q23 -29 23 -61t-25 -56t-61 -24t-62 37l-534 665l-309 -309v-311q0 -35 -25 -59q-26 -23 -58 -23t-56 24q-23 25 -23 58z" />
    <glyph glyph-name="L" unicode="L" horiz-adv-x="1267" 
d="M203 82v1280q-1 34 23 58t57 24t57 -24t25 -58v-1212h743q30 0 52 -23t22 -53t-22 -52t-52 -22h-825q-33 0 -57 24t-23 58z" />
    <glyph glyph-name="M" unicode="M" horiz-adv-x="1777" 
d="M203 70v1290q-1 32 23 56t57 24h18q47 0 76 -43l512 -770l512 770q27 43 76 43h18q33 0 57 -24t23 -56v-1288q0 -33 -24 -58q-25 -24 -57 -24t-56 24t-25 58v1069l-459 -674q-28 -41 -68 -41t-69 41l-457 672v-1069q0 -33 -22 -57q-22 -23 -56 -23t-57 23q-22 24 -22 57z
" />
    <glyph glyph-name="N" unicode="N" horiz-adv-x="1617" 
d="M203 70v1290q-1 32 23 56t57 24h22q45 0 82 -47l870 -1110v1081q0 32 24 56q25 24 57 24t55 -24t22 -56v-1294q0 -33 -20 -55t-54 -21h-8q-41 0 -84 49l-889 1137v-1110q0 -33 -24 -57q-24 -23 -56 -23t-55 23q-22 24 -22 57z" />
    <glyph glyph-name="O" unicode="O" horiz-adv-x="1740" 
d="M872 125q244 0 403 170t159 418v4q0 248 -161 420t-405 172t-402 -170t-159 -418v-4q1 -248 161 -420t404 -172zM868 -25q-319 0 -524 216t-205 522v4q0 305 207 523t526 218q318 0 524 -216t206 -521v-4q0 -305 -208 -523t-526 -219z" />
    <glyph glyph-name="P" unicode="P" horiz-adv-x="1368" 
d="M365 653h354q178 0 286 87t107 229v4q0 151 -103 231t-282 80h-362v-631zM203 72v1280q-1 34 23 58t57 24h456q244 0 390 -122t147 -333v-4q0 -223 -161 -346t-402 -123h-348v-434q0 -35 -25 -59q-26 -23 -58 -23t-56 24q-23 25 -23 58z" />
    <glyph glyph-name="Q" unicode="Q" horiz-adv-x="1740" 
d="M952 482q0 34 24 59q52 54 118 -2l219 -201q121 160 121 375v4q0 248 -161 420t-405 172t-402 -170t-159 -418v-4q0 -248 161 -420t404 -172q190 0 332 106l-217 187q-35 30 -35 64zM868 -25q-319 0 -524 216t-205 522v4q0 305 207 523t526 218q318 0 524 -216t206 -521
v-4q0 -272 -170 -481l135 -113q33 -29 33 -65t-24 -60t-56 -23q-32 0 -62 27l-139 125q-195 -152 -451 -152z" />
    <glyph glyph-name="R" unicode="R" horiz-adv-x="1480" 
d="M365 702h440q164 0 266 80t103 215v4q0 133 -98 208t-269 75h-442v-582zM203 72v1280q-1 34 23 58t57 24h536q264 0 408 -144q111 -111 110 -282v-4q0 -170 -103 -276t-280 -140l357 -459q55 -64 1 -116q-26 -23 -63 -23t-69 43l-404 524h-411v-485q0 -35 -25 -59
q-26 -23 -58 -23t-56 24q-23 25 -23 58z" />
    <glyph glyph-name="S" unicode="S" horiz-adv-x="1310" 
d="M694 -20q-301 0 -542 192q-31 20 -31 57t22 61q23 24 55 24t50 -19q201 -170 452 -170q143 0 232 69q88 69 88 175v4q0 103 -78 165t-314 112t-348 144q-114 94 -114 265v4q0 171 133 281t338 110q260 0 457 -141q34 -27 34 -63t-22 -58t-52 -23q-30 0 -50 15
q-172 125 -371 125q-137 0 -221 -67t-84 -165v-4q0 -105 81 -167t317 -113t346 -147q112 -96 112 -257v-4q0 -182 -137 -294q-138 -111 -353 -111z" />
    <glyph glyph-name="T" unicode="T" horiz-adv-x="1327" 
d="M582 72v1212h-416q-32 0 -54 22t-22 52t23 54q23 22 53 22h995q31 0 53 -23t23 -53q0 -30 -23 -52t-53 -22h-416v-1212q-1 -35 -25 -59q-24 -23 -56 -23t-58 23q-24 24 -24 59z" />
    <glyph glyph-name="U" unicode="U" horiz-adv-x="1554" 
d="M777 -23q-273 0 -435 163t-162 460v762q0 34 24 58t58 24t56 -24q24 -24 24 -58v-752q0 -229 117 -356t321 -127t318 121q115 121 114 352v762q0 34 25 58t57 24t57 -25q24 -25 23 -57v-750q0 -307 -162 -471t-435 -164z" />
    <glyph glyph-name="V" unicode="V" horiz-adv-x="1523" 
d="M758 -16q-68 0 -94 67l-553 1276q-26 52 16 92q25 25 57 25q59 0 84 -62l496 -1187l498 1191q28 58 70 58t72 -30t11 -81l-555 -1282q-31 -68 -94 -67h-8z" />
    <glyph glyph-name="W" unicode="W" horiz-adv-x="2254" 
d="M109 1372q-1 22 25 48q26 24 59 24q61 0 83 -68l396 -1138l375 1142q20 63 79 64h11q59 0 80 -64l374 -1142l398 1142q20 63 77 64q33 0 58 -25q24 -25 24 -44t-10 -50l-459 -1274q-25 -70 -84 -69h-12q-59 0 -84 69l-373 1102l-370 -1102q-25 -70 -84 -69h-13
q-61 -1 -84 69l-458 1274q-8 25 -8 47z" />
    <glyph glyph-name="X" unicode="X" horiz-adv-x="1472" 
d="M135 66q0 31 23 57l479 608l-455 574q-51 67 -3 115q24 24 59 24t69 -41l432 -561l426 555q39 47 74 47t57 -22t21 -54q0 -32 -23 -57l-456 -578l473 -604q54 -62 3 -116q-24 -23 -59 -23t-69 41l-453 587l-446 -581q-39 -47 -74 -47t-57 22t-21 54z" />
    <glyph glyph-name="Y" unicode="Y" horiz-adv-x="1449" 
d="M643 72v491l-532 746q-42 67 6 111q25 24 63 24t74 -49l473 -682l477 682q35 49 72 49q36 0 60 -24t24 -52t-23 -63l-530 -738v-495q0 -35 -25 -59q-26 -23 -58 -23t-56 24t-25 58z" />
    <glyph glyph-name="Z" unicode="Z" horiz-adv-x="1419" 
d="M213 0q-31 0 -53 20t-23 50v4q0 37 29 71l899 1143h-832q-31 0 -53 22t-20 52q0 30 22 50q22 22 51 22h977q29 0 52 -22t22 -48v-4q0 -37 -29 -72l-899 -1143h865q31 1 53 -21t20 -52q0 -30 -22 -50q-22 -22 -51 -22h-1008z" />
    <glyph glyph-name="bracketleft" unicode="[" horiz-adv-x="899" 
d="M193 -186v1540q-1 32 23 56t56 24h455q25 0 43 -18t18 -44q0 -25 -18 -43t-43 -18h-385v-1454h385q25 -1 43 -19t18 -43t-18 -43t-43 -18h-455q-33 0 -56 24t-23 56z" />
    <glyph glyph-name="backslash" unicode="\" horiz-adv-x="1040" 
d="M1049 -214q1 -22 -19 -40t-53 -18t-53 41l-893 1777q-8 16 -8 39t18 41t52 18t54 -40l893 -1778q9 -18 9 -40z" />
    <glyph glyph-name="bracketright" unicode="]" horiz-adv-x="899" 
d="M709 1354v-1540q0 -33 -24 -57t-56 -23h-455q-27 0 -45 18t-18 43t18 43t45 19h385v1454h-385q-27 0 -45 18t-18 43t18 43t45 19h455q33 0 57 -24t23 -56z" />
    <glyph glyph-name="asciicircum" unicode="^" horiz-adv-x="1024" 
d="M162 1034q0 14 14 35l244 326q41 51 84 51h16q43 0 84 -51l242 -326q16 -18 16 -39q0 -29 -52 -29t-93 52l-207 272l-207 -272q-41 -51 -102 -52q-15 -1 -27 9t-12 24z" />
    <glyph glyph-name="underscore" unicode="_" horiz-adv-x="1228" 
d="M-4 -328q-27 0 -46 20t-20 46q0 27 20 45t46 18h1237q27 0 46 -18t19 -45t-19 -46t-46 -20h-1237z" />
    <glyph glyph-name="grave" unicode="`" horiz-adv-x="1024" 
d="M631 1239q0 -29 -48 -29t-87 39l-154 146q-29 29 -29 48t37 39t77 21q40 0 71 -47l123 -186q10 -14 10 -31z" />
    <glyph glyph-name="a" unicode="a" horiz-adv-x="1185" 
d="M256 313q0 -95 76 -153t207 -58q130 0 234 81q103 81 104 206v103q-155 45 -307 45q-152 1 -233 -59t-81 -161v-4zM492 -23q-160 1 -278 89t-118 241v4q0 164 123 253t309 89t346 -45v37q0 141 -81 215q-83 74 -229 74t-279 -60q-14 -6 -36 -6t-42 20q-21 20 -21 59
q0 38 43 54q166 72 346 72q225 0 339 -113t112 -313v-579q0 -33 -22 -56q-22 -22 -54 -22t-54 22t-22 51v97q-138 -183 -382 -183z" />
    <glyph glyph-name="b" unicode="b" 
d="M714 119q157 1 263 111t106 296v4q0 182 -108 296q-109 114 -263 114t-270 -116q-115 -116 -114 -292v-4q0 -178 114 -294q115 -115 272 -115zM176 70v1355q0 33 23 57t55 24t56 -24t24 -57v-579q160 236 405 235q203 1 355 -149t151 -400v-4q1 -248 -151 -400t-355 -151
q-250 0 -405 226v-133q0 -33 -23 -57q-23 -23 -55 -23t-56 24t-24 56z" />
    <glyph glyph-name="c" unicode="c" horiz-adv-x="1169" 
d="M653 -25q-229 0 -386 162t-156 387v4q0 227 156 391q157 163 382 163t393 -154q25 -20 25 -54t-23 -56q-22 -22 -52 -22t-52 19q-137 127 -293 127q-155 0 -265 -119t-110 -291v-4q0 -172 112 -292t274 -119q162 0 298 129q20 20 47 20t49 -22t22 -50t-21 -49
q-171 -170 -400 -170z" />
    <glyph glyph-name="d" unicode="d" 
d="M646 940q-157 0 -263 -111t-107 -297v-4q0 -182 110 -296t264 -114t268 116q115 116 114 294v4q0 176 -114 292q-115 116 -272 116zM1184 1425v-1355q0 -33 -23 -57q-23 -23 -55 -23t-56 24t-24 56v143q-160 -236 -405 -236q-203 0 -355 150t-151 399v4q0 248 151 400
q152 152 355 151q250 0 405 -225v569q0 35 23 58t57 23t56 -24t22 -57z" />
    <glyph glyph-name="e" unicode="e" horiz-adv-x="1212" 
d="M644 -25q-228 0 -381 155t-152 396v4q0 232 145 392t366 160t355 -158q133 -158 133 -379q0 -31 -22 -53t-52 -21h-766q16 -168 122 -263t264 -95q159 0 292 123q22 18 48 18t46 -20t20 -49q0 -30 -24 -50q-166 -160 -394 -160zM620 948q-144 0 -238 -102
q-96 -102 -112 -258h682q-12 156 -100 258t-232 102z" />
    <glyph glyph-name="f" unicode="f" horiz-adv-x="751" 
d="M236 70v850h-86q-29 0 -49 20q-19 20 -19 48t20 48t48 21h86v92q0 180 87 267t232 87q72 0 127 -12t55 -68q-1 -31 -23 -51t-70 -13t-69 7q-184 0 -184 -225v-86h275q29 1 49 -19t20 -49t-20 -48t-49 -19h-273v-850q-1 -33 -23 -57q-22 -23 -55 -23t-56 24t-23 56z" />
    <glyph glyph-name="g" unicode="g" 
d="M276 582q0 -156 108 -258t261 -103q155 -1 271 101t116 258v4q0 158 -116 258t-272 100t-261 -98q-106 -98 -107 -258v-4zM1184 184q0 -240 -138 -378t-390 -138q-251 0 -453 125q-41 21 -41 57t22 58q39 37 84 10q172 -115 362 -115q190 -1 294 97t104 280v125
q-168 -223 -416 -223q-201 0 -349 138t-148 358v4q0 223 149 361q150 138 348 138q254 0 414 -213v121q0 33 23 57t55 24t56 -24t24 -57v-805z" />
    <glyph glyph-name="h" unicode="h" horiz-adv-x="1261" 
d="M176 70v1355q0 33 23 57t55 24t56 -24t24 -57v-551q125 207 362 207q188 1 297 -115t109 -309v-587q0 -33 -23 -57q-23 -23 -55 -23t-56 24t-24 56v548q0 150 -77 235t-215 85t-228 -92t-90 -240v-536q0 -35 -23 -58q-23 -22 -57 -22t-56 24t-22 56z" />
    <glyph glyph-name="i" unicode="i" horiz-adv-x="538" 
d="M190 70v919q0 33 23 57t57 24t56 -24q23 -22 22 -57v-919q0 -35 -22 -58q-22 -22 -56 -22q-32 0 -56 24t-24 56zM176 1364v27q0 37 27 61t67 23q40 0 66 -24q27 -24 26 -60v-27q0 -36 -26 -60t-67 -24t-67 24t-26 60z" />
    <glyph glyph-name="j" unicode="j" horiz-adv-x="538" 
d="M190 989q0 33 23 57t57 24t56 -24q23 -22 22 -57v-1050q0 -135 -66 -204t-186 -69q-27 0 -37 2q-80 4 -79 68q0 27 19 46t46 19l35 -2q111 0 110 135v1055zM176 1364v27q0 37 27 61t67 23q40 0 66 -24q27 -24 26 -60v-27q0 -36 -26 -60t-67 -24t-67 24t-26 60z" />
    <glyph glyph-name="k" unicode="k" horiz-adv-x="1163" 
d="M176 70v1355q0 33 23 57t55 24t56 -24t24 -57v-970l573 583q27 31 60 31q33 1 53 -21t20 -53t-30 -61l-346 -340l378 -477q20 -27 20 -57t-21 -50t-57 -20t-64 37l-367 462l-219 -217v-202q0 -35 -23 -58q-23 -22 -57 -22t-56 24t-22 56z" />
    <glyph glyph-name="l" unicode="l" horiz-adv-x="538" 
d="M190 70v1355q0 33 23 57t55 24t57 -24q24 -24 23 -57v-1355q0 -35 -22 -58q-22 -22 -56 -22q-32 0 -56 24t-24 56z" />
    <glyph glyph-name="m" unicode="m" horiz-adv-x="1947" 
d="M176 70v919q0 33 23 57t55 24t56 -24q24 -22 24 -57v-108q133 201 342 200q238 0 340 -211q137 211 373 211q182 -1 287 -115t106 -311v-585q0 -33 -23 -57q-23 -23 -55 -23t-56 24t-24 56v548q0 154 -73 237t-199 83t-210 -88q-83 -88 -83 -240v-540q0 -33 -24 -57
q-25 -23 -57 -23t-54 24t-23 56v553q0 147 -73 231q-74 84 -200 84t-210 -94t-84 -240v-534q0 -35 -23 -58q-23 -22 -57 -22t-56 24t-22 56z" />
    <glyph glyph-name="n" unicode="n" horiz-adv-x="1261" 
d="M176 70v919q0 33 23 57t55 24t56 -24q24 -22 24 -57v-115q125 207 362 207q188 1 297 -115t109 -309v-587q0 -33 -23 -57q-23 -23 -55 -23t-56 24t-24 56v548q0 150 -77 235t-215 85t-228 -92t-90 -240v-536q0 -35 -23 -58q-23 -22 -57 -22t-56 24t-22 56z" />
    <glyph glyph-name="o" unicode="o" horiz-adv-x="1323" 
d="M272 528q0 -172 113 -292t281 -119q168 0 278 119t109 288v4q0 172 -114 293t-281 121q-166 0 -276 -120t-110 -290v-4zM659 -25q-237 0 -393 161t-155 388v4q0 227 158 391q159 163 395 163t394 -162q158 -160 156 -388v-4q0 -227 -160 -390t-395 -163z" />
    <glyph glyph-name="p" unicode="p" 
d="M714 119q157 1 263 111t106 296v4q0 182 -108 296q-109 114 -263 114t-270 -116q-115 -116 -114 -292v-4q0 -178 114 -294q115 -115 272 -115zM176 -258v1247q0 33 23 57t55 24t56 -24q24 -22 24 -57v-143q160 236 405 235q203 1 355 -149t151 -400v-4q1 -248 -151 -400
t-355 -151q-250 0 -405 226v-461q0 -36 -23 -58t-57 -22t-56 24t-22 56z" />
    <glyph glyph-name="q" unicode="q" 
d="M646 940q-157 0 -263 -111t-107 -297v-4q0 -182 110 -296t264 -114t268 116q115 116 114 294v4q0 176 -114 292q-115 116 -272 116zM1184 989v-1247q0 -32 -23 -56t-55 -24t-56 24t-24 56v471q-160 -236 -405 -236q-203 0 -355 150t-151 399v4q0 248 151 400
q152 152 355 151q250 0 405 -225v133q0 33 23 57t55 24t56 -24t24 -57z" />
    <glyph glyph-name="r" unicode="r" horiz-adv-x="829" 
d="M176 70v919q0 33 23 57t55 24t56 -24q24 -22 24 -57v-198q58 129 160 205t204 77q35 -1 57 -23q21 -22 21 -56t-19 -56t-50 -25q-165 -20 -269 -143t-104 -340v-360q0 -33 -23 -57q-23 -23 -57 -23t-56 24t-22 56z" />
    <glyph glyph-name="s" unicode="s" horiz-adv-x="1019" 
d="M526 -20q-221 0 -407 133q-29 20 -29 53t20 52q20 20 48 20q27 0 41 -13q166 -113 336 -112q96 0 157 46t62 122v4q0 73 -67 111t-173 68t-152 48q-47 18 -106 52q-117 67 -117 206v4q-1 135 101 219t267 84t331 -90q39 -23 39 -59q-1 -36 -21 -54q-20 -20 -44 -20t-40 8
q-144 82 -256 82t-168 -43t-57 -110v-5q0 -97 189 -154t256 -92q67 -34 97 -64q70 -69 70 -175v-4q-1 -147 -107 -232t-270 -85z" />
    <glyph glyph-name="t" unicode="t" horiz-adv-x="827" 
d="M530 -18q-137 0 -218 72t-81 227v639h-86q-27 0 -49 22t-20 48q0 28 20 48t49 21h86v250q0 33 23 57q24 24 56 23q32 0 56 -24t23 -56v-250h275q28 -1 50 -21t22 -49t-22 -49t-50 -20h-275v-619q0 -176 178 -176q33 0 64 6l33 8q29 0 48 -20t19 -56t-45 -53
q-70 -28 -156 -28z" />
    <glyph glyph-name="u" unicode="u" horiz-adv-x="1261" 
d="M1083 989v-919q-1 -33 -23 -57q-22 -23 -54 -23t-56 24q-23 24 -22 56v114q-129 -207 -363 -207q-188 0 -297 116t-108 308v588q0 35 22 58q23 23 56 23q32 0 56 -24t23 -57v-549q0 -150 77 -234t215 -85q138 0 229 92q90 92 90 240v536q0 35 22 58q23 23 56 23t55 -24
t22 -57z" />
    <glyph glyph-name="v" unicode="v" horiz-adv-x="1196" 
d="M594 -16q-59 0 -90 67l-398 897q-10 34 -10 54t24 44t56 23q57 0 80 -61l342 -828l348 832q18 57 74 57q34 -1 56 -23t22 -48t-8 -46l-400 -901q-31 -68 -88 -67h-8z" />
    <glyph glyph-name="w" unicode="w" horiz-adv-x="1757" 
d="M522 -16q-63 0 -88 71l-321 895q-11 30 -11 52t23 45t57 22q59 0 80 -65l266 -795l269 797q20 63 77 63h9q61 0 82 -63l266 -797l270 799q18 61 76 61q33 1 55 -21t23 -44q0 -22 -10 -52l-324 -897q-25 -72 -86 -71h-6q-63 0 -86 71l-264 772l-267 -772q-23 -72 -86 -71
h-4z" />
    <glyph glyph-name="x" unicode="x" horiz-adv-x="1169" 
d="M123 62q0 30 20 51l346 426l-325 399q-25 30 -25 60t22 50q23 20 57 21q34 0 65 -37l305 -387l303 385q33 39 65 39t54 -20q20 -19 20 -49t-20 -54l-330 -403l344 -422q23 -29 23 -60t-22 -51q-23 -20 -57 -20t-65 37l-321 407l-320 -405q-34 -39 -66 -39t-53 21
q-20 21 -20 51z" />
    <glyph glyph-name="y" unicode="y" horiz-adv-x="1202" 
d="M348 -334q-104 0 -192 31q-50 20 -50 58q0 37 20 57t42 20q20 0 60 -13t106 -13t114 43q48 44 93 145l8 16l-443 938q-10 24 -10 50t24 49t56 22q55 0 80 -61l369 -832l327 834q23 59 76 59q34 -1 56 -23t22 -46t-8 -48l-414 -987q-68 -163 -150 -231t-186 -68z" />
    <glyph glyph-name="z" unicode="z" horiz-adv-x="1138" 
d="M190 0q-32 0 -54 18t-21 45v5q0 37 32 71l670 787h-618q-29 0 -48 19t-19 47t20 47t47 20h755q33 -1 55 -19t21 -45v-4q0 -37 -33 -71l-669 -787h645q27 0 47 -19t20 -46q0 -28 -20 -48t-47 -20h-783z" />
    <glyph glyph-name="braceleft" unicode="{" horiz-adv-x="989" 
d="M885 -223q-1 -33 -21 -49t-49 -9q-239 49 -323 143t-84 263l2 156q0 123 -52 183t-182 62q-72 4 -72 62t72 61q131 3 182 63t52 183l-2 156q0 168 85 262t322 143q29 6 49 -9t20 -48t-36 -47q-186 -51 -238 -116t-53 -206l2 -153q0 -123 -54 -190t-159 -99
q109 -35 161 -101t52 -188l-2 -154q0 -141 52 -205t239 -116q37 -14 37 -47z" />
    <glyph glyph-name="bar" unicode="|" horiz-adv-x="620" 
d="M244 -205v1782q0 29 19 48t47 19t47 -20t20 -47v-1782q1 -27 -19 -47t-48 -20t-47 19t-19 48z" />
    <glyph glyph-name="braceright" unicode="}" horiz-adv-x="989" 
d="M104 1399q0 33 20 48t50 9q238 -49 323 -143t85 -262l-2 -156q0 -125 51 -184t182 -62q70 -4 70 -61t-70 -62q-131 -2 -182 -61t-51 -184l2 -156q0 -168 -85 -262t-323 -144q-29 -7 -49 9q-21 16 -21 49t37 47q184 51 238 116q53 65 53 205l-2 154q0 123 54 189t159 100
q-109 34 -161 100t-52 189l2 153q0 141 -53 206t-238 116q-37 14 -37 47z" />
    <glyph glyph-name="asciitilde" unicode="~" horiz-adv-x="970" 
d="M216 481q-26 -1 -42 13t-16 34t6 33q58 168 171 168q56 0 153 -42t130 -42q57 0 93 74q20 33 46 33t40 -14t14 -31q0 -18 -4 -35q-57 -168 -180 -168q-49 0 -145 42t-130 42q-59 0 -94 -74q-16 -33 -42 -33z" />
    <glyph glyph-name="uni00A0" unicode="&#xa0;" horiz-adv-x="614" 
 />
    <glyph glyph-name="exclamdown" unicode="&#xa1;" horiz-adv-x="555" 
d="M375 1305q0 -41 -28 -69q-27 -28 -69 -28t-70 28t-28 69v43q0 40 28 68t70 28t70 -28t27 -68v-43zM313 -6h-71q-27 0 -44 19t-16 46l47 930q4 47 50 47q17 0 31 -14t16 -33l47 -930q3 -29 -15 -47t-45 -18z" />
    <glyph glyph-name="cent" unicode="&#xa2;" horiz-adv-x="1189" 
d="M279 727q0 -129 63 -231t170 -150l152 793h-7q-159 0 -269 -119t-109 -289v-4zM119 723v4q0 227 157 390q158 163 386 163h26l23 123q12 53 65 53q31 0 50 -24t12 -58l-23 -114q121 -33 238 -136q27 -26 27 -58t-22 -54t-52 -21q-30 0 -52 21q-92 82 -174 108l-155 -803
q14 -2 43 -2q162 0 297 129q20 20 48 20t48 -20t20 -50t-22 -48q-168 -172 -400 -172q-37 0 -55 2l-29 -145q-12 -53 -63 -54q-31 1 -51 25t-12 57l28 146q-160 57 -259 198t-99 320z" />
    <glyph glyph-name="sterling" unicode="&#xa3;" horiz-adv-x="1318" 
d="M182 0q-53 0 -53 59q0 31 41 43l139 35v467h-108q-29 0 -51 20t-21 50q0 28 22 50t50 21h108v222q0 235 126 361t327 126q246 0 403 -180q25 -29 25 -61q0 -33 -23 -55t-57 -22t-59 27q-61 70 -128 106t-175 36t-189 -76q-88 -92 -88 -262v-222h510q29 1 51 -21t21 -50
q0 -28 -22 -49q-22 -20 -50 -21h-510v-461h664q29 1 51 -21t22 -52t-21 -50q-22 -20 -52 -20h-953z" />
    <glyph glyph-name="yen" unicode="&#xa5;" horiz-adv-x="1404" 
d="M780 545v-180h367q25 -1 44 -19t19 -45t-19 -45t-44 -18h-367v-168q0 -33 -22 -57q-22 -23 -56 -23t-56 24t-21 56v168h-367q-25 0 -44 18t-19 45t19 45t44 19h367v180h-367q-25 0 -44 18t-19 45t19 45t44 19h315l-448 637q-40 68 5 111q24 24 64 24t68 -49l443 -660
l444 662q33 47 70 47t59 -22q42 -41 2 -113l-453 -637h320q25 0 44 -18t19 -46q0 -27 -19 -45t-44 -18h-367z" />
    <glyph glyph-name="section" unicode="&#xa7;" horiz-adv-x="1294" 
d="M279 750q-1 -110 275 -176q146 -36 242 -35q95 0 157 42t63 99v4q0 107 -277 175q-147 36 -241 36t-156 -42t-63 -99v-4zM672 -20q-250 0 -434 159q-25 19 -25 53t21 54q22 20 50 20t52 -20q147 -131 340 -131q102 0 157 38q54 38 54 97v4q0 57 -75 101q-76 44 -284 93
t-305 115q-96 66 -96 170v4q0 93 74 153t196 81q-152 78 -151 207v4q0 124 102 198t275 74q250 0 434 -160q25 -20 25 -53t-22 -53q-48 -45 -102 0q-147 131 -340 131q-102 0 -156 -37t-54 -98v-4q0 -57 72 -101q73 -43 285 -93t307 -115t95 -171v-4q1 -90 -73 -151
t-197 -82q152 -74 152 -207v-4q-1 -124 -103 -198t-274 -74z" />
    <glyph glyph-name="dieresis" unicode="&#xa8;" horiz-adv-x="1024" 
d="M330 1423q40 -1 68 -27t28 -65v-31q0 -40 -28 -66t-68 -26t-69 27q-28 27 -28 65v31q0 39 28 65t69 27zM694 1423q41 -1 69 -27t28 -65v-31q0 -40 -28 -66t-69 -26q-40 0 -68 27t-28 65v31q0 39 28 65t68 27z" />
    <glyph glyph-name="copyright" unicode="&#xa9;" horiz-adv-x="1699" 
d="M853 334q-157 0 -267 115t-109 276v4q0 162 111 277q112 114 268 114t270 -96q25 -20 25 -45t-17 -41q-18 -16 -36 -16t-43 16q-94 80 -202 80q-109 0 -185 -84t-76 -203v-4q0 -119 79 -204t189 -85t207 84q16 12 37 12t36 -14q15 -16 15 -39t-18 -37
q-127 -110 -284 -110zM176 713q0 -281 194 -477t479 -197q287 0 481 199t194 479v4q0 281 -194 477t-480 197q-286 0 -480 -199t-194 -479v-4zM848 -25q-309 0 -524 216t-215 522v4q0 305 217 523t526 218t524 -216t215 -521v-4q0 -305 -217 -523t-526 -219z" />
    <glyph glyph-name="ordfeminine" unicode="&#xaa;" horiz-adv-x="798" 
d="M158 592q-18 0 -33 13q-14 13 -14 33t14 36q14 14 33 14h454q18 0 32 -14t15 -34q0 -20 -14 -34t-33 -14h-454zM231 1024q0 -46 38 -74q39 -28 103 -28t116 40t53 103v49q-76 23 -152 23t-117 -30t-41 -79v-4zM344 836q-88 0 -154 49t-65 135v4q0 90 70 140t167 50
t179 -22v10q0 70 -42 108q-41 38 -109 38t-115 -18t-63 -19q-16 0 -29 12t-13 37t31 39q91 41 201 41t180 -66q59 -59 59 -172v-315q0 -21 -15 -35q-16 -14 -36 -14t-35 13q-14 13 -14 34v41q-74 -90 -197 -90z" />
    <glyph glyph-name="guillemotleft" unicode="&#xab;" horiz-adv-x="1126" 
d="M532 152q0 -26 -20 -46t-50 -20t-54 33l-273 354q-25 31 -25 57t25 56l271 352q24 33 56 33q32 1 51 -19t19 -45t-18 -51l-242 -324l244 -331q16 -23 16 -49zM987 152q0 -26 -19 -46t-50 -20t-54 33l-274 354q-25 31 -25 57t25 56l272 352q23 33 56 33q33 -1 51 -19
t18 -44t-18 -52l-242 -324l244 -331q16 -23 16 -49z" />
    <glyph glyph-name="registered" unicode="&#xae;" horiz-adv-x="825" 
d="M344 1104h88q74 0 74 59t-74 60h-88v-119zM274 950v299q0 15 10 25t25 10h129q60 0 100 -30t40 -85q0 -82 -80 -112l69 -82q24 -28 1 -51q-9 -10 -25 -10t-31 18l-94 115h-74v-97q0 -14 -10 -25t-25 -12q-35 0 -35 37zM414 776q133 0 224 94t91 226v2q0 131 -91 224
t-224 93q-132 0 -224 -94t-92 -225v-2q0 -131 91 -225q92 -93 225 -93zM770 1096q0 -147 -104 -253t-254 -106q-148 1 -251 105t-104 252v2q1 146 105 252t253 106t252 -104t103 -252v-2z" />
    <glyph glyph-name="macron" unicode="&#xaf;" horiz-adv-x="1024" 
d="M782 1260h-540q-27 0 -46 19t-20 46q0 27 20 46t46 20h540q27 1 46 -19q20 -20 20 -47t-20 -46t-46 -19z" />
    <glyph glyph-name="degree" unicode="&#xb0;" horiz-adv-x="937" 
d="M469 926q86 0 144 61t59 143v5q0 82 -58 143t-145 61q-86 0 -144 -61t-59 -143v-5q0 -82 58 -143t145 -61zM469 819q-127 0 -224 94t-98 217v5q-1 125 97 218t225 93t224 -93t98 -218v-5q1 -123 -97 -217t-225 -94z" />
    <glyph glyph-name="plusminus" unicode="&#xb1;" horiz-adv-x="1280" 
d="M219 0q-29 0 -51 22t-21 50q0 28 22 49q22 20 50 20h844q29 0 49 -20t20 -49q0 -28 -20 -50t-49 -22h-844zM565 410v335h-346q-29 0 -51 22q-22 23 -21 51q0 28 22 50t50 21h346v336q0 31 22 53q21 22 53 22t54 -22t21 -53v-336h346q29 0 51 -22q22 -23 21 -51
q0 -28 -22 -50t-50 -21h-346v-335q0 -31 -22 -54q-21 -22 -53 -22t-54 22t-21 54z" />
    <glyph glyph-name="acute" unicode="&#xb4;" horiz-adv-x="1024" 
d="M441 1210q-48 0 -48 29q0 16 10 31l123 186q31 47 71 47t77 -20q37 -19 37 -39t-29 -49l-154 -146q-39 -39 -87 -39z" />
    <glyph glyph-name="paragraph" unicode="&#xb6;" horiz-adv-x="1044" 
d="M692 72v469h-22q-252 -1 -412 117t-160 327v4q0 205 150 325t391 120h135q34 0 58 -25t24 -57v-1280q0 -35 -24 -59q-24 -23 -57 -23q-35 0 -59 24t-24 58z" />
    <glyph glyph-name="periodcentered" unicode="&#xb7;" horiz-adv-x="501" 
d="M154 637q0 41 28 69q29 28 70 28t69 -28t27 -69v-41q0 -41 -28 -69q-28 -27 -68 -27q-41 0 -70 28t-28 68v41z" />
    <glyph glyph-name="cedilla" unicode="&#xb8;" horiz-adv-x="1024" 
d="M428 -305q-34 -1 -69 21q-33 22 -33 40t12 41l154 223h124l-129 -278q-25 -47 -59 -47z" />
    <glyph glyph-name="ordmasculine" unicode="&#xba;" horiz-adv-x="798" 
d="M401 932q82 0 136 59q53 59 53 144v4q0 86 -55 146q-55 61 -137 61t-136 -60q-53 -60 -53 -143v-4q0 -87 55 -147t137 -60zM143 592q-20 0 -34 13q-15 13 -15 33t14 36q14 14 35 14h512q21 0 35 -14t14 -34t-14 -34t-35 -14h-512zM398 834q-128 0 -214 88t-86 213v4
q0 127 87 216t215 89t214 -88t86 -213v-4q0 -127 -87 -216t-215 -89z" />
    <glyph glyph-name="guillemotright" unicode="&#xbb;" horiz-adv-x="1126" 
d="M210 971q32 0 52 -31l275 -356q25 -31 25 -56t-25 -55l-271 -352q-28 -35 -58 -35t-49 19t-19 47t18 49l241 325l-243 332q-36 58 2 94q20 18 52 19zM594 906q0 26 20 46t50 19q31 0 55 -31l274 -356q23 -33 23 -56t-23 -55l-272 -352q-25 -35 -55 -35t-52 20
q-20 20 -20 46t18 49l244 325l-244 332q-18 22 -18 48z" />
    <glyph glyph-name="questiondown" unicode="&#xbf;" horiz-adv-x="1099" 
d="M694 1305q0 -41 -28 -69t-69 -28q-42 0 -70 28t-27 69v43q0 40 28 68t69 28q42 0 70 -28t27 -68v-43zM598 1038q20 0 36 -15t19 -40l21 -229q8 -61 -60 -72q-166 -12 -259 -85t-93 -200v-4q0 -113 82 -189t217 -77q188 0 338 160q56 48 106 2q21 -20 21 -52t-22 -55
q-184 -201 -447 -200q-207 0 -333 114t-126 291v4q0 181 119 285t307 131l15 176q4 55 53 55h6z" />
    <glyph glyph-name="Agrave" unicode="&#xc0;" horiz-adv-x="1605" 
d="M844 1602q0 -29 -48 -29t-87 39l-154 145q-29 29 -29 48t37 39q96 53 148 -25l123 -187q10 -14 10 -30zM469 526h659l-329 734zM178 -10q-30 0 -52 21t-22 48t11 47l581 1272q33 72 103 72h8q72 0 100 -72l582 -1269q10 -25 10 -49q-1 -24 -23 -48q-22 -23 -55 -22
q-53 0 -80 59l-149 330h-786l-150 -334q-23 -55 -78 -55z" />
    <glyph glyph-name="Aacute" unicode="&#xc1;" horiz-adv-x="1605" 
d="M806 1573q-48 0 -48 29q0 16 10 30l123 187q31 47 71 47t76 -20t37 -40q0 -20 -28 -49l-154 -145q-39 -39 -87 -39zM469 526h659l-329 734zM178 -10q-30 0 -52 21t-22 48t11 47l581 1272q33 72 103 72h8q72 0 100 -72l582 -1269q10 -25 10 -49q-1 -24 -23 -48
q-22 -23 -55 -22q-53 0 -80 59l-149 330h-786l-150 -334q-23 -55 -78 -55z" />
    <glyph glyph-name="Acircumflex" unicode="&#xc2;" horiz-adv-x="1605" 
d="M590 1573q-47 0 -47 29q0 10 14 34l143 176q39 45 82 46h37q43 0 82 -46l143 -176q14 -25 15 -34q0 -29 -49 -29t-90 39l-121 106l-121 -106q-41 -39 -88 -39zM469 526h659l-329 734zM178 -10q-30 0 -52 21t-22 48t11 47l581 1272q33 72 103 72h8q72 0 100 -72l582 -1269
q10 -25 10 -49q-1 -24 -23 -48q-22 -23 -55 -22q-53 0 -80 59l-149 330h-786l-150 -334q-23 -55 -78 -55z" />
    <glyph glyph-name="Atilde" unicode="&#xc3;" horiz-adv-x="1605" 
d="M675 1663q-35 -1 -55 -17t-37 -53t-44 -37t-42 14t-15 30q0 14 5 38q59 166 173 166q58 0 153 -41q96 -41 130 -41t54 16q19 16 37 54q18 37 45 37t42 -14q15 -13 15 -25t-6 -43q-30 -88 -72 -127t-100 -39t-153 41q-96 41 -130 41zM469 526h659l-329 734zM178 -10
q-30 0 -52 21t-22 48t11 47l581 1272q33 72 103 72h8q72 0 100 -72l582 -1269q10 -25 10 -49q-1 -24 -23 -48q-22 -23 -55 -22q-53 0 -80 59l-149 330h-786l-150 -334q-23 -55 -78 -55z" />
    <glyph glyph-name="Adieresis" unicode="&#xc4;" horiz-adv-x="1605" 
d="M618 1786q41 0 69 -27t28 -65v-31q0 -39 -28 -66t-69 -27q-40 0 -68 28q-28 26 -28 65v31q0 40 28 66t68 26zM983 1786q41 0 69 -27t27 -65v-31q1 -39 -27 -66t-69 -27t-69 28q-28 26 -27 65v31q-1 40 27 66t69 26zM469 526h659l-329 734zM178 -10q-30 0 -52 21t-22 48
t11 47l581 1272q33 72 103 72h8q72 0 100 -72l582 -1269q10 -25 10 -49q-1 -24 -23 -48q-22 -23 -55 -22q-53 0 -80 59l-149 330h-786l-150 -334q-23 -55 -78 -55z" />
    <glyph glyph-name="Aring" unicode="&#xc5;" horiz-adv-x="1617" 
d="M475 526h660l-328 734zM809 1444q51 0 89 37t38 88v4q0 51 -38 88t-89 37t-89 -37t-38 -88v-4q0 -51 38 -88t89 -37zM1505 62q1 -22 -23 -48q-24 -24 -65 -24t-69 59l-148 330h-788l-150 -334q-23 -55 -76 -55q-32 0 -54 22t-22 44q0 20 9 44l590 1293q-51 25 -82 73
t-31 103v4q0 82 63 142q63 61 149 61t150 -60q63 -60 64 -143v-4q0 -55 -31 -103t-82 -73l590 -1291q6 -18 6 -40z" />
    <glyph glyph-name="AE" unicode="&#xc6;" horiz-adv-x="2140" 
d="M1006 526v764h-48l-452 -764h500zM70 50q0 20 14 54l762 1276q33 53 90 54h1006q30 0 52 -22t22 -52t-22 -52t-52 -22h-773v-489h680q31 0 53 -23q22 -22 22 -52t-22 -52t-53 -21h-680v-502h783q30 1 52 -21t22 -52t-22 -52t-52 -22h-865q-35 0 -59 25t-22 57v297h-586
l-207 -346q-19 -43 -59 -43t-62 20t-22 40z" />
    <glyph glyph-name="Ccedilla" unicode="&#xc7;" horiz-adv-x="1511" 
d="M722 -305q-34 -1 -68 21t-34 40t13 41l127 185q-272 35 -447 240q-174 206 -174 491v4q0 309 207 525t518 216q162 0 282 -47t230 -139q33 -29 33 -64q0 -34 -25 -58q-26 -24 -54 -24t-56 19q-184 164 -417 164t-391 -170t-159 -418v-4q0 -250 160 -421
q159 -171 395 -171t426 174q22 23 52 23t54 -24t24 -56t-27 -56q-221 -201 -500 -211l-109 -233q-26 -47 -60 -47z" />
    <glyph glyph-name="Egrave" unicode="&#xc8;" horiz-adv-x="1372" 
d="M766 1581q0 -29 -48 -29t-87 39l-154 146q-29 29 -29 48t37 40q37 20 77 20t71 -47l123 -186q10 -14 10 -31zM283 0q-33 0 -57 25t-23 57v1270q-1 34 23 58t57 24h891q30 0 52 -22t22 -52t-22 -52t-52 -22h-809v-489h716q31 0 53 -23q22 -22 22 -52t-22 -52t-53 -21h-716
v-502h819q30 1 52 -21t22 -52t-22 -52t-52 -22h-901z" />
    <glyph glyph-name="Eacute" unicode="&#xc9;" horiz-adv-x="1372" 
d="M283 0q-33 0 -57 25t-23 57v1270q-1 34 23 58t57 24h891q30 0 52 -22t22 -52t-22 -52t-52 -22h-809v-489h716q31 0 53 -23q22 -22 22 -52t-22 -52t-53 -21h-716v-502h819q30 1 52 -21t22 -52t-22 -52t-52 -22h-901zM728 1552q-48 0 -48 29q0 16 10 31l123 186
q31 47 71 47t77 -20q37 -19 37 -39t-29 -49l-154 -146q-39 -39 -87 -39z" />
    <glyph glyph-name="Ecircumflex" unicode="&#xca;" horiz-adv-x="1372" 
d="M283 0q-33 0 -57 25t-23 57v1270q-1 34 23 58t57 24h891q30 0 52 -22t22 -52t-22 -52t-52 -22h-809v-489h716q31 0 53 -23q22 -22 22 -52t-22 -52t-53 -21h-716v-502h819q30 1 52 -21t22 -52t-22 -52t-52 -22h-901zM512 1552q-47 0 -47 29q0 10 14 35l144 176
q39 45 82 45h36q43 0 82 -45l144 -176q14 -25 14 -35q0 -29 -49 -29t-90 39l-121 107l-121 -107q-41 -39 -88 -39z" />
    <glyph glyph-name="Edieresis" unicode="&#xcb;" horiz-adv-x="1372" 
d="M283 0q-33 0 -57 25t-23 57v1270q-1 34 23 58t57 24h891q30 0 52 -22t22 -52t-22 -52t-52 -22h-809v-489h716q31 0 53 -23q22 -22 22 -52t-22 -52t-53 -21h-716v-502h819q30 1 52 -21t22 -52t-22 -52t-52 -22h-901zM541 1765q41 -1 69 -27t27 -65v-31q0 -40 -28 -66
q-29 -26 -69 -26t-68 27t-28 65v31q0 39 28 65t69 27zM905 1765q41 -1 69 -27t27 -65v-31q1 -40 -27 -66t-69 -26t-69 27t-27 65v31q-1 39 27 65t69 27z" />
    <glyph glyph-name="Igrave" unicode="&#xcc;" horiz-adv-x="595" 
d="M342 1581q0 -29 -48 -29t-87 39l-154 146q-29 29 -29 48t37 40q37 20 77 20t71 -47l123 -186q10 -14 10 -31zM217 72v1290q0 34 24 58q23 24 57 24t58 -24t23 -58v-1290q0 -35 -24 -59q-23 -23 -57 -23t-58 24t-23 58z" />
    <glyph glyph-name="Iacute" unicode="&#xcd;" horiz-adv-x="595" 
d="M304 1552q-48 0 -48 29q0 16 10 31l123 186q31 47 71 47t77 -20q37 -19 37 -39t-29 -49l-154 -146q-39 -39 -87 -39zM217 72v1290q0 34 24 58q23 24 57 24t58 -24t23 -58v-1290q0 -35 -24 -59q-23 -23 -57 -23t-58 24t-23 58z" />
    <glyph glyph-name="Icircumflex" unicode="&#xce;" horiz-adv-x="595" 
d="M88 1552q-47 0 -47 29q0 10 14 35l144 176q39 45 82 45h36q43 0 82 -45l144 -176q14 -25 14 -35q0 -29 -49 -29t-90 39l-121 107l-121 -107q-41 -39 -88 -39zM217 72v1290q0 34 24 58q23 24 57 24t58 -24t23 -58v-1290q0 -35 -24 -59q-23 -23 -57 -23t-58 24t-23 58z" />
    <glyph glyph-name="Idieresis" unicode="&#xcf;" horiz-adv-x="595" 
d="M117 1765q41 -1 69 -27t27 -65v-31q0 -40 -28 -66q-29 -26 -69 -26t-68 27t-28 65v31q0 39 28 65t69 27zM481 1765q41 -1 69 -27t28 -65v-31q0 -40 -28 -66t-69 -26t-69 27t-27 65v31q-1 39 27 65t69 27zM217 72v1290q0 34 24 58q23 24 57 24t58 -24t23 -58v-1290
q0 -35 -24 -59q-23 -23 -57 -23t-58 24t-23 58z" />
    <glyph glyph-name="Eth" unicode="&#xd0;" horiz-adv-x="1662" 
d="M426 1284v-489h367q29 0 51 -22q22 -23 22 -53t-22 -52t-51 -21h-367v-497h336q266 0 430 160t164 403v4q0 243 -164 405t-430 162h-336zM174 795h90v557q0 34 24 58t56 24h418q334 0 548 -204t214 -509v-4q0 -307 -214 -512t-548 -205h-418q-32 0 -56 25t-24 57v565h-90
q-30 0 -52 22q-22 23 -22 53t22 52t52 21z" />
    <glyph glyph-name="Ntilde" unicode="&#xd1;" horiz-adv-x="1617" 
d="M544 1536q-26 0 -41 14t-15 28t18 72q19 56 60 95q42 39 100 39t153 -41q96 -41 130 -41t55 16q20 16 38 56q18 34 44 34t42 -14q14 -14 14 -26t-5 -42q-59 -166 -173 -166q-58 0 -153 42q-96 40 -130 40q-35 0 -55 -16t-38 -53t-44 -37zM203 70v1290q-1 32 23 56t57 24
h22q45 0 82 -47l870 -1110v1081q0 32 24 56q25 24 57 24t55 -24t22 -56v-1294q0 -33 -20 -55t-54 -21h-8q-41 0 -84 49l-889 1137v-1110q0 -33 -24 -57q-24 -23 -56 -23t-55 23q-22 24 -22 57z" />
    <glyph glyph-name="Ograve" unicode="&#xd2;" horiz-adv-x="1740" 
d="M913 1602q0 -29 -48 -29t-87 39l-153 145q-29 29 -29 48t37 39q97 54 147 -25l123 -187q10 -14 10 -30zM872 125q244 0 403 170t159 418v4q0 248 -161 420t-405 172t-402 -170t-159 -418v-4q1 -248 161 -420t404 -172zM868 -25q-319 0 -524 216t-205 522v4q0 305 207 523
t526 218q318 0 524 -216t206 -521v-4q0 -305 -208 -523t-526 -219z" />
    <glyph glyph-name="Oacute" unicode="&#xd3;" horiz-adv-x="1740" 
d="M872 125q244 0 403 170t159 418v4q0 248 -161 420t-405 172t-402 -170t-159 -418v-4q1 -248 161 -420t404 -172zM868 -25q-319 0 -524 216t-205 522v4q0 305 207 523t526 218q318 0 524 -216t206 -521v-4q0 -305 -208 -523t-526 -219zM873 1573q-48 0 -48 29q0 16 11 30
l122 187q31 47 71 47t77 -20t37 -40t-29 -49l-153 -145q-40 -39 -88 -39z" />
    <glyph glyph-name="Ocircumflex" unicode="&#xd4;" horiz-adv-x="1740" 
d="M872 125q244 0 403 170t159 418v4q0 248 -161 420t-405 172t-402 -170t-159 -418v-4q1 -248 161 -420t404 -172zM868 -25q-319 0 -524 216t-205 522v4q0 305 207 523t526 218q318 0 524 -216t206 -521v-4q0 -305 -208 -523t-526 -219zM660 1573q-48 0 -48 29q0 10 15 34
l143 176q39 45 82 46h37q43 0 82 -46l143 -176q14 -25 14 -34q0 -29 -48 -29t-91 39l-121 106l-120 -106q-40 -39 -88 -39z" />
    <glyph glyph-name="Otilde" unicode="&#xd5;" horiz-adv-x="1740" 
d="M1026 1581q-58 0 -154 41t-130 41q-34 -1 -54 -17t-39 -53q-18 -37 -44 -37t-41 14t-15 30q0 14 6 38q58 166 172 166q57 0 153 -41t131 -41q34 0 54 16q21 16 39 54q18 37 44 37t41 -14q15 -13 15 -25t-6 -43q-58 -166 -172 -166zM872 125q244 0 403 170t159 418v4
q0 248 -161 420t-405 172t-402 -170t-159 -418v-4q1 -248 161 -420t404 -172zM868 -25q-319 0 -524 216t-205 522v4q0 305 207 523t526 218q318 0 524 -216t206 -521v-4q0 -305 -208 -523t-526 -219z" />
    <glyph glyph-name="Odieresis" unicode="&#xd6;" horiz-adv-x="1740" 
d="M872 125q244 0 403 170t159 418v4q0 248 -161 420t-405 172t-402 -170t-159 -418v-4q1 -248 161 -420t404 -172zM868 -25q-319 0 -524 216t-205 522v4q0 305 207 523t526 218q318 0 524 -216t206 -521v-4q0 -305 -208 -523t-526 -219zM688 1786q41 0 69 -27t27 -65v-31
q0 -39 -28 -66t-68 -27t-68 28q-28 26 -28 65v31q0 40 28 66t68 26zM1053 1786q41 0 69 -27t27 -65v-31q0 -39 -28 -66q-29 -27 -69 -27t-68 28q-28 26 -28 65v31q0 40 28 66t69 26z" />
    <glyph glyph-name="multiply" unicode="&#xd7;" horiz-adv-x="1280" 
d="M1080 1088q0 -28 -25 -54l-316 -311l316 -309q25 -25 25 -57q0 -31 -22 -53t-54 -22t-56 25l-309 316l-311 -318q-27 -23 -56 -23q-28 0 -50 22t-22 50t25 54l316 311l-316 309q-25 24 -25 56t23 54t53 22t56 -25l311 -316l311 318q23 23 53 23q29 0 51 -22t22 -50z" />
    <glyph glyph-name="Oslash" unicode="&#xd8;" horiz-adv-x="1740" 
d="M872 123q242 0 402 171t160 419v4q0 217 -125 377l-793 -844q149 -127 356 -127zM307 717q0 -217 125 -377l793 842q-156 129 -357 129q-242 0 -402 -171t-159 -419v-4zM868 -25q-264 0 -458 156l-123 -127q-25 -24 -51 -24t-45 17q-17 17 -17 44t21 47l122 131
q-178 203 -178 494v4q0 305 207 523t526 218q264 0 459 -158l123 130q26 24 52 24t43 -17t17 -44t-20 -47l-125 -134q180 -207 181 -491v-4q0 -305 -208 -523t-526 -219z" />
    <glyph glyph-name="Ugrave" unicode="&#xd9;" horiz-adv-x="1554" 
d="M819 1581q0 -29 -48 -29t-87 39l-154 146q-28 29 -28 48t37 39t77 21q40 0 70 -47l123 -186q10 -14 10 -31zM777 -23q-273 0 -435 163t-162 460v762q0 34 24 58t58 24t56 -24q24 -24 24 -58v-752q0 -229 117 -356t321 -127t318 121q115 121 114 352v762q0 34 25 58t57 24
t57 -25q24 -25 23 -57v-750q0 -307 -162 -471t-435 -164z" />
    <glyph glyph-name="Uacute" unicode="&#xda;" horiz-adv-x="1554" 
d="M777 -23q-273 0 -435 163t-162 460v762q0 34 24 58t58 24t56 -24q24 -24 24 -58v-752q0 -229 117 -356t321 -127t318 121q115 121 114 352v762q0 34 25 58t57 24t57 -25q24 -25 23 -57v-750q0 -307 -162 -471t-435 -164zM781 1552q-48 0 -48 29q0 16 10 31l123 186
q31 47 71 47t77 -20q37 -19 37 -39t-29 -49l-154 -146q-39 -39 -87 -39z" />
    <glyph glyph-name="Ucircumflex" unicode="&#xdb;" horiz-adv-x="1554" 
d="M777 -23q-273 0 -435 163t-162 460v762q0 34 24 58t58 24t56 -24q24 -24 24 -58v-752q0 -229 117 -356t321 -127t318 121q115 121 114 352v762q0 34 25 58t57 24t57 -25q24 -25 23 -57v-750q0 -307 -162 -471t-435 -164zM565 1552q-47 0 -47 29q0 10 14 35l144 176
q39 45 82 45h37q43 0 82 -45l143 -176q14 -25 14 -35q0 -29 -49 -29t-90 39l-121 107l-121 -107q-41 -39 -88 -39z" />
    <glyph glyph-name="Udieresis" unicode="&#xdc;" horiz-adv-x="1554" 
d="M777 -23q-273 0 -435 163t-162 460v762q0 34 24 58t58 24t56 -24q24 -24 24 -58v-752q0 -229 117 -356t321 -127t318 121q115 121 114 352v762q0 34 25 58t57 24t57 -25q24 -25 23 -57v-750q0 -307 -162 -471t-435 -164zM594 1765q41 -1 69 -27t27 -65v-31q0 -40 -28 -66
t-68 -26q-41 0 -69 27t-27 65v31q0 39 27 66q28 26 69 26zM958 1765q41 -1 69 -27t28 -65v-31q0 -40 -28 -66t-69 -26q-40 0 -68 27t-28 65v31q0 39 28 65t68 27z" />
    <glyph glyph-name="Yacute" unicode="&#xdd;" horiz-adv-x="1449" 
d="M730 1552q-48 0 -48 29q0 16 10 31l123 186q31 47 71 47t77 -20q37 -19 37 -39t-29 -49l-154 -146q-39 -39 -87 -39zM643 72v491l-532 746q-42 67 6 111q25 24 63 24t74 -49l473 -682l477 682q35 49 72 49q36 0 60 -24t24 -52t-23 -63l-530 -738v-495q0 -35 -25 -59
q-26 -23 -58 -23t-56 24t-25 58z" />
    <glyph glyph-name="Thorn" unicode="&#xde;" horiz-adv-x="1378" 
d="M365 406h354q178 0 286 88t107 229v4q0 151 -103 231t-282 80h-362v-632zM203 72v1290q-1 34 23 58t57 24t57 -24t25 -58v-174h374q244 0 390 -123t147 -332v-4q0 -223 -161 -347t-402 -124h-348v-186q0 -35 -25 -59q-26 -23 -58 -23t-56 24q-23 25 -23 58z" />
    <glyph glyph-name="germandbls" unicode="&#xdf;" horiz-adv-x="1269" 
d="M588 60q0 28 17 46t44 23q156 12 248 78t92 186v4q0 113 -92 181t-244 92q-65 14 -65 66t47 75q266 109 266 315v4q0 106 -75 174q-74 68 -200 66q-126 0 -209 -93t-83 -249v-960q0 -33 -24 -56q-24 -22 -56 -22t-56 22q-22 22 -22 56v958q0 217 126 350t328 133
t317 -105q116 -105 116 -263v-4q0 -135 -81 -229t-204 -146q162 -37 268 -127t105 -238v-4q0 -185 -139 -289t-355 -108q-31 0 -50 18t-19 46z" />
    <glyph glyph-name="agrave" unicode="&#xe0;" horiz-adv-x="1185" 
d="M637 1239q0 -29 -48 -29t-87 39l-154 146q-29 29 -29 48t37 39t77 21q40 0 71 -47l123 -186q10 -14 10 -31zM256 313q0 -95 76 -153t207 -58q130 0 234 81q103 81 104 206v103q-155 45 -307 45q-152 1 -233 -59t-81 -161v-4zM492 -23q-160 1 -278 89t-118 241v4
q0 164 123 253t309 89t346 -45v37q0 141 -81 215q-83 74 -229 74t-279 -60q-14 -6 -36 -6t-42 20q-21 20 -21 59q0 38 43 54q166 72 346 72q225 0 339 -113t112 -313v-579q0 -33 -22 -56q-22 -22 -54 -22t-54 22t-22 51v97q-138 -183 -382 -183z" />
    <glyph glyph-name="aacute" unicode="&#xe1;" horiz-adv-x="1185" 
d="M597 1210q-48 0 -48 29q0 16 10 31l123 186q31 47 71 47q41 0 77 -20q36 -19 36 -39t-28 -49l-154 -146q-39 -39 -87 -39zM256 313q0 -95 76 -153t207 -58q130 0 234 81q103 81 104 206v103q-155 45 -307 45q-152 1 -233 -59t-81 -161v-4zM492 -23q-160 1 -278 89
t-118 241v4q0 164 123 253t309 89t346 -45v37q0 141 -81 215q-83 74 -229 74t-279 -60q-14 -6 -36 -6t-42 20q-21 20 -21 59q0 38 43 54q166 72 346 72q225 0 339 -113t112 -313v-579q0 -33 -22 -56q-22 -22 -54 -22t-54 22t-22 51v97q-138 -183 -382 -183z" />
    <glyph glyph-name="acircumflex" unicode="&#xe2;" horiz-adv-x="1185" 
d="M381 1210q-47 0 -47 29q0 10 14 35l144 176q39 45 81 45h37q43 0 82 -45l144 -176q14 -25 14 -35q0 -29 -49 -29t-90 39l-121 107l-121 -107q-41 -39 -88 -39zM256 313q0 -95 76 -153t207 -58q130 0 234 81q103 81 104 206v103q-155 45 -307 45q-152 1 -233 -59t-81 -161
v-4zM492 -23q-160 1 -278 89t-118 241v4q0 164 123 253t309 89t346 -45v37q0 141 -81 215q-83 74 -229 74t-279 -60q-14 -6 -36 -6t-42 20q-21 20 -21 59q0 38 43 54q166 72 346 72q225 0 339 -113t112 -313v-579q0 -33 -22 -56q-22 -22 -54 -22t-54 22t-22 51v97
q-138 -183 -382 -183z" />
    <glyph glyph-name="atilde" unicode="&#xe3;" horiz-adv-x="1185" 
d="M330 1194q-27 0 -42 14q-16 14 -16 28t19 72q19 56 60 95t99 39t154 -41t130 -41t54 16t38 54t44 36q27 0 42 -14q16 -14 16 -26t-6 -42q-58 -166 -172 -166q-58 0 -154 42q-96 40 -130 40t-54 -16t-38 -53q-17 -37 -44 -37zM256 313q0 -95 76 -153t207 -58q130 0 234 81
q103 81 104 206v103q-155 45 -307 45q-152 1 -233 -59t-81 -161v-4zM492 -23q-160 1 -278 89t-118 241v4q0 164 123 253t309 89t346 -45v37q0 141 -81 215q-83 74 -229 74t-279 -60q-14 -6 -36 -6t-42 20q-21 20 -21 59q0 38 43 54q166 72 346 72q225 0 339 -113t112 -313
v-579q0 -33 -22 -56q-22 -22 -54 -22t-54 22t-22 51v97q-138 -183 -382 -183z" />
    <glyph glyph-name="adieresis" unicode="&#xe4;" horiz-adv-x="1185" 
d="M410 1423q40 -1 68 -27t28 -65v-31q0 -40 -28 -66t-68 -26t-69 27q-28 27 -28 65v31q0 39 28 65t69 27zM774 1423q41 -1 69 -27t27 -65v-31q0 -40 -28 -66t-68 -26t-68 27t-28 65v31q0 39 28 65t68 27zM256 313q0 -95 76 -153t207 -58q130 0 234 81q103 81 104 206v103
q-155 45 -307 45q-152 1 -233 -59t-81 -161v-4zM492 -23q-160 1 -278 89t-118 241v4q0 164 123 253t309 89t346 -45v37q0 141 -81 215q-83 74 -229 74t-279 -60q-14 -6 -36 -6t-42 20q-21 20 -21 59q0 38 43 54q166 72 346 72q225 0 339 -113t112 -313v-579q0 -33 -22 -56
q-22 -22 -54 -22t-54 22t-22 51v97q-138 -183 -382 -183z" />
    <glyph glyph-name="aring" unicode="&#xe5;" horiz-adv-x="1185" 
d="M592 1292q51 0 89 37t38 88v4q0 51 -38 88t-89 37t-89 -37t-38 -88v-4q0 -51 38 -88t89 -37zM592 1214q-86 0 -150 60t-63 143v4q0 83 63 143q64 60 150 60t149 -60t64 -143v-4q1 -83 -63 -143t-150 -60zM256 313q0 -95 76 -153t207 -58q130 0 234 81q103 81 104 206v103
q-155 45 -307 45q-152 1 -233 -59t-81 -161v-4zM492 -23q-160 1 -278 89t-118 241v4q0 164 123 253t309 89t346 -45v37q0 141 -81 215q-83 74 -229 74t-279 -60q-14 -6 -36 -6t-42 20q-21 20 -21 59q0 38 43 54q166 72 346 72q225 0 339 -113t112 -313v-579q0 -33 -22 -56
q-22 -22 -54 -22t-54 22t-22 51v97q-138 -183 -382 -183z" />
    <glyph glyph-name="ae" unicode="&#xe6;" horiz-adv-x="1951" 
d="M1378 -25q-128 1 -238 57t-182 156q-203 -211 -462 -211q-164 -1 -282 87t-118 243v4q0 164 122 253t300 89t336 -45v37q0 141 -79 215t-219 74t-271 -60q-14 -6 -36 -6t-42 20q-21 20 -21 59q0 38 43 54q160 72 336 72q309 0 389 -227q64 109 170 172t236 63
q225 1 358 -157t133 -379q-1 -31 -23 -53t-52 -21h-764q14 -166 120 -262t262 -96q158 0 296 123q24 18 48 18t44 -20t20 -48t-22 -51q-170 -160 -402 -160zM514 104q213 0 381 189q-37 92 -43 201q-164 43 -301 43q-137 1 -216 -59t-79 -161v-4q0 -97 74 -153t184 -56z
M1361 948q-143 0 -239 -101t-112 -259h682q-12 156 -100 258t-231 102z" />
    <glyph glyph-name="ccedilla" unicode="&#xe7;" horiz-adv-x="1169" 
d="M516 -305q-36 -1 -69 21t-33 40t12 41l129 189q-195 32 -319 186t-125 352v4q0 227 156 391q157 163 382 163t393 -154q25 -20 25 -54t-23 -56q-22 -22 -52 -22t-52 19q-137 127 -293 127q-155 0 -265 -119t-110 -291v-4q0 -172 112 -292t274 -119q162 0 298 129
q20 20 47 20t49 -22t22 -50q0 -29 -21 -49q-160 -160 -369 -168l-109 -235q-23 -47 -59 -47z" />
    <glyph glyph-name="egrave" unicode="&#xe8;" horiz-adv-x="1212" 
d="M612 1210q-48 0 -88 39l-153 146q-29 29 -29 48t37 39t77 21q40 0 70 -47l123 -186q10 -14 10 -31q1 -29 -47 -29zM644 -25q-228 0 -381 155t-152 396v4q0 232 145 392t366 160t355 -158q133 -158 133 -379q0 -31 -22 -53t-52 -21h-766q16 -168 122 -263t264 -95
q159 0 292 123q22 18 48 18t46 -20t20 -49q0 -30 -24 -50q-166 -160 -394 -160zM620 948q-144 0 -238 -102q-96 -102 -112 -258h682q-12 156 -100 258t-232 102z" />
    <glyph glyph-name="eacute" unicode="&#xe9;" horiz-adv-x="1212" 
d="M644 -25q-228 0 -381 155t-152 396v4q0 232 145 392t366 160t355 -158q133 -158 133 -379q0 -31 -22 -53t-52 -21h-766q16 -168 122 -263t264 -95q159 0 292 123q22 18 48 18t46 -20t20 -49q0 -30 -24 -50q-166 -160 -394 -160zM620 948q-144 0 -238 -102
q-96 -102 -112 -258h682q-12 156 -100 258t-232 102zM621 1210q-48 0 -48 29q0 16 11 31l123 186q31 47 71 47t76 -20q37 -19 37 -39t-29 -49l-153 -146q-40 -39 -88 -39z" />
    <glyph glyph-name="ecircumflex" unicode="&#xea;" horiz-adv-x="1212" 
d="M644 -25q-228 0 -381 155t-152 396v4q0 232 145 392t366 160t355 -158q133 -158 133 -379q0 -31 -22 -53t-52 -21h-766q16 -168 122 -263t264 -95q159 0 292 123q22 18 48 18t46 -20t20 -49q0 -30 -24 -50q-166 -160 -394 -160zM620 948q-144 0 -238 -102
q-96 -102 -112 -258h682q-12 156 -100 258t-232 102zM406 1210q-48 0 -48 29q0 10 15 35l143 176q39 45 82 45h37q43 0 82 -45l143 -176q14 -25 14 -35q0 -29 -48 -29t-91 39l-121 107l-120 -107q-40 -39 -88 -39z" />
    <glyph glyph-name="edieresis" unicode="&#xeb;" horiz-adv-x="1212" 
d="M644 -25q-228 0 -381 155t-152 396v4q0 232 145 392t366 160t355 -158q133 -158 133 -379q0 -31 -22 -53t-52 -21h-766q16 -168 122 -263t264 -95q159 0 292 123q22 18 48 18t46 -20t20 -49q0 -30 -24 -50q-166 -160 -394 -160zM620 948q-144 0 -238 -102
q-96 -102 -112 -258h682q-12 156 -100 258t-232 102zM434 1423q41 -1 69 -27t27 -65v-31q0 -40 -28 -66t-68 -26t-68 27t-28 65v31q0 39 28 65t68 27zM799 1423q41 -1 69 -27t27 -65v-31q0 -40 -28 -66q-29 -26 -69 -26t-68 27t-28 65v31q0 39 28 65t69 27z" />
    <glyph glyph-name="igrave" unicode="&#xec;" horiz-adv-x="538" 
d="M313 1239q0 -29 -48 -29t-87 39l-153 146q-29 29 -29 48t37 39t77 21q40 0 70 -47l123 -186q10 -14 10 -31zM190 70v919q0 33 23 57t57 24t56 -24q23 -22 22 -57v-919q0 -35 -22 -58q-22 -22 -56 -22q-32 0 -56 24t-24 56z" />
    <glyph glyph-name="iacute" unicode="&#xed;" horiz-adv-x="538" 
d="M190 70v919q0 33 23 57t57 24t56 -24q23 -22 22 -57v-919q0 -35 -22 -58q-22 -22 -56 -22q-32 0 -56 24t-24 56zM275 1210q-48 0 -48 29q0 16 11 31l122 186q31 47 71 47t77 -20q37 -19 37 -39t-29 -49l-154 -146q-39 -39 -87 -39z" />
    <glyph glyph-name="icircumflex" unicode="&#xee;" horiz-adv-x="538" 
d="M190 70v919q0 33 23 57t57 24t56 -24q23 -22 22 -57v-919q0 -35 -22 -58q-22 -22 -56 -22q-32 0 -56 24t-24 56zM59 1210q-47 0 -47 29q0 10 15 35l143 176q39 45 82 45h37q43 0 82 -45l143 -176q14 -25 14 -35q0 -29 -49 -29t-90 39l-121 107l-121 -107q-41 -39 -88 -39
z" />
    <glyph glyph-name="idieresis" unicode="&#xef;" horiz-adv-x="538" 
d="M190 70v919q0 33 23 57t57 24t56 -24q23 -22 22 -57v-919q0 -35 -22 -58q-22 -22 -56 -22q-32 0 -56 24t-24 56zM88 1423q41 -1 69 -27t27 -65v-31q0 -40 -28 -66t-68 -26q-41 0 -69 27t-27 65v31q0 39 27 66q28 26 69 26zM453 1423q41 -1 69 -27t27 -65v-31
q0 -40 -28 -66q-29 -26 -69 -26t-68 27t-28 65v31q0 39 28 65t69 27z" />
    <glyph glyph-name="eth" unicode="&#xf0;" horiz-adv-x="1296" 
d="M1022 497q0 157 -112 265t-276 108t-264 -106t-100 -263t109 -272t271 -115t268 113q104 113 104 270zM387 1137q-19 0 -35 17t-16 47t37 48l219 103l-21 30q-16 23 -16 52q0 28 22 50q21 22 57 22t62 -38l35 -51l178 84q12 6 32 6t37 -17t17 -47t-39 -48l-159 -74
l207 -305q92 -133 136 -248t44 -252q0 -223 -151 -382t-385 -159t-386 155t-152 372t143 355q143 139 329 139t346 -113l-269 374l-237 -114q-16 -6 -35 -6z" />
    <glyph glyph-name="ntilde" unicode="&#xf1;" horiz-adv-x="1261" 
d="M375 1194q-27 0 -42 14t-15 28t18 72q19 56 60 95q42 39 100 39t153 -41q96 -41 130 -41t55 16q20 16 37 54t45 36q55 -1 57 -49q0 -2 -6 -33q-59 -166 -173 -166q-58 0 -153 42q-96 40 -130 40q-35 0 -55 -16t-37 -53t-44 -37zM176 70v919q0 33 23 57t55 24t56 -24
q24 -22 24 -57v-115q125 207 362 207q188 1 297 -115t109 -309v-587q0 -33 -23 -57q-23 -23 -55 -23t-56 24t-24 56v548q0 150 -77 235t-215 85t-228 -92t-90 -240v-536q0 -35 -23 -58q-23 -22 -57 -22t-56 24t-22 56z" />
    <glyph glyph-name="ograve" unicode="&#xf2;" horiz-adv-x="1323" 
d="M657 1210q-48 0 -88 39l-153 146q-29 29 -29 48t37 39t77 21q40 0 70 -47l123 -186q10 -14 11 -31q0 -29 -48 -29zM272 528q0 -172 113 -292t281 -119q168 0 278 119t109 288v4q0 172 -114 293t-281 121q-166 0 -276 -120t-110 -290v-4zM659 -25q-237 0 -393 161
t-155 388v4q0 227 158 391q159 163 395 163t394 -162q158 -160 156 -388v-4q0 -227 -160 -390t-395 -163z" />
    <glyph glyph-name="oacute" unicode="&#xf3;" horiz-adv-x="1323" 
d="M272 528q0 -172 113 -292t281 -119q168 0 278 119t109 288v4q0 172 -114 293t-281 121q-166 0 -276 -120t-110 -290v-4zM659 -25q-237 0 -393 161t-155 388v4q0 227 158 391q159 163 395 163t394 -162q158 -160 156 -388v-4q0 -227 -160 -390t-395 -163zM666 1210
q-48 0 -48 29q0 16 11 31l123 186q30 47 70 47t77 -20q37 -19 37 -39t-29 -49l-153 -146q-40 -39 -88 -39z" />
    <glyph glyph-name="ocircumflex" unicode="&#xf4;" horiz-adv-x="1323" 
d="M272 528q0 -172 113 -292t281 -119q168 0 278 119t109 288v4q0 172 -114 293t-281 121q-166 0 -276 -120t-110 -290v-4zM659 -25q-237 0 -393 161t-155 388v4q0 227 158 391q159 163 395 163t394 -162q158 -160 156 -388v-4q0 -227 -160 -390t-395 -163zM450 1210
q-48 0 -47 29q0 10 15 35l143 176q39 45 82 45h37q43 0 82 -45l143 -176q14 -25 15 -35q0 -29 -49 -29t-91 39l-121 107l-120 -107q-41 -39 -89 -39z" />
    <glyph glyph-name="otilde" unicode="&#xf5;" horiz-adv-x="1323" 
d="M396 1194q-26 0 -41 14t-15 28t6 40q58 166 172 166q58 0 154 -41t130 -41t54 16t38 54t45 36q26 0 41 -14t15 -26t-6 -42q-59 -166 -172 -166q-57 0 -153 42q-96 40 -130 40t-55 -16t-39 -53t-44 -37zM272 528q0 -172 113 -292t281 -119q168 0 278 119t109 288v4
q0 172 -114 293t-281 121q-166 0 -276 -120t-110 -290v-4zM659 -25q-237 0 -393 161t-155 388v4q0 227 158 391q159 163 395 163t394 -162q158 -160 156 -388v-4q0 -227 -160 -390t-395 -163z" />
    <glyph glyph-name="odieresis" unicode="&#xf6;" horiz-adv-x="1323" 
d="M272 528q0 -172 113 -292t281 -119q168 0 278 119t109 288v4q0 172 -114 293t-281 121q-166 0 -276 -120t-110 -290v-4zM659 -25q-237 0 -393 161t-155 388v4q0 227 158 391q159 163 395 163t394 -162q158 -160 156 -388v-4q0 -227 -160 -390t-395 -163zM479 1423
q41 -1 69 -27t27 -65v-31q1 -40 -27 -66t-69 -26t-69 27t-27 65v31q-1 39 27 65t69 27zM844 1423q40 -1 68 -27t28 -65v-31q0 -40 -28 -66t-68 -26t-69 27q-28 27 -27 65v31q0 39 27 66q28 26 69 26z" />
    <glyph glyph-name="divide" unicode="&#xf7;" horiz-adv-x="1280" 
d="M535 328q1 42 31 72t74 30t75 -31t30 -71v-27q-1 -41 -31 -72t-74 -31t-75 32q-31 30 -30 71v27zM535 1141q1 41 31 71t74 31q44 0 75 -31t30 -71v-27q-1 -41 -31 -72q-30 -30 -74 -30t-75 30t-30 72v27zM1079 649h-878q-29 0 -51 22q-22 23 -21 51q0 28 22 50t50 21h878
q29 0 51 -22q22 -23 21 -51q1 -28 -21 -50t-51 -21z" />
    <glyph glyph-name="oslash" unicode="&#xf8;" horiz-adv-x="1323" 
d="M664 115q170 -1 280 119t111 290v4q0 137 -78 248l-555 -575q107 -86 242 -86zM270 528q0 -141 76 -247l557 577q-106 86 -260 86q-153 0 -263 -120t-110 -292v-4zM659 -25q-190 0 -340 113l-81 -84q-25 -24 -50 -24t-42 15t-17 41t23 44l86 88q-127 150 -127 356v4
q0 227 158 391q159 163 395 162q188 0 337 -112l84 88q25 25 51 25t42 -16q16 -15 16 -40t-20 -45l-89 -92q129 -152 129 -357v-4q0 -227 -160 -390t-395 -163z" />
    <glyph glyph-name="ugrave" unicode="&#xf9;" horiz-adv-x="1261" 
d="M616 1210q-48 0 -88 39l-153 146q-29 29 -29 48t37 39t77 21q40 0 70 -47l123 -186q10 -14 11 -31q0 -29 -48 -29zM1083 989v-919q-1 -33 -23 -57q-22 -23 -54 -23t-56 24q-23 24 -22 56v114q-129 -207 -363 -207q-188 0 -297 116t-108 308v588q0 35 22 58q23 23 56 23
q32 0 56 -24t23 -57v-549q0 -150 77 -234t215 -85q138 0 229 92q90 92 90 240v536q0 35 22 58q23 23 56 23t55 -24t22 -57z" />
    <glyph glyph-name="uacute" unicode="&#xfa;" horiz-adv-x="1261" 
d="M1083 989v-919q-1 -33 -23 -57q-22 -23 -54 -23t-56 24q-23 24 -22 56v114q-129 -207 -363 -207q-188 0 -297 116t-108 308v588q0 35 22 58q23 23 56 23q32 0 56 -24t23 -57v-549q0 -150 77 -234t215 -85q138 0 229 92q90 92 90 240v536q0 35 22 58q23 23 56 23t55 -24
t22 -57zM625 1210q-48 0 -47 29q0 16 10 31l123 186q31 47 71 47t76 -20q37 -19 37 -39t-29 -49l-153 -146q-40 -39 -88 -39z" />
    <glyph glyph-name="ucircumflex" unicode="&#xfb;" horiz-adv-x="1261" 
d="M1083 989v-919q-1 -33 -23 -57q-22 -23 -54 -23t-56 24q-23 24 -22 56v114q-129 -207 -363 -207q-188 0 -297 116t-108 308v588q0 35 22 58q23 23 56 23q32 0 56 -24t23 -57v-549q0 -150 77 -234t215 -85q138 0 229 92q90 92 90 240v536q0 35 22 58q23 23 56 23t55 -24
t22 -57zM410 1210q-48 0 -48 29q0 10 15 35l143 176q39 45 82 45h37q43 0 82 -45l143 -176q14 -25 15 -35q0 -29 -49 -29t-91 39l-121 107l-120 -107q-40 -39 -88 -39z" />
    <glyph glyph-name="udieresis" unicode="&#xfc;" horiz-adv-x="1261" 
d="M1083 989v-919q-1 -33 -23 -57q-22 -23 -54 -23t-56 24q-23 24 -22 56v114q-129 -207 -363 -207q-188 0 -297 116t-108 308v588q0 35 22 58q23 23 56 23q32 0 56 -24t23 -57v-549q0 -150 77 -234t215 -85q138 0 229 92q90 92 90 240v536q0 35 22 58q23 23 56 23t55 -24
t22 -57zM438 1423q41 -1 69 -27t28 -65v-31q0 -40 -28 -66t-69 -26q-40 0 -68 27t-28 65v31q0 39 28 65t68 27zM803 1423q41 -1 69 -27t27 -65v-31q0 -40 -28 -66q-29 -26 -69 -26t-68 27t-27 65v31q0 39 27 66q28 26 69 26z" />
    <glyph glyph-name="yacute" unicode="&#xfd;" horiz-adv-x="1202" 
d="M611 1210q-48 0 -48 29q0 16 10 31l123 186q31 47 71 47t77 -20q37 -19 37 -39t-29 -49l-154 -146q-39 -39 -87 -39zM348 -334q-104 0 -192 31q-50 20 -50 58q0 37 20 57t42 20q20 0 60 -13t106 -13t114 43q48 44 93 145l8 16l-443 938q-10 24 -10 50t24 49t56 22
q55 0 80 -61l369 -832l327 834q23 59 76 59q34 -1 56 -23t22 -46t-8 -48l-414 -987q-68 -163 -150 -231t-186 -68z" />
    <glyph glyph-name="thorn" unicode="&#xfe;" 
d="M714 119q157 1 263 111t106 296v4q0 182 -108 296q-109 114 -263 114t-270 -116q-115 -116 -114 -292v-4q0 -178 114 -294q115 -115 272 -115zM176 -258v1683q0 33 23 57t55 24t56 -24t24 -57v-579q160 236 405 235q203 1 355 -149t151 -400v-4q1 -248 -151 -400
t-355 -151q-250 0 -405 226v-461q0 -36 -23 -58t-57 -22t-56 24t-22 56z" />
    <glyph glyph-name="ydieresis" unicode="&#xff;" horiz-adv-x="1202" 
d="M424 1423q41 -1 69 -27t27 -65v-31q0 -40 -28 -66t-68 -26q-41 0 -69 27t-27 65v31q0 39 27 66q28 26 69 26zM788 1423q41 -1 69 -27t28 -65v-31q0 -40 -28 -66t-69 -26q-40 0 -68 27t-28 65v31q0 39 28 65t68 27zM348 -334q-104 0 -192 31q-50 20 -50 58q0 37 20 57
t42 20q20 0 60 -13t106 -13t114 43q48 44 93 145l8 16l-443 938q-10 24 -10 50t24 49t56 22q55 0 80 -61l369 -832l327 834q23 59 76 59q34 -1 56 -23t22 -46t-8 -48l-414 -987q-68 -163 -150 -231t-186 -68z" />
    <glyph glyph-name="Amacron" unicode="&#x100;" horiz-adv-x="1605" 
d="M1071 1622h-541q-27 0 -46 19t-19 47t19 46q19 19 46 19h541q27 0 46 -19t19 -46q0 -26 -18 -46q-20 -20 -47 -20zM469 526h659l-329 734zM178 -10q-30 0 -52 21t-22 48t11 47l581 1272q33 72 103 72h8q72 0 100 -72l582 -1269q10 -25 10 -49q-1 -24 -23 -48
q-22 -23 -55 -22q-53 0 -80 59l-149 330h-786l-150 -334q-23 -55 -78 -55z" />
    <glyph glyph-name="amacron" unicode="&#x101;" horiz-adv-x="1185" 
d="M862 1260h-540q-27 0 -47 19q-19 19 -19 46t19 46t47 20h540q27 1 46 -19q20 -20 20 -47t-20 -46t-46 -19zM256 313q0 -95 76 -153t207 -58q130 0 234 81q103 81 104 206v103q-155 45 -307 45q-152 1 -233 -59t-81 -161v-4zM492 -23q-160 1 -278 89t-118 241v4
q0 164 123 253t309 89t346 -45v37q0 141 -81 215q-83 74 -229 74t-279 -60q-14 -6 -36 -6t-42 20q-21 20 -21 59q0 38 43 54q166 72 346 72q225 0 339 -113t112 -313v-579q0 -33 -22 -56q-22 -22 -54 -22t-54 22t-22 51v97q-138 -183 -382 -183z" />
    <glyph glyph-name="Abreve" unicode="&#x102;" horiz-adv-x="1605" 
d="M801 1577q-188 0 -271 149q-20 35 -20 67q0 65 57 67q37 0 58 -39q45 -113 176 -113t176 113q20 39 52 39q61 0 63 -62q0 -37 -21 -72q-82 -149 -270 -149zM469 526h659l-329 734zM178 -10q-30 0 -52 21t-22 48t11 47l581 1272q33 72 103 72h8q72 0 100 -72l582 -1269
q10 -25 10 -49q-1 -24 -23 -48q-22 -23 -55 -22q-53 0 -80 59l-149 330h-786l-150 -334q-23 -55 -78 -55z" />
    <glyph glyph-name="abreve" unicode="&#x103;" horiz-adv-x="1185" 
d="M825 1497q56 0 58 -61q0 -37 -21 -72q-82 -150 -270 -150t-270 150q-20 35 -20 67q-1 66 56 66q37 0 58 -39q45 -112 176 -112t176 112q20 39 57 39zM256 313q0 -95 76 -153t207 -58q130 0 234 81q103 81 104 206v103q-155 45 -307 45q-152 1 -233 -59t-81 -161v-4z
M492 -23q-160 1 -278 89t-118 241v4q0 164 123 253t309 89t346 -45v37q0 141 -81 215q-83 74 -229 74t-279 -60q-14 -6 -36 -6t-42 20q-21 20 -21 59q0 38 43 54q166 72 346 72q225 0 339 -113t112 -313v-579q0 -33 -22 -56q-22 -22 -54 -22t-54 22t-22 51v97
q-138 -183 -382 -183z" />
    <glyph glyph-name="Aogonek" unicode="&#x104;" horiz-adv-x="1617" 
d="M475 526h660l-328 734zM111 56q0 24 10 50l581 1272q33 72 103 72h8q70 0 102 -72l584 -1278q10 -20 10 -47t-32 -59q-91 -78 -91 -146t103 -88q59 -12 59 -49q0 -47 -57 -47q-82 0 -161 38t-79 127t113 185l-164 365h-788l-150 -334q-23 -55 -76 -55q-33 0 -54 21
t-21 45z" />
    <glyph glyph-name="aogonek" unicode="&#x105;" horiz-adv-x="1185" 
d="M256 313q0 -95 76 -153t207 -58q130 0 234 81q103 81 104 206v103q-155 45 -307 45q-152 1 -233 -59t-81 -161v-4zM766 -174q0 92 119 194q-10 8 -11 138v2q-139 -182 -382 -183q-160 1 -278 89t-118 241v4q0 164 123 253t309 89t346 -45v37q0 141 -81 215
q-83 74 -229 74t-279 -60q-14 -6 -36 -6t-42 20q-21 20 -21 59q0 38 43 54q166 72 346 72q225 0 339 -113t112 -313v-584q0 -41 -37 -71q-88 -80 -88 -142q0 -72 100 -90q59 -12 60 -49q0 -47 -51 -47q-124 0 -197 62q-47 39 -47 100z" />
    <glyph glyph-name="Cacute" unicode="&#x106;" horiz-adv-x="1511" 
d="M855 -25q-304 0 -510 213t-206 525v4q0 309 207 525t518 216q162 0 282 -47t230 -139q33 -29 33 -64q0 -34 -25 -58q-26 -24 -54 -24t-56 19q-184 164 -417 164t-391 -170t-159 -418v-4q0 -250 160 -421q159 -171 395 -171t426 174q22 23 52 23t54 -24t24 -56t-27 -56
q-232 -211 -536 -211zM853 1573q-48 0 -48 29q0 16 10 30l123 187q31 47 71 47q41 0 77 -20t36 -40t-28 -49l-154 -145q-39 -39 -87 -39z" />
    <glyph glyph-name="cacute" unicode="&#x107;" horiz-adv-x="1169" 
d="M653 -25q-229 0 -386 162t-156 387v4q0 227 156 391q157 163 382 163t393 -154q25 -20 25 -54t-23 -56q-22 -22 -52 -22t-52 19q-137 127 -293 127q-155 0 -265 -119t-110 -291v-4q0 -172 112 -292t274 -119q162 0 298 129q20 20 47 20t49 -22t22 -50t-21 -49
q-171 -170 -400 -170zM646 1210q-48 0 -48 29q0 16 10 31l123 186q31 47 71 47t77 -20q37 -19 37 -39t-29 -49l-154 -146q-39 -39 -87 -39z" />
    <glyph glyph-name="Cdotaccent" unicode="&#x10a;" horiz-adv-x="1511" 
d="M946 1694v-29q0 -41 -28 -68t-70 -27q-41 0 -70 28q-29 26 -28 67v29q0 40 28 66t70 26t70 -26t28 -66zM855 -25q-304 0 -510 213t-206 525v4q0 309 207 525t518 216q162 0 282 -47t230 -139q33 -29 33 -64q0 -34 -25 -58q-26 -24 -54 -24t-56 19q-184 164 -417 164
t-391 -170t-159 -418v-4q0 -250 160 -421q159 -171 395 -171t426 174q22 23 52 23t54 -24t24 -56t-27 -56q-232 -211 -536 -211z" />
    <glyph glyph-name="cdotaccent" unicode="&#x10b;" horiz-adv-x="1169" 
d="M741 1331v-28q-1 -41 -29 -68t-69 -27t-70 27t-28 68v28q0 41 27 67q28 26 71 26t71 -26q27 -26 27 -67zM653 -25q-229 0 -386 162t-156 387v4q0 227 156 391q157 163 382 163t393 -154q25 -20 25 -54t-23 -56q-22 -22 -52 -22t-52 19q-137 127 -293 127
q-155 0 -265 -119t-110 -291v-4q0 -172 112 -292t274 -119q162 0 298 129q20 20 47 20t49 -22t22 -50t-21 -49q-171 -170 -400 -170z" />
    <glyph glyph-name="Ccaron" unicode="&#x10c;" horiz-adv-x="1511" 
d="M855 -25q-304 0 -510 213t-206 525v4q0 309 207 525t518 216q162 0 282 -47t230 -139q33 -29 33 -64q0 -34 -25 -58q-26 -24 -54 -24t-56 19q-184 164 -417 164t-391 -170t-159 -418v-4q0 -250 160 -421q159 -171 395 -171t426 174q22 23 52 23t54 -24t24 -56t-27 -56
q-232 -211 -536 -211zM1059 1858q47 0 47 -29q0 -10 -14 -33l-144 -176q-37 -47 -82 -47h-37q-45 0 -81 47l-144 176q-14 23 -14 33q0 29 49 29t90 -37l121 -109l121 109q41 37 88 37z" />
    <glyph glyph-name="ccaron" unicode="&#x10d;" horiz-adv-x="1169" 
d="M653 -25q-229 0 -386 162t-156 387v4q0 227 156 391q157 163 382 163t393 -154q25 -20 25 -54t-23 -56q-22 -22 -52 -22t-52 19q-137 127 -293 127q-155 0 -265 -119t-110 -291v-4q0 -172 112 -292t274 -119q162 0 298 129q20 20 47 20t49 -22t22 -50t-21 -49
q-171 -170 -400 -170zM854 1495q47 0 47 -29q0 -12 -14 -32l-144 -177q-37 -47 -81 -47h-37q-45 0 -82 47l-144 177q-14 20 -14 32q0 29 49 29t90 -37l121 -108l121 108q41 37 88 37z" />
    <glyph glyph-name="Dcaron" unicode="&#x10e;" horiz-adv-x="1601" 
d="M365 150h335q266 0 430 160t164 403v4q0 243 -164 405t-430 162h-335v-1134zM203 82v1270q-1 34 23 58t57 24h417q334 0 548 -204t214 -509v-4q0 -307 -214 -512t-548 -205h-417q-33 0 -57 24t-23 58zM979 1837q47 0 47 -29q0 -10 -14 -32l-144 -177q-37 -47 -82 -47h-36
q-45 0 -82 47l-144 177q-14 23 -14 32q0 29 49 29t90 -37l121 -108l121 108q41 37 88 37z" />
    <glyph glyph-name="dcaron" unicode="&#x10f;" 
d="M646 940q-157 0 -263 -111t-107 -297v-4q0 -182 110 -296t264 -114t268 116q115 116 114 294v4q0 176 -114 292q-115 116 -272 116zM1184 1425v-1355q0 -33 -23 -57q-23 -23 -55 -23t-56 24t-24 56v143q-160 -236 -405 -236q-203 0 -355 150t-151 399v4q0 248 151 400
q152 152 355 151q250 0 405 -225v569q0 35 23 58t57 23t56 -24t22 -57zM1434 1503q45 0 45 -43q0 -18 -11 -49l-71 -217q-12 -41 -45 -41q-43 0 -37 47l18 238q6 66 70 65h31z" />
    <glyph glyph-name="Dcroat" unicode="&#x110;" horiz-adv-x="1662" 
d="M426 1284v-489h367q29 0 51 -22q22 -23 22 -53t-22 -52t-51 -21h-367v-497h336q266 0 430 160t164 403v4q0 243 -164 405t-430 162h-336zM174 795h90v557q0 34 24 58t56 24h418q334 0 548 -204t214 -509v-4q0 -307 -214 -512t-548 -205h-418q-32 0 -56 25t-24 57v565h-90
q-30 0 -52 22q-22 23 -22 53t22 52t52 21z" />
    <glyph glyph-name="dcroat" unicode="&#x111;" 
d="M646 940q-157 0 -263 -111t-107 -297v-4q0 -182 110 -296t264 -114t268 116q115 116 114 294v4q0 176 -114 292q-115 116 -272 116zM1184 1425v-59h94q23 0 40 -16t17 -39t-17 -40t-40 -18h-94v-1183q0 -33 -23 -57q-23 -23 -55 -23t-56 24t-24 56v143
q-160 -236 -405 -236q-203 0 -355 150t-151 399v4q0 248 151 400q152 152 355 151q250 0 405 -225v397h-315q-23 -1 -39 17t-17 41q1 23 17 39t39 16h315v59q0 35 23 58t57 23t56 -24t22 -57z" />
    <glyph glyph-name="Emacron" unicode="&#x112;" horiz-adv-x="1372" 
d="M993 1602h-540q-27 0 -46 19t-20 46t19 46t47 20h540q27 1 46 -19t19 -47t-18 -46q-20 -19 -47 -19zM283 0q-33 0 -57 25t-23 57v1270q-1 34 23 58t57 24h891q30 0 52 -22t22 -52t-22 -52t-52 -22h-809v-489h716q31 0 53 -23q22 -22 22 -52t-22 -52t-53 -21h-716v-502
h819q30 1 52 -21t22 -52t-22 -52t-52 -22h-901z" />
    <glyph glyph-name="emacron" unicode="&#x113;" horiz-adv-x="1212" 
d="M887 1260h-541q-27 0 -46 19t-19 46t19 46t46 20h541q27 1 46 -19t19 -47t-19 -46t-46 -19zM644 -25q-228 0 -381 155t-152 396v4q0 232 145 392t366 160t355 -158q133 -158 133 -379q0 -31 -22 -53t-52 -21h-766q16 -168 122 -263t264 -95q159 0 292 123q22 18 48 18
t46 -20t20 -49q0 -30 -24 -50q-166 -160 -394 -160zM620 948q-144 0 -238 -102q-96 -102 -112 -258h682q-12 156 -100 258t-232 102z" />
    <glyph glyph-name="Ebreve" unicode="&#x114;" horiz-adv-x="1372" 
d="M956 1839q56 0 58 -61q0 -37 -21 -72q-82 -150 -270 -150t-270 150q-21 35 -21 67q-1 66 57 66q37 0 58 -39q45 -112 176 -112t176 112q20 39 57 39zM283 0q-33 0 -57 25t-23 57v1270q-1 34 23 58t57 24h891q30 0 52 -22t22 -52t-22 -52t-52 -22h-809v-489h716
q31 0 53 -23q22 -22 22 -52t-22 -52t-53 -21h-716v-502h819q30 1 52 -21t22 -52t-22 -52t-52 -22h-901z" />
    <glyph glyph-name="ebreve" unicode="&#x115;" horiz-adv-x="1212" 
d="M616 1214q-188 0 -270 150q-20 35 -20 67q0 66 57 66q37 0 57 -39q45 -112 176 -112t177 112q20 39 52 39q62 0 62 -61q0 -37 -20 -72q-83 -150 -271 -150zM644 -25q-228 0 -381 155t-152 396v4q0 232 145 392t366 160t355 -158q133 -158 133 -379q0 -31 -22 -53t-52 -21
h-766q16 -168 122 -263t264 -95q159 0 292 123q22 18 48 18t46 -20t20 -49q0 -30 -24 -50q-166 -160 -394 -160zM620 948q-144 0 -238 -102q-96 -102 -112 -258h682q-12 156 -100 258t-232 102z" />
    <glyph glyph-name="Edotaccent" unicode="&#x116;" horiz-adv-x="1372" 
d="M821 1673v-28q-1 -41 -29 -68t-69 -27t-70 27t-28 68v28q0 41 27 67q28 26 71 26t71 -26q27 -26 27 -67zM283 0q-33 0 -57 25t-23 57v1270q-1 34 23 58t57 24h891q30 0 52 -22t22 -52t-22 -52t-52 -22h-809v-489h716q31 0 53 -23q22 -22 22 -52t-22 -52t-53 -21h-716
v-502h819q30 1 52 -21t22 -52t-22 -52t-52 -22h-901z" />
    <glyph glyph-name="edotaccent" unicode="&#x117;" horiz-adv-x="1212" 
d="M715 1331v-28q0 -41 -29 -68t-70 -27q-42 0 -70 27t-28 68v28q0 41 28 67t70 26t71 -26q28 -26 28 -67zM644 -25q-228 0 -381 155t-152 396v4q0 232 145 392t366 160t355 -158q133 -158 133 -379q0 -31 -22 -53t-52 -21h-766q16 -168 122 -263t264 -95q159 0 292 123
q22 18 48 18t46 -20t20 -49q0 -30 -24 -50q-166 -160 -394 -160zM620 948q-144 0 -238 -102q-96 -102 -112 -258h682q-12 156 -100 258t-232 102z" />
    <glyph glyph-name="Eogonek" unicode="&#x118;" horiz-adv-x="1372" 
d="M283 0q-33 0 -57 25t-23 57v1270q-1 34 23 58t57 24h891q30 0 52 -22t22 -52t-22 -52t-52 -22h-809v-489h716q31 0 53 -23q22 -22 22 -52t-22 -52t-53 -21h-716v-502h817q32 0 54 -19t22 -54t-55 -78q-54 -43 -79 -76t-24 -72q0 -68 98 -88q61 -10 62 -49q0 -47 -52 -47
q-125 0 -198 62q-47 38 -47 112t104 162h-784z" />
    <glyph glyph-name="eogonek" unicode="&#x119;" horiz-adv-x="1212" 
d="M620 948q-144 0 -238 -102q-96 -102 -112 -258h682q-12 156 -100 258t-232 102zM1110 545q0 -31 -22 -53t-52 -21h-766q16 -168 122 -263t264 -95q159 0 292 123q22 18 48 18t46 -20t20 -49q0 -30 -18 -46t-88 -78q-133 -115 -133 -197t103 -104q61 -10 61 -49
q0 -47 -57 -47q-96 0 -168 43t-72 125t74 156q-59 -12 -125 -13q-223 0 -376 155t-152 396v4q0 232 145 392t366 160t355 -158q133 -158 133 -379z" />
    <glyph glyph-name="Ecaron" unicode="&#x11a;" horiz-adv-x="1372" 
d="M283 0q-33 0 -57 25t-23 57v1270q-1 34 23 58t57 24h891q30 0 52 -22t22 -52t-22 -52t-52 -22h-809v-489h716q31 0 53 -23q22 -22 22 -52t-22 -52t-53 -21h-716v-502h819q30 1 52 -21t22 -52t-22 -52t-52 -22h-901zM934 1837q47 0 47 -29q0 -10 -14 -32l-144 -177
q-37 -47 -82 -47h-36q-45 0 -82 47l-144 177q-14 23 -14 32q0 29 49 29t90 -37l121 -108l121 108q41 37 88 37z" />
    <glyph glyph-name="ecaron" unicode="&#x11b;" horiz-adv-x="1212" 
d="M644 -25q-228 0 -381 155t-152 396v4q0 232 145 392t366 160t355 -158q133 -158 133 -379q0 -31 -22 -53t-52 -21h-766q16 -168 122 -263t264 -95q159 0 292 123q22 18 48 18t46 -20t20 -49q0 -30 -24 -50q-166 -160 -394 -160zM620 948q-144 0 -238 -102
q-96 -102 -112 -258h682q-12 156 -100 258t-232 102zM828 1495q48 0 46 -29q0 -12 -14 -32l-143 -177q-37 -47 -82 -47h-37q-45 0 -82 47l-143 177q-14 20 -15 32q0 29 49 29t91 -37l120 -108l121 108q41 37 89 37z" />
    <glyph glyph-name="Gbreve" unicode="&#x11e;" horiz-adv-x="1605" 
d="M844 1577q-188 0 -271 149q-20 35 -20 67q0 65 57 67q37 0 58 -39q45 -113 176 -113t176 113q20 39 52 39q61 0 63 -62q0 -37 -21 -72q-82 -149 -270 -149zM868 -25q-330 0 -530 211t-199 527v4q0 303 203 522t500 219t506 -153q32 -25 32 -62t-24 -61t-52 -25
q-29 0 -55 21q-172 131 -401 131t-385 -172t-156 -416v-4q0 -260 155 -428q154 -168 402 -168t424 143v357h-385q-29 -1 -51 21t-21 52q0 30 22 50q22 22 50 22h461q32 0 56 -25t24 -57v-436q0 -61 -55 -98q-238 -175 -521 -175z" />
    <glyph glyph-name="gbreve" unicode="&#x11f;" 
d="M905 1497q56 0 58 -61q0 -37 -21 -72q-82 -150 -270 -150t-271 150q-20 35 -20 67q0 66 57 66q37 0 58 -39q45 -112 176 -112t176 112q20 39 57 39zM276 582q0 -156 108 -258t261 -103q155 -1 271 101t116 258v4q0 158 -116 258t-272 100t-261 -98q-106 -98 -107 -258v-4
zM1184 184q0 -240 -138 -378t-390 -138q-251 0 -453 125q-41 21 -41 57t22 58q39 37 84 10q172 -115 362 -115q190 -1 294 97t104 280v125q-168 -223 -416 -223q-201 0 -349 138t-148 358v4q0 223 149 361q150 138 348 138q254 0 414 -213v121q0 33 23 57t55 24t56 -24
t24 -57v-805z" />
    <glyph glyph-name="Gdotaccent" unicode="&#x120;" horiz-adv-x="1605" 
d="M942 1694v-29q0 -41 -29 -68t-69 -27t-70 28q-29 26 -29 67v29q0 40 28 66t71 26q42 0 70 -26t28 -66zM868 -25q-330 0 -530 211t-199 527v4q0 303 203 522t500 219t506 -153q32 -25 32 -62t-24 -61t-52 -25q-29 0 -55 21q-172 131 -401 131t-385 -172t-156 -416v-4
q0 -260 155 -428q154 -168 402 -168t424 143v357h-385q-29 -1 -51 21t-21 52q0 30 22 50q22 22 50 22h461q32 0 56 -25t24 -57v-436q0 -61 -55 -98q-238 -175 -521 -175z" />
    <glyph glyph-name="gdotaccent" unicode="&#x121;" 
d="M770 1331v-28q0 -41 -29 -68t-69 -27t-70 27q-29 27 -29 68v28q0 41 28 67t71 26q42 0 70 -26t28 -67zM276 582q0 -156 108 -258t261 -103q155 -1 271 101t116 258v4q0 158 -116 258t-272 100t-261 -98q-106 -98 -107 -258v-4zM1184 184q0 -240 -138 -378t-390 -138
q-251 0 -453 125q-41 21 -41 57t22 58q39 37 84 10q172 -115 362 -115q190 -1 294 97t104 280v125q-168 -223 -416 -223q-201 0 -349 138t-148 358v4q0 223 149 361q150 138 348 138q254 0 414 -213v121q0 33 23 57t55 24t56 -24t24 -57v-805z" />
    <glyph glyph-name="Gcommaaccent" unicode="&#x122;" horiz-adv-x="1605" 
d="M868 -25q-330 0 -530 211t-199 527v4q0 303 203 522t500 219t506 -153q32 -25 32 -62t-24 -61t-52 -25q-29 0 -55 21q-172 131 -401 131t-385 -172t-156 -416v-4q0 -260 155 -428q154 -168 402 -168t424 143v357h-385q-29 -1 -51 21t-21 52q0 30 22 50q22 22 50 22h461
q32 0 56 -25t24 -57v-436q0 -61 -55 -98q-238 -175 -521 -175zM748 -223q0 37 26 63t69 25q43 0 69 -29t26 -78v-10q0 -174 -136 -228q-44 -18 -80 -18t-36 28t47 40q100 25 96 113q-82 14 -81 84v10z" />
    <glyph glyph-name="gcommaaccent" unicode="&#x123;" 
d="M276 582q0 -156 108 -258t261 -103q155 -1 271 101t116 258v4q0 158 -116 258t-272 100t-261 -98q-106 -98 -107 -258v-4zM1184 184q0 -240 -138 -378t-390 -138q-251 0 -453 125q-41 21 -41 57t22 58q39 37 84 10q172 -115 362 -115q190 -1 294 97t104 280v125
q-168 -223 -416 -223q-201 0 -349 138t-148 358v4q0 223 149 361q150 138 348 138q254 0 414 -213v121q0 33 23 57t55 24t56 -24t24 -57v-805zM766 1307v-11q0 -36 -27 -62t-69 -26t-68 29q-27 29 -27 78v10q0 175 137 228q44 17 80 17t35 -27q-1 -28 -47 -40
q-100 -26 -96 -112q82 -14 82 -84z" />
    <glyph glyph-name="Hbar" unicode="&#x126;" horiz-adv-x="1646" 
d="M408 797h827v250h-827v-250zM246 72v975h-96q-27 0 -46 17q-18 17 -18 43t18 44t46 18h96v193q0 34 24 58t57 24t57 -24t24 -58v-193h827v193q-1 34 23 58t58 24t58 -25t23 -57v-193h100q25 0 43 -18t18 -44t-18 -43t-43 -17h-100v-975q0 -33 -24 -58q-23 -24 -57 -24
t-58 24t-23 58v573h-827v-573q0 -35 -24 -59q-24 -23 -58 -23t-57 24q-23 25 -23 58z" />
    <glyph glyph-name="hbar" unicode="&#x127;" horiz-adv-x="1261" 
d="M176 70v1183h-94q-23 -1 -40 17t-17 41t17 39t40 16h94v59q0 33 23 57t55 24t56 -24t24 -57v-59h315q23 0 40 -16t17 -39t-16 -40q-18 -17 -41 -18h-315v-379q125 207 362 207q188 1 297 -115t109 -309v-587q0 -33 -23 -57q-23 -23 -55 -23t-56 24t-24 56v548
q0 150 -77 235t-215 85t-228 -92t-90 -240v-536q0 -35 -23 -58q-23 -22 -57 -22t-56 24t-22 56z" />
    <glyph glyph-name="Imacron" unicode="&#x12a;" horiz-adv-x="595" 
d="M569 1602h-540q-27 0 -46 19t-20 46t19 46t47 20h540q27 1 46 -19t19 -47t-18 -46q-20 -19 -47 -19zM217 72v1290q0 34 24 58q23 24 57 24t58 -24t23 -58v-1290q0 -35 -24 -59q-23 -23 -57 -23t-58 24t-23 58z" />
    <glyph glyph-name="imacron" unicode="&#x12b;" horiz-adv-x="538" 
d="M541 1260h-541q-27 0 -46 19t-20 46q0 27 20 46t46 20h541q27 1 46 -19t19 -47t-19 -46t-46 -19zM190 70v919q0 33 23 57t57 24t56 -24q23 -22 22 -57v-919q0 -35 -22 -58q-22 -22 -56 -22q-32 0 -56 24t-24 56z" />
    <glyph glyph-name="Ibreve" unicode="&#x12c;" horiz-adv-x="595" 
d="M532 1839q56 0 58 -61q0 -37 -21 -72q-82 -150 -270 -150t-270 150q-21 35 -21 67q-1 66 58 66q37 0 57 -39q45 -112 176 -112t176 112q20 39 57 39zM217 72v1290q0 34 24 58q23 24 57 24t58 -24t23 -58v-1290q0 -35 -24 -59q-23 -23 -57 -23t-58 24t-23 58z" />
    <glyph glyph-name="ibreve" unicode="&#x12d;" horiz-adv-x="538" 
d="M270 1214q-188 0 -270 150q-20 35 -20 67q0 66 57 66q37 0 57 -39q45 -112 176 -112t176 112q20 39 52 39q62 0 63 -61q0 -37 -20 -72q-83 -150 -271 -150zM190 70v919q0 33 23 57t57 24t56 -24q23 -22 22 -57v-919q0 -35 -22 -58q-22 -22 -56 -22q-32 0 -56 24t-24 56z
" />
    <glyph glyph-name="Iogonek" unicode="&#x12e;" horiz-adv-x="595" 
d="M360 -336q-84 0 -162 38t-79 128q0 90 112 186q-14 12 -14 33v1313q0 34 24 58q23 24 57 24t58 -24t23 -58v-1296q0 -39 -35 -72q-90 -82 -90 -144q0 -70 102 -90q59 -12 60 -49q0 -47 -56 -47z" />
    <glyph glyph-name="iogonek" unicode="&#x12f;" horiz-adv-x="538" 
d="M176 1364v27q0 37 27 61t67 23q40 0 66 -24q27 -24 26 -60v-27q0 -36 -26 -60t-67 -24t-67 24t-26 60zM348 989v-926q0 -41 -37 -71q-88 -80 -88 -142q0 -72 101 -90q59 -12 59 -49q0 -47 -51 -47q-124 0 -197 62q-47 39 -47 100q0 96 119 192q-16 12 -17 33v938
q0 33 23 57t57 24t56 -23t22 -58z" />
    <glyph glyph-name="Idotaccent" unicode="&#x130;" horiz-adv-x="595" 
d="M397 1673v-28q-1 -41 -29 -68t-69 -27t-70 27t-28 68v28q0 41 27 67q28 26 71 26t71 -26q27 -26 27 -67zM217 72v1290q0 34 24 58q23 24 57 24t58 -24t23 -58v-1290q0 -35 -24 -59q-23 -23 -57 -23t-58 24t-23 58z" />
    <glyph glyph-name="dotlessi" unicode="&#x131;" horiz-adv-x="538" 
d="M190 70v919q0 33 23 57t57 24t56 -24q23 -22 22 -57v-919q0 -35 -22 -58q-22 -22 -56 -22q-32 0 -56 24t-24 56z" />
    <glyph glyph-name="Kcommaaccent" unicode="&#x136;" horiz-adv-x="1462" 
d="M203 72v1290q-1 34 23 58t57 24t57 -24t25 -58v-784l817 837q34 29 64 29t54 -25t23 -55q0 -30 -27 -57l-508 -504l545 -672q23 -29 23 -61t-25 -56t-61 -24t-62 37l-534 665l-309 -309v-311q0 -35 -25 -59q-26 -23 -58 -23t-56 24q-23 25 -23 58zM647 -221v10
q0 37 27 63q26 26 68 26t69 -30q27 -29 27 -77v-11q0 -175 -137 -228q-43 -17 -79 -17q-36 -1 -36 27t47 40q100 25 96 113q-82 14 -82 84z" />
    <glyph glyph-name="kcommaaccent" unicode="&#x137;" horiz-adv-x="1163" 
d="M176 70v1355q0 33 23 57t55 24t56 -24t24 -57v-970l573 583q27 31 60 31q33 1 53 -21t20 -53t-30 -61l-346 -340l378 -477q20 -27 20 -57t-21 -50t-57 -20t-64 37l-367 462l-219 -217v-202q0 -35 -23 -58q-23 -22 -57 -22t-56 24t-22 56zM516 -231v10q0 37 27 63t69 25
q42 0 68 -29q27 -29 27 -78v-10q0 -175 -137 -228q-44 -18 -80 -18t-35 28t47 40q100 26 96 113q-82 14 -82 84z" />
    <glyph glyph-name="Lacute" unicode="&#x139;" horiz-adv-x="1267" 
d="M203 82v1280q-1 34 23 58t57 24t57 -24t25 -58v-1212h743q30 0 52 -23t22 -53t-22 -52t-52 -22h-825q-33 0 -57 24t-23 58zM320 1552q-48 0 -48 29q0 16 11 31l123 186q30 47 70 47t77 -20q37 -19 37 -39t-29 -49l-153 -146q-40 -39 -88 -39z" />
    <glyph glyph-name="lacute" unicode="&#x13a;" horiz-adv-x="538" 
d="M190 70v1355q0 33 23 57t55 24t57 -24q24 -24 23 -57v-1355q0 -35 -22 -58q-22 -22 -56 -22q-32 0 -56 24t-24 56zM279 1595q-48 0 -48 29q0 16 11 31l123 186q31 47 71 47t76 -20q37 -20 37 -40t-29 -48l-153 -146q-40 -39 -88 -39z" />
    <glyph glyph-name="Lcommaaccent" unicode="&#x13b;" horiz-adv-x="1267" 
d="M203 82v1280q-1 34 23 58t57 24t57 -24t25 -58v-1212h743q30 0 52 -23t22 -53t-22 -52t-52 -22h-825q-33 0 -57 24t-23 58zM584 -231v10q0 37 26 63t69 25q42 0 69 -29t26 -78v-10q0 -175 -136 -228q-44 -18 -80 -18t-36 28t47 40q101 26 97 113q-82 14 -82 84z" />
    <glyph glyph-name="lcommaaccent" unicode="&#x13c;" horiz-adv-x="538" 
d="M190 70v1355q0 33 23 57t55 24t57 -24q24 -24 23 -57v-1355q0 -35 -22 -58q-22 -22 -56 -22q-32 0 -56 24t-24 56zM174 -231v10q0 37 27 63t69 25q42 0 68 -29q27 -29 27 -78v-10q0 -175 -137 -228q-44 -18 -80 -18t-35 28t47 40q100 26 96 113q-82 14 -82 84z" />
    <glyph glyph-name="Lcaron" unicode="&#x13d;" horiz-adv-x="1267" 
d="M203 82v1280q-1 34 23 58t57 24t57 -24t25 -58v-1212h743q30 0 52 -23t22 -53t-22 -52t-52 -22h-825q-33 0 -57 24t-23 58zM641 1438h31q45 0 45 -43q0 -18 -10 -49l-72 -218q-12 -41 -45 -41q-43 1 -37 48l18 237q6 66 70 66z" />
    <glyph glyph-name="lcaron" unicode="&#x13e;" horiz-adv-x="538" 
d="M190 70v1355q0 33 23 57t55 24t57 -24q24 -24 23 -57v-1355q0 -35 -22 -58q-22 -22 -56 -22q-32 0 -56 24t-24 56zM602 1501q45 0 45 -43q0 -18 -10 -49l-72 -217q-12 -41 -45 -41q-43 0 -37 47l19 238q6 66 69 65h31z" />
    <glyph glyph-name="Ldot" unicode="&#x13f;" horiz-adv-x="1267" 
d="M1049 770v-29q0 -41 -29 -67t-70 -27q-42 0 -70 27t-28 67v29q0 41 28 67q28 25 70 25t71 -26q28 -26 28 -66zM203 82v1280q-1 34 23 58t57 24t57 -24t25 -58v-1212h743q30 0 52 -23t22 -53t-22 -52t-52 -22h-825q-33 0 -57 24t-23 58z" />
    <glyph glyph-name="ldot" unicode="&#x140;" horiz-adv-x="677" 
d="M190 70v1355q0 33 23 57t55 24t57 -24q24 -24 23 -57v-1355q0 -35 -22 -58q-22 -22 -56 -22q-32 0 -56 24t-24 56zM698 770v-29q0 -37 -26 -63t-62 -27q-36 0 -62 27t-26 63v29q0 37 26 64q26 26 62 26t63 -26q25 -27 25 -64z" />
    <glyph glyph-name="Lslash" unicode="&#x141;" horiz-adv-x="1329" 
d="M424 150h745q31 0 53 -23t22 -53t-22 -52t-53 -22h-825q-32 0 -56 25t-24 57v536l-59 -18q-16 -6 -40 -6t-44 20q-21 20 -21 62t54 59l110 33v594q0 34 24 58t56 24t56 -24t24 -58v-545l346 107q30 6 48 6t38 -22t21 -52q-1 -54 -54 -68l-399 -122v-516z" />
    <glyph glyph-name="lslash" unicode="&#x142;" horiz-adv-x="661" 
d="M410 70q0 -35 -23 -58q-23 -22 -55 -22t-56 22q-23 22 -22 58v587l-64 -18q-16 -6 -40 -6t-44 20t-20 52q0 51 53 69q51 14 115 35v616q0 33 21 57q22 24 55 24q32 0 56 -24t24 -57v-569l61 18q52 20 84 -14q20 -20 20 -51q0 -52 -51 -70l-114 -34v-635z" />
    <glyph glyph-name="Nacute" unicode="&#x143;" horiz-adv-x="1617" 
d="M203 70v1290q-1 32 23 56t57 24h22q45 0 82 -47l870 -1110v1081q0 32 24 56q25 24 57 24t55 -24t22 -56v-1294q0 -33 -20 -55t-54 -21h-8q-41 0 -84 49l-889 1137v-1110q0 -33 -24 -57q-24 -23 -56 -23t-55 23q-22 24 -22 57zM812 1552q-48 0 -48 29q0 16 10 31l123 186
q31 47 71 47t76 -20q36 -19 37 -39q0 -20 -28 -49l-154 -146q-39 -39 -87 -39z" />
    <glyph glyph-name="nacute" unicode="&#x144;" horiz-adv-x="1261" 
d="M176 70v919q0 33 23 57t55 24t56 -24q24 -22 24 -57v-115q125 207 362 207q188 1 297 -115t109 -309v-587q0 -33 -23 -57q-23 -23 -55 -23t-56 24t-24 56v548q0 150 -77 235t-215 85t-228 -92t-90 -240v-536q0 -35 -23 -58q-23 -22 -57 -22t-56 24t-22 56zM642 1210
q-48 0 -48 29q0 16 10 31l123 186q31 47 71 47t76 -20q36 -19 37 -39q0 -20 -28 -49l-154 -146q-39 -39 -87 -39z" />
    <glyph glyph-name="Ncommaaccent" unicode="&#x145;" horiz-adv-x="1617" 
d="M203 70v1290q-1 32 23 56t57 24h22q45 0 82 -47l870 -1110v1081q0 32 24 56q25 24 57 24t55 -24t22 -56v-1294q0 -33 -20 -55t-54 -21h-8q-41 0 -84 49l-889 1137v-1110q0 -33 -24 -57q-24 -23 -56 -23t-55 23q-22 24 -22 57zM713 -221v10q0 37 26 63q27 26 69 26t69 -30
q27 -29 26 -77v-11q0 -175 -136 -228q-44 -17 -80 -17q-36 -1 -36 27t47 40q101 26 97 113q-82 14 -82 84z" />
    <glyph glyph-name="ncommaaccent" unicode="&#x146;" horiz-adv-x="1261" 
d="M176 70v919q0 33 23 57t55 24t56 -24q24 -22 24 -57v-115q125 207 362 207q188 1 297 -115t109 -309v-587q0 -33 -23 -57q-23 -23 -55 -23t-56 24t-24 56v548q0 150 -77 235t-215 85t-228 -92t-90 -240v-536q0 -35 -23 -58q-23 -22 -57 -22t-56 24t-22 56zM541 -231v10
q1 37 27 63t68 25q42 0 69 -29t26 -78v-10q0 -175 -136 -228q-44 -18 -80 -18t-36 28t47 40q101 26 97 113q-82 14 -82 84z" />
    <glyph glyph-name="Ncaron" unicode="&#x147;" horiz-adv-x="1617" 
d="M203 70v1290q-1 32 23 56t57 24h22q45 0 82 -47l870 -1110v1081q0 32 24 56q25 24 57 24t55 -24t22 -56v-1294q0 -33 -20 -55t-54 -21h-8q-41 0 -84 49l-889 1137v-1110q0 -33 -24 -57q-24 -23 -56 -23t-55 23q-22 24 -22 57zM1020 1837q47 0 47 -29q0 -10 -14 -32
l-144 -177q-37 -47 -82 -47h-36q-45 0 -82 47l-144 177q-14 23 -14 32q0 29 49 29t90 -37l121 -108l121 108q41 37 88 37z" />
    <glyph glyph-name="ncaron" unicode="&#x148;" horiz-adv-x="1261" 
d="M176 70v919q0 33 23 57t55 24t56 -24q24 -22 24 -57v-115q125 207 362 207q188 1 297 -115t109 -309v-587q0 -33 -23 -57q-23 -23 -55 -23t-56 24t-24 56v548q0 150 -77 235t-215 85t-228 -92t-90 -240v-536q0 -35 -23 -58q-23 -22 -57 -22t-56 24t-22 56zM848 1495
q47 0 47 -29q0 -12 -14 -32l-144 -177q-37 -47 -82 -47h-37q-45 0 -81 47l-144 177q-14 20 -14 32q0 29 49 29t90 -37l121 -108l121 108q41 37 88 37z" />
    <glyph glyph-name="Omacron" unicode="&#x14c;" horiz-adv-x="1740" 
d="M872 125q244 0 403 170t159 418v4q0 248 -161 420t-405 172t-402 -170t-159 -418v-4q1 -248 161 -420t404 -172zM868 -25q-319 0 -524 216t-205 522v4q0 305 207 523t526 218q318 0 524 -216t206 -521v-4q0 -305 -208 -523t-526 -219zM1141 1622h-541q-27 0 -46 19
t-19 47t19 46q19 19 46 19h541q27 0 46 -19t19 -46q0 -26 -19 -46t-46 -20z" />
    <glyph glyph-name="omacron" unicode="&#x14d;" horiz-adv-x="1323" 
d="M272 528q0 -172 113 -292t281 -119q168 0 278 119t109 288v4q0 172 -114 293t-281 121q-166 0 -276 -120t-110 -290v-4zM659 -25q-237 0 -393 161t-155 388v4q0 227 158 391q159 163 395 163t394 -162q158 -160 156 -388v-4q0 -227 -160 -390t-395 -163zM932 1260h-541
q-27 0 -46 19t-19 46t19 46t46 20h541q27 1 46 -19t19 -47t-19 -46t-46 -19z" />
    <glyph glyph-name="Obreve" unicode="&#x14e;" horiz-adv-x="1740" 
d="M870 1577q-188 0 -270 149q-20 35 -20 67q0 65 57 67q37 0 57 -39q45 -113 176 -113t177 113q20 39 52 39q62 0 62 -62q0 -37 -20 -72q-83 -149 -271 -149zM872 125q244 0 403 170t159 418v4q0 248 -161 420t-405 172t-402 -170t-159 -418v-4q1 -248 161 -420t404 -172z
M868 -25q-319 0 -524 216t-205 522v4q0 305 207 523t526 218q318 0 524 -216t206 -521v-4q0 -305 -208 -523t-526 -219z" />
    <glyph glyph-name="obreve" unicode="&#x14f;" horiz-adv-x="1323" 
d="M662 1214q-188 0 -271 150q-20 35 -20 67q0 66 57 66q37 0 57 -39q45 -112 177 -112t176 112q20 39 52 39q62 0 62 -61q0 -37 -20 -72q-82 -150 -270 -150zM272 528q0 -172 113 -292t281 -119q168 0 278 119t109 288v4q0 172 -114 293t-281 121q-166 0 -276 -120
t-110 -290v-4zM659 -25q-237 0 -393 161t-155 388v4q0 227 158 391q159 163 395 163t394 -162q158 -160 156 -388v-4q0 -227 -160 -390t-395 -163z" />
    <glyph glyph-name="Ohungarumlaut" unicode="&#x150;" horiz-adv-x="1740" 
d="M872 125q244 0 403 170t159 418v4q0 248 -161 420t-405 172t-402 -170t-159 -418v-4q1 -248 161 -420t404 -172zM868 -25q-319 0 -524 216t-205 522v4q0 305 207 523t526 218q318 0 524 -216t206 -521v-4q0 -305 -208 -523t-526 -219zM680 1573q-47 0 -47 29q0 14 12 30
l125 189q29 45 68 45q38 0 72 -20t34 -40t-24 -45l-152 -149q-41 -39 -88 -39zM1016 1573q-47 0 -47 29q0 14 12 30l125 189q29 45 68 45q38 0 72 -20t34 -40t-25 -45l-151 -149q-41 -39 -88 -39z" />
    <glyph glyph-name="ohungarumlaut" unicode="&#x151;" horiz-adv-x="1323" 
d="M272 528q0 -172 113 -292t281 -119q168 0 278 119t109 288v4q0 172 -114 293t-281 121q-166 0 -276 -120t-110 -290v-4zM659 -25q-237 0 -393 161t-155 388v4q0 227 158 391q159 163 395 163t394 -162q158 -160 156 -388v-4q0 -227 -160 -390t-395 -163zM473 1210
q-47 0 -47 29q0 14 12 31l125 188q29 45 68 45t73 -19q34 -20 33 -40q0 -20 -24 -45l-152 -150q-41 -39 -88 -39zM809 1210q-47 0 -47 29q0 14 12 31l125 188q29 45 68 45t73 -19q34 -20 33 -40q0 -20 -24 -45l-152 -150q-41 -39 -88 -39z" />
    <glyph glyph-name="OE" unicode="&#x152;" horiz-adv-x="2316" 
d="M901 150h283v1134h-283q-266 0 -430 -160t-164 -403v-4q0 -243 164 -405t430 -162zM901 0q-336 0 -549 203t-213 510v4q0 307 214 512t548 205h1217q30 0 52 -22t22 -52t-22 -52t-52 -22h-772v-489h679q31 0 53 -23q22 -22 22 -52t-22 -52t-53 -21h-679v-502h782
q30 1 52 -21t22 -52t-22 -52t-52 -22h-1227z" />
    <glyph glyph-name="oe" unicode="&#x153;" horiz-adv-x="2148" 
d="M1577 -25q-147 0 -269 76t-188 209q-66 -129 -190 -207t-277 -78q-229 0 -386 162t-156 387v4q0 227 158 391q159 163 390 162q152 -1 275 -77t188 -203q61 129 176 205t258 75q225 0 359 -157q133 -158 133 -379q0 -31 -23 -53t-53 -21h-764q14 -166 120 -262t263 -96
q158 0 295 123q24 18 48 18t44 -20t20 -48t-22 -51q-170 -160 -399 -160zM272 528q0 -172 113 -292t279 -119q166 0 274 119t109 288v4q0 172 -113 293t-279 121q-167 0 -275 -120t-108 -290v-4zM1558 948q-144 0 -240 -101t-112 -259h682q-12 156 -99 258t-231 102z" />
    <glyph glyph-name="Racute" unicode="&#x154;" horiz-adv-x="1480" 
d="M736 1552q-48 0 -48 29q0 16 10 31l123 186q31 47 71 47t77 -20q37 -19 37 -39t-29 -49l-154 -146q-39 -39 -87 -39zM365 702h440q164 0 266 80t103 215v4q0 133 -98 208t-269 75h-442v-582zM203 72v1280q-1 34 23 58t57 24h536q264 0 408 -144q111 -111 110 -282v-4
q0 -170 -103 -276t-280 -140l357 -459q55 -64 1 -116q-26 -23 -63 -23t-69 43l-404 524h-411v-485q0 -35 -25 -59q-26 -23 -58 -23t-56 24q-23 25 -23 58z" />
    <glyph glyph-name="racute" unicode="&#x155;" horiz-adv-x="829" 
d="M176 70v919q0 33 23 57t55 24t56 -24q24 -22 24 -57v-198q58 129 160 205t204 77q35 -1 57 -23q21 -22 21 -56t-19 -56t-50 -25q-165 -20 -269 -143t-104 -340v-360q0 -33 -23 -57q-23 -23 -57 -23t-56 24t-22 56zM445 1210q-48 0 -48 29q0 16 11 31l122 186q31 47 71 47
t77 -20q37 -19 37 -39t-29 -49l-154 -146q-39 -39 -87 -39z" />
    <glyph glyph-name="Rcommaaccent" unicode="&#x156;" horiz-adv-x="1480" 
d="M637 -221v10q0 37 27 63q26 26 68 26t69 -30q27 -29 26 -77v-11q0 -175 -136 -228q-44 -17 -80 -17q-36 -1 -36 27t47 40q101 26 97 113q-82 14 -82 84zM365 702h440q164 0 266 80t103 215v4q0 133 -98 208t-269 75h-442v-582zM203 72v1280q-1 34 23 58t57 24h536
q264 0 408 -144q111 -111 110 -282v-4q0 -170 -103 -276t-280 -140l357 -459q55 -64 1 -116q-26 -23 -63 -23t-69 43l-404 524h-411v-485q0 -35 -25 -59q-26 -23 -58 -23t-56 24q-23 25 -23 58z" />
    <glyph glyph-name="rcommaaccent" unicode="&#x157;" horiz-adv-x="829" 
d="M176 70v919q0 33 23 57t55 24t56 -24q24 -22 24 -57v-198q58 129 160 205t204 77q35 -1 57 -23q21 -22 21 -56t-19 -56t-50 -25q-165 -20 -269 -143t-104 -340v-360q0 -33 -23 -57q-23 -23 -57 -23t-56 24t-22 56zM176 -231v10q0 37 27 63t69 25q42 0 68 -29
q27 -29 27 -78v-10q0 -175 -137 -228q-44 -18 -80 -18t-35 28q0 28 47 40q100 25 96 113q-82 14 -82 84z" />
    <glyph glyph-name="Rcaron" unicode="&#x158;" horiz-adv-x="1480" 
d="M942 1837q47 0 47 -29q0 -10 -14 -32l-144 -177q-37 -47 -81 -47h-37q-45 0 -82 47l-144 177q-14 23 -14 32q0 29 49 29t90 -37l121 -108l121 108q41 37 88 37zM365 702h440q164 0 266 80t103 215v4q0 133 -98 208t-269 75h-442v-582zM203 72v1280q-1 34 23 58t57 24h536
q264 0 408 -144q111 -111 110 -282v-4q0 -170 -103 -276t-280 -140l357 -459q55 -64 1 -116q-26 -23 -63 -23t-69 43l-404 524h-411v-485q0 -35 -25 -59q-26 -23 -58 -23t-56 24q-23 25 -23 58z" />
    <glyph glyph-name="rcaron" unicode="&#x159;" horiz-adv-x="829" 
d="M176 70v919q0 33 23 57t55 24t56 -24q24 -22 24 -57v-198q58 129 160 205t204 77q35 -1 57 -23q21 -22 21 -56t-19 -56t-50 -25q-165 -20 -269 -143t-104 -340v-360q0 -33 -23 -57q-23 -23 -57 -23t-56 24t-22 56zM654 1495q48 0 46 -29q0 -12 -14 -32l-143 -177
q-37 -47 -82 -47h-37q-45 0 -82 47l-143 177q-14 20 -15 32q0 29 49 29t91 -37l120 -108l121 108q41 37 89 37z" />
    <glyph glyph-name="Sacute" unicode="&#x15a;" horiz-adv-x="1310" 
d="M694 -20q-301 0 -542 192q-31 20 -31 57t22 61q23 24 55 24t50 -19q201 -170 452 -170q143 0 232 69q88 69 88 175v4q0 103 -78 165t-314 112t-348 144q-114 94 -114 265v4q0 171 133 281t338 110q260 0 457 -141q34 -27 34 -63t-22 -58t-52 -23q-30 0 -50 15
q-172 125 -371 125q-137 0 -221 -67t-84 -165v-4q0 -105 81 -167t317 -113t346 -147q112 -96 112 -257v-4q0 -182 -137 -294q-138 -111 -353 -111zM673 1573q-48 0 -48 29q0 16 10 30l123 187q30 47 70 47t77 -20t37 -40t-29 -49l-153 -145q-39 -39 -87 -39z" />
    <glyph glyph-name="sacute" unicode="&#x15b;" horiz-adv-x="1019" 
d="M526 -20q-221 0 -407 133q-29 20 -29 53t20 52q20 20 48 20q27 0 41 -13q166 -113 336 -112q96 0 157 46t62 122v4q0 73 -67 111t-173 68t-152 48q-47 18 -106 52q-117 67 -117 206v4q-1 135 101 219t267 84t331 -90q39 -23 39 -59q-1 -36 -21 -54q-20 -20 -44 -20t-40 8
q-144 82 -256 82t-168 -43t-57 -110v-5q0 -97 189 -154t256 -92q67 -34 97 -64q70 -69 70 -175v-4q-1 -147 -107 -232t-270 -85zM521 1210q-48 0 -48 29q0 16 10 31l123 186q31 47 71 47t77 -20q37 -19 37 -39t-29 -49l-154 -146q-39 -39 -87 -39z" />
    <glyph glyph-name="Scedilla" unicode="&#x15e;" horiz-adv-x="1310" 
d="M1184 385q0 -172 -123 -282t-320 -121l-110 -240q-25 -47 -60 -47q-35 -1 -69 21t-33 40q0 18 12 41l127 187q-252 25 -456 188q-31 20 -31 57t22 61q23 24 55 24t50 -19q201 -170 452 -170q143 0 232 69q88 69 88 175v4q0 103 -78 165t-314 112t-348 144
q-114 94 -114 265v4q0 171 133 281t338 110q260 0 457 -141q34 -27 34 -63t-22 -58t-52 -23q-30 0 -50 15q-172 125 -371 125q-137 0 -221 -67t-84 -165v-4q0 -105 81 -167t317 -113t346 -147q112 -96 112 -257v-4z" />
    <glyph glyph-name="scedilla" unicode="&#x15f;" horiz-adv-x="1019" 
d="M903 297q0 -137 -94 -221t-242 -94l-110 -240q-23 -47 -59 -47q-36 -1 -70 21t-33 40q0 18 12 41l129 189q-178 27 -317 127q-29 20 -29 53t20 52q20 20 48 20q27 0 41 -13q166 -113 336 -112q96 0 157 46t62 122v4q0 73 -67 111t-173 68t-152 48q-47 18 -106 52
q-117 67 -117 206v4q-1 135 101 219t267 84t331 -90q39 -23 39 -59q-1 -36 -21 -54q-20 -20 -44 -20t-40 8q-144 82 -256 82t-168 -43t-57 -110v-5q0 -97 189 -154t256 -92q67 -34 97 -64q70 -69 70 -175v-4z" />
    <glyph glyph-name="Scaron" unicode="&#x160;" horiz-adv-x="1310" 
d="M694 -20q-301 0 -542 192q-31 20 -31 57t22 61q23 24 55 24t50 -19q201 -170 452 -170q143 0 232 69q88 69 88 175v4q0 103 -78 165t-314 112t-348 144q-114 94 -114 265v4q0 171 133 281t338 110q260 0 457 -141q34 -27 34 -63t-22 -58t-52 -23q-30 0 -50 15
q-172 125 -371 125q-137 0 -221 -67t-84 -165v-4q0 -105 81 -167t317 -113t346 -147q112 -96 112 -257v-4q0 -182 -137 -294q-138 -111 -353 -111zM879 1858q47 0 47 -29q0 -10 -15 -33l-143 -176q-37 -47 -82 -47h-37q-45 0 -82 47l-143 176q-14 23 -14 33q0 29 49 29
t90 -37l121 -109l121 109q41 37 88 37z" />
    <glyph glyph-name="scaron" unicode="&#x161;" horiz-adv-x="1019" 
d="M526 -20q-221 0 -407 133q-29 20 -29 53t20 52q20 20 48 20q27 0 41 -13q166 -113 336 -112q96 0 157 46t62 122v4q0 73 -67 111t-173 68t-152 48q-47 18 -106 52q-117 67 -117 206v4q-1 135 101 219t267 84t331 -90q39 -23 39 -59q-1 -36 -21 -54q-20 -20 -44 -20t-40 8
q-144 82 -256 82t-168 -43t-57 -110v-5q0 -97 189 -154t256 -92q67 -34 97 -64q70 -69 70 -175v-4q-1 -147 -107 -232t-270 -85zM727 1495q47 0 47 -29q0 -12 -14 -32l-144 -177q-37 -47 -81 -47h-37q-45 0 -82 47l-144 177q-14 20 -14 32q0 29 49 29t90 -37l121 -108
l121 108q41 37 88 37z" />
    <glyph glyph-name="Tcommaaccent" unicode="&#x162;" horiz-adv-x="1327" 
d="M582 72v1212h-416q-32 0 -54 22t-22 52t23 54q23 22 53 22h995q31 0 53 -23t23 -53q0 -30 -23 -52t-53 -22h-416v-1212q-1 -35 -25 -59q-24 -23 -56 -23t-58 23q-24 24 -24 59zM567 -231v10q0 37 27 63t69 25q43 0 69 -29t26 -78v-10q0 -174 -136 -228q-44 -18 -80 -18
t-36 28t47 40q100 25 96 113q-82 14 -82 84z" />
    <glyph glyph-name="tcommaaccent" unicode="&#x163;" horiz-adv-x="827" 
d="M530 -18q-137 0 -218 72t-81 227v639h-86q-27 0 -49 22t-20 48q0 28 20 48t49 21h86v250q0 33 23 57q24 24 56 23q32 0 56 -24t23 -56v-250h275q28 -1 50 -21t22 -49t-22 -49t-50 -20h-275v-619q0 -176 178 -176q33 0 64 6l33 8q29 0 48 -20t19 -56t-45 -53
q-70 -28 -156 -28zM367 -231v10q1 37 27 63t68 25q42 0 68 -29t27 -78v-10q0 -175 -136 -228q-44 -18 -80 -18t-36 28t47 40q101 26 97 113q-82 14 -82 84z" />
    <glyph glyph-name="Tcaron" unicode="&#x164;" horiz-adv-x="1327" 
d="M582 72v1212h-416q-32 0 -54 22t-22 52t23 54q23 22 53 22h995q31 0 53 -23t23 -53q0 -30 -23 -52t-53 -22h-416v-1212q-1 -35 -25 -59q-24 -23 -56 -23t-58 23q-24 24 -24 59zM874 1837q48 0 48 -29q0 -10 -15 -32l-143 -177q-37 -47 -82 -47h-37q-45 0 -82 47l-143 177
q-14 23 -14 32q0 29 48 29t91 -37l121 -108l120 108q40 37 88 37z" />
    <glyph glyph-name="tcaron" unicode="&#x165;" horiz-adv-x="827" 
d="M530 -18q-137 0 -218 72t-81 227v639h-86q-27 0 -49 22t-20 48q0 28 20 48t49 21h86v250q0 33 23 57q24 24 56 23q32 0 56 -24t23 -56v-250h275q28 -1 50 -21t22 -49t-22 -49t-50 -20h-275v-619q0 -176 178 -176q33 0 64 6l33 8q29 0 48 -20t19 -56t-45 -53
q-70 -28 -156 -28zM692 1536h31q45 0 45 -43q0 -18 -10 -49l-72 -217q-12 -41 -45 -41q-43 0 -37 47l19 237q6 66 69 66z" />
    <glyph glyph-name="Umacron" unicode="&#x16a;" horiz-adv-x="1554" 
d="M1047 1602h-541q-27 0 -46 19t-20 46q0 27 20 46t46 20h541q27 1 46 -19t19 -47t-19 -46t-46 -19zM777 -23q-273 0 -435 163t-162 460v762q0 34 24 58t58 24t56 -24q24 -24 24 -58v-752q0 -229 117 -356t321 -127t318 121q115 121 114 352v762q0 34 25 58t57 24t57 -25
q24 -25 23 -57v-750q0 -307 -162 -471t-435 -164z" />
    <glyph glyph-name="umacron" unicode="&#x16b;" horiz-adv-x="1261" 
d="M891 1260h-541q-27 0 -46 19t-19 46t19 46t46 20h541q27 1 46 -19t19 -47t-19 -46t-46 -19zM1083 989v-919q-1 -33 -23 -57q-22 -23 -54 -23t-56 24q-23 24 -22 56v114q-129 -207 -363 -207q-188 0 -297 116t-108 308v588q0 35 22 58q23 23 56 23q32 0 56 -24t23 -57
v-549q0 -150 77 -234t215 -85q138 0 229 92q90 92 90 240v536q0 35 22 58q23 23 56 23t55 -24t22 -57z" />
    <glyph glyph-name="Ubreve" unicode="&#x16c;" horiz-adv-x="1554" 
d="M776 1552q-188 0 -270 150q-20 35 -20 67q-1 66 57 66q37 0 57 -39q45 -113 176 -113t176 113q20 39 52 39q62 0 63 -61q0 -37 -20 -72q-83 -150 -271 -150zM777 -23q-273 0 -435 163t-162 460v762q0 34 24 58t58 24t56 -24q24 -24 24 -58v-752q0 -229 117 -356t321 -127
t318 121q115 121 114 352v762q0 34 25 58t57 24t57 -25q24 -25 23 -57v-750q0 -307 -162 -471t-435 -164z" />
    <glyph glyph-name="ubreve" unicode="&#x16d;" horiz-adv-x="1261" 
d="M621 1214q-188 0 -271 150q-20 35 -20 67q0 66 57 66q37 0 57 -39q44 -112 176 -112t177 112q20 39 52 39q62 0 62 -61q0 -37 -20 -72q-82 -150 -270 -150zM1083 989v-919q-1 -33 -23 -57q-22 -23 -54 -23t-56 24q-23 24 -22 56v114q-129 -207 -363 -207q-188 0 -297 116
t-108 308v588q0 35 22 58q23 23 56 23q32 0 56 -24t23 -57v-549q0 -150 77 -234t215 -85q138 0 229 92q90 92 90 240v536q0 35 22 58q23 23 56 23t55 -24t22 -57z" />
    <glyph glyph-name="Uring" unicode="&#x16e;" horiz-adv-x="1554" 
d="M777 -23q-273 0 -435 163t-162 460v762q0 34 24 58t58 24t56 -24q24 -24 24 -58v-752q0 -229 117 -356t321 -127t318 121q115 121 114 352v762q0 34 25 58t57 24t57 -25q24 -25 23 -57v-750q0 -307 -162 -471t-435 -164zM776 1610q51 0 89 37t38 88v4q0 51 -38 88t-89 37
t-89 -37t-38 -88v-4q0 -51 38 -88t89 -37zM776 1532q-86 0 -149 60t-64 143v4q-1 82 63 142q64 61 150 61t150 -60t63 -143v-4q0 -82 -63 -143q-64 -60 -150 -60z" />
    <glyph glyph-name="uring" unicode="&#x16f;" horiz-adv-x="1261" 
d="M1083 989v-919q-1 -33 -23 -57q-22 -23 -54 -23t-56 24q-23 24 -22 56v114q-129 -207 -363 -207q-188 0 -297 116t-108 308v588q0 35 22 58q23 23 56 23q32 0 56 -24t23 -57v-549q0 -150 77 -234t215 -85q138 0 229 92q90 92 90 240v536q0 35 22 58q23 23 56 23t55 -24
t22 -57zM621 1286q51 0 89 37t38 88v4q0 51 -38 88t-89 37t-89 -37t-38 -88v-4q0 -51 38 -88t89 -37zM621 1208q-85 0 -149 60t-64 143v4q0 83 63 143t149 60t150 -60q63 -60 64 -143v-4q0 -83 -64 -143t-149 -60z" />
    <glyph glyph-name="Uhungarumlaut" unicode="&#x170;" horiz-adv-x="1554" 
d="M588 1552q-47 0 -47 29q0 14 12 31l125 188q29 45 68 45q38 0 72 -19q34 -20 34 -40t-25 -45l-151 -150q-41 -39 -88 -39zM924 1552q-47 0 -47 29q0 14 12 31l125 188q30 45 68 45t72 -19q34 -20 34 -40t-25 -45l-151 -150q-41 -39 -88 -39zM777 -23q-273 0 -435 163
t-162 460v762q0 34 24 58t58 24t56 -24q24 -24 24 -58v-752q0 -229 117 -356t321 -127t318 121q115 121 114 352v762q0 34 25 58t57 24t57 -25q24 -25 23 -57v-750q0 -307 -162 -471t-435 -164z" />
    <glyph glyph-name="uhungarumlaut" unicode="&#x171;" horiz-adv-x="1261" 
d="M432 1210q-47 0 -47 29q0 14 12 31l125 188q29 45 68 45t73 -19q59 -33 9 -85l-152 -150q-41 -39 -88 -39zM768 1210q-47 0 -47 29q0 14 12 31l125 188q29 45 68 45q38 0 72 -19q34 -20 34 -40t-24 -45l-152 -150q-41 -39 -88 -39zM1083 989v-919q-1 -33 -23 -57
q-22 -23 -54 -23t-56 24q-23 24 -22 56v114q-129 -207 -363 -207q-188 0 -297 116t-108 308v588q0 35 22 58q23 23 56 23q32 0 56 -24t23 -57v-549q0 -150 77 -234t215 -85q138 0 229 92q90 92 90 240v536q0 35 22 58q23 23 56 23t55 -24t22 -57z" />
    <glyph glyph-name="Uogonek" unicode="&#x172;" horiz-adv-x="1554" 
d="M623 -177q0 83 75 159q-240 22 -379 182t-139 436v762q0 34 24 58t58 24t56 -24q24 -24 24 -58v-752q0 -229 117 -356t321 -127t318 121q115 121 114 352v762q0 34 25 58t57 24t57 -25q24 -25 23 -57v-750q0 -292 -145 -454t-395 -178q-76 -68 -76 -130q0 -70 102 -90
q59 -12 60 -49q0 -47 -58 -47q-82 0 -161 38q-78 38 -78 121z" />
    <glyph glyph-name="uogonek" unicode="&#x173;" horiz-adv-x="1261" 
d="M1083 989v-926q0 -39 -34 -71q-91 -78 -91 -145t101 -87q59 -10 59 -49q0 -47 -51 -47q-123 0 -197 62q-47 39 -47 100q0 96 119 192q-14 12 -14 162v4q-129 -207 -363 -207q-188 0 -297 116t-108 308v588q0 35 22 58q23 23 56 23q32 0 56 -24t23 -57v-549
q0 -150 77 -234t215 -85q138 0 229 92q90 92 90 240v536q0 35 22 58q23 23 56 23t55 -24t22 -57z" />
    <glyph glyph-name="Wcircumflex" unicode="&#x174;" horiz-adv-x="2254" 
d="M109 1372q-1 22 25 48q26 24 59 24q61 0 83 -68l396 -1138l375 1142q20 63 79 64h11q59 0 80 -64l374 -1142l398 1142q20 63 77 64q33 0 58 -25q24 -25 24 -44t-10 -50l-459 -1274q-25 -70 -84 -69h-12q-59 0 -84 69l-373 1102l-370 -1102q-25 -70 -84 -69h-13
q-61 -1 -84 69l-458 1274q-8 25 -8 47zM916 1552q-48 0 -48 29q0 10 15 35l143 176q39 45 82 45h37q43 0 82 -45l143 -176q14 -25 14 -35q0 -29 -48 -29t-91 39l-121 107l-120 -107q-40 -39 -88 -39z" />
    <glyph glyph-name="wcircumflex" unicode="&#x175;" horiz-adv-x="1757" 
d="M522 -16q-63 0 -88 71l-321 895q-11 30 -11 52t23 45t57 22q59 0 80 -65l266 -795l269 797q20 63 77 63h9q61 0 82 -63l266 -797l270 799q18 61 76 61q33 1 55 -21t23 -44q0 -22 -10 -52l-324 -897q-25 -72 -86 -71h-6q-63 0 -86 71l-264 772l-267 -772q-23 -72 -86 -71
h-4zM666 1210q-48 0 -48 29q0 10 15 35l143 176q39 45 82 45h37q43 0 82 -45l143 -176q14 -25 15 -35q0 -29 -49 -29t-91 39l-121 107l-120 -107q-40 -39 -88 -39z" />
    <glyph glyph-name="Ycircumflex" unicode="&#x176;" horiz-adv-x="1449" 
d="M514 1552q-47 0 -47 29q0 10 14 35l144 176q39 45 82 45h36q43 0 82 -45l144 -176q14 -25 14 -35q0 -29 -49 -29t-90 39l-121 107l-121 -107q-41 -39 -88 -39zM643 72v491l-532 746q-42 67 6 111q25 24 63 24t74 -49l473 -682l477 682q35 49 72 49q36 0 60 -24t24 -52
t-23 -63l-530 -738v-495q0 -35 -25 -59q-26 -23 -58 -23t-56 24t-25 58z" />
    <glyph glyph-name="ycircumflex" unicode="&#x177;" horiz-adv-x="1202" 
d="M395 1210q-47 0 -47 29q0 10 14 35l144 176q39 45 82 45h37q43 0 82 -45l143 -176q14 -25 14 -35q0 -29 -49 -29t-90 39l-121 107l-121 -107q-41 -39 -88 -39zM348 -334q-104 0 -192 31q-50 20 -50 58q0 37 20 57t42 20q20 0 60 -13t106 -13t114 43q48 44 93 145l8 16
l-443 938q-10 24 -10 50t24 49t56 22q55 0 80 -61l369 -832l327 834q23 59 76 59q34 -1 56 -23t22 -46t-8 -48l-414 -987q-68 -163 -150 -231t-186 -68z" />
    <glyph glyph-name="Ydieresis" unicode="&#x178;" horiz-adv-x="1449" 
d="M543 1765q41 -1 69 -27t27 -65v-31q0 -40 -28 -66q-29 -26 -69 -26t-68 27t-28 65v31q0 39 28 65t69 27zM907 1765q41 -1 69 -27t28 -65v-31q0 -40 -28 -66t-69 -26t-69 27t-27 65v31q-1 39 27 65t69 27zM643 72v491l-532 746q-42 67 6 111q25 24 63 24t74 -49l473 -682
l477 682q35 49 72 49q36 0 60 -24t24 -52t-23 -63l-530 -738v-495q0 -35 -25 -59q-26 -23 -58 -23t-56 24t-25 58z" />
    <glyph glyph-name="Zacute" unicode="&#x179;" horiz-adv-x="1419" 
d="M213 0q-31 0 -53 20t-23 50v4q0 37 29 71l899 1143h-832q-31 0 -53 22t-20 52q0 30 22 50q22 22 51 22h977q29 0 52 -22t22 -48v-4q0 -37 -29 -72l-899 -1143h865q31 1 53 -21t20 -52q0 -30 -22 -50q-22 -22 -51 -22h-1008zM730 1552q-48 0 -48 29q0 16 10 31l123 186
q31 47 71 47t77 -20q37 -19 37 -39t-29 -49l-154 -146q-39 -39 -87 -39z" />
    <glyph glyph-name="zacute" unicode="&#x17a;" horiz-adv-x="1138" 
d="M190 0q-32 0 -54 18t-21 45v5q0 37 32 71l670 787h-618q-29 0 -48 19t-19 47t20 47t47 20h755q33 -1 55 -19t21 -45v-4q0 -37 -33 -71l-669 -787h645q27 0 47 -19t20 -46q0 -28 -20 -48t-47 -20h-783zM582 1210q-48 0 -47 29q0 16 10 31l123 186q30 47 70 47t77 -20
q37 -19 37 -39t-29 -49l-153 -146q-40 -39 -88 -39z" />
    <glyph glyph-name="Zdotaccent" unicode="&#x17b;" horiz-adv-x="1419" 
d="M823 1673v-28q-1 -41 -29 -68t-69 -27t-70 27t-28 68v28q0 41 27 67q28 26 71 26t71 -26q27 -26 27 -67zM213 0q-31 0 -53 20t-23 50v4q0 37 29 71l899 1143h-832q-31 0 -53 22t-20 52q0 30 22 50q22 22 51 22h977q29 0 52 -22t22 -48v-4q0 -37 -29 -72l-899 -1143h865
q31 1 53 -21t20 -52q0 -30 -22 -50q-22 -22 -51 -22h-1008z" />
    <glyph glyph-name="zdotaccent" unicode="&#x17c;" horiz-adv-x="1138" 
d="M676 1331v-28q0 -41 -29 -68t-69 -27t-70 27q-29 27 -29 68v28q0 41 28 67t71 26q42 0 70 -26t28 -67zM190 0q-32 0 -54 18t-21 45v5q0 37 32 71l670 787h-618q-29 0 -48 19t-19 47t20 47t47 20h755q33 -1 55 -19t21 -45v-4q0 -37 -33 -71l-669 -787h645q27 0 47 -19
t20 -46q0 -28 -20 -48t-47 -20h-783z" />
    <glyph glyph-name="Zcaron" unicode="&#x17d;" horiz-adv-x="1419" 
d="M213 0q-31 0 -53 20t-23 50v4q0 37 29 71l899 1143h-832q-31 0 -53 22t-20 52q0 30 22 50q22 22 51 22h977q29 0 52 -22t22 -48v-4q0 -37 -29 -72l-899 -1143h865q31 1 53 -21t20 -52q0 -30 -22 -50q-22 -22 -51 -22h-1008zM936 1837q47 0 47 -29q0 -10 -14 -32
l-144 -177q-37 -47 -82 -47h-36q-45 0 -82 47l-144 177q-14 23 -14 32q0 29 49 29t90 -37l121 -108l121 108q41 37 88 37z" />
    <glyph glyph-name="zcaron" unicode="&#x17e;" horiz-adv-x="1138" 
d="M190 0q-32 0 -54 18t-21 45v5q0 37 32 71l670 787h-618q-29 0 -48 19t-19 47t20 47t47 20h755q33 -1 55 -19t21 -45v-4q0 -37 -33 -71l-669 -787h645q27 0 47 -19t20 -46q0 -28 -20 -48t-47 -20h-783zM788 1495q48 0 48 -29q0 -12 -15 -32l-143 -177q-37 -47 -82 -47h-37
q-45 0 -82 47l-143 177q-14 20 -15 32q0 29 49 29t91 -37l121 -108l120 108q40 37 88 37z" />
    <glyph glyph-name="florin" unicode="&#x192;" horiz-adv-x="1052" 
d="M203 -12q-47 0 -74 18t-27 49q0 63 80 68q125 4 152 156l90 485h-141q-29 0 -50 20q-20 20 -20 48t20 48t50 21h163l48 246q30 155 106 227t210 72t162 -34q17 -19 17 -46t-19 -47q-18 -21 -34 -21t-46 6t-52 5q-80 0 -123 -43t-62 -144l-41 -221h236q29 0 49 -20
q21 -21 21 -49t-20 -48t-50 -20h-260l-92 -502q-53 -274 -293 -274z" />
    <glyph glyph-name="Aringacute" unicode="&#x1fa;" horiz-adv-x="1617" 
d="M475 526h660l-328 734zM809 1444q51 0 89 37t38 88v4q0 51 -38 88t-89 37t-89 -37t-38 -88v-4q0 -51 38 -88t89 -37zM1505 62q1 -22 -23 -48q-24 -24 -65 -24t-69 59l-148 330h-788l-150 -334q-23 -55 -76 -55q-32 0 -54 22t-22 44q0 20 9 44l590 1293q-51 25 -82 73
t-31 103v4q0 82 63 142q63 61 149 61t150 -60q63 -60 64 -143v-4q0 -55 -31 -103t-82 -73l590 -1291q6 -18 6 -40zM814 1837q-48 0 -48 29q0 16 10 30l123 187q31 47 71 47t77 -20t37 -40t-29 -49l-154 -145q-39 -39 -87 -39z" />
    <glyph glyph-name="aringacute" unicode="&#x1fb;" horiz-adv-x="1185" 
d="M597 1694q-48 0 -48 28q0 16 10 31l123 186q54 81 147 27q37 -20 37 -40t-28 -48l-154 -145q-39 -39 -87 -39zM592 1292q51 0 89 37t38 88v4q0 51 -38 88t-89 37t-89 -37t-38 -88v-4q0 -51 38 -88t89 -37zM592 1214q-86 0 -150 60t-63 143v4q0 83 63 143q64 60 150 60
t149 -60t64 -143v-4q1 -83 -63 -143t-150 -60zM256 313q0 -95 76 -153t207 -58q130 0 234 81q103 81 104 206v103q-155 45 -307 45q-152 1 -233 -59t-81 -161v-4zM492 -23q-160 1 -278 89t-118 241v4q0 164 123 253t309 89t346 -45v37q0 141 -81 215q-83 74 -229 74
t-279 -60q-14 -6 -36 -6t-42 20q-21 20 -21 59q0 38 43 54q166 72 346 72q225 0 339 -113t112 -313v-579q0 -33 -22 -56q-22 -22 -54 -22t-54 22t-22 51v97q-138 -183 -382 -183z" />
    <glyph glyph-name="AEacute" unicode="&#x1fc;" horiz-adv-x="2140" 
d="M1006 526v764h-48l-452 -764h500zM70 50q0 20 14 54l762 1276q33 53 90 54h1006q30 0 52 -22t22 -52t-22 -52t-52 -22h-773v-489h680q31 0 53 -23q22 -22 22 -52t-22 -52t-53 -21h-680v-502h783q30 1 52 -21t22 -52t-22 -52t-52 -22h-865q-35 0 -59 25t-22 57v297h-586
l-207 -346q-19 -43 -59 -43t-62 20t-22 40zM1293 1552q-48 0 -48 29q0 16 10 31l123 186q31 47 71 47t77 -20q37 -19 37 -39t-29 -49l-154 -146q-39 -39 -87 -39z" />
    <glyph glyph-name="aeacute" unicode="&#x1fd;" horiz-adv-x="1951" 
d="M1378 -25q-128 1 -238 57t-182 156q-203 -211 -462 -211q-164 -1 -282 87t-118 243v4q0 164 122 253t300 89t336 -45v37q0 141 -79 215t-219 74t-271 -60q-14 -6 -36 -6t-42 20q-21 20 -21 59q0 38 43 54q160 72 336 72q309 0 389 -227q64 109 170 172t236 63
q225 1 358 -157t133 -379q-1 -31 -23 -53t-52 -21h-764q14 -166 120 -262t262 -96q158 0 296 123q24 18 48 18t44 -20t20 -48t-22 -51q-170 -160 -402 -160zM514 104q213 0 381 189q-37 92 -43 201q-164 43 -301 43q-137 1 -216 -59t-79 -161v-4q0 -97 74 -153t184 -56z
M1361 948q-143 0 -239 -101t-112 -259h682q-12 156 -100 258t-231 102zM978 1210q-48 0 -48 29q0 16 10 31l123 186q31 47 71 47t76 -20q36 -19 37 -39q0 -20 -28 -49l-154 -146q-39 -39 -87 -39z" />
    <glyph glyph-name="Oslashacute" unicode="&#x1fe;" horiz-adv-x="1740" 
d="M873 1573q-48 0 -48 29q0 16 11 30l122 187q31 47 71 47t77 -20t37 -40t-29 -49l-153 -145q-40 -39 -88 -39zM872 123q242 0 402 171t160 419v4q0 217 -125 377l-793 -844q149 -127 356 -127zM307 717q0 -217 125 -377l793 842q-156 129 -357 129q-242 0 -402 -171
t-159 -419v-4zM868 -25q-264 0 -458 156l-123 -127q-25 -24 -51 -24t-45 17q-17 17 -17 44t21 47l122 131q-178 203 -178 494v4q0 305 207 523t526 218q264 0 459 -158l123 130q26 24 52 24t43 -17t17 -44t-20 -47l-125 -134q180 -207 181 -491v-4q0 -305 -208 -523
t-526 -219z" />
    <glyph glyph-name="oslashacute" unicode="&#x1ff;" horiz-adv-x="1323" 
d="M666 1210q-48 0 -48 29q0 16 11 31l123 186q30 47 70 47t77 -20q37 -19 37 -39t-29 -49l-153 -146q-40 -39 -88 -39zM664 115q170 -1 280 119t111 290v4q0 137 -78 248l-555 -575q107 -86 242 -86zM270 528q0 -141 76 -247l557 577q-106 86 -260 86q-153 0 -263 -120
t-110 -292v-4zM659 -25q-190 0 -340 113l-81 -84q-25 -24 -50 -24t-42 15t-17 41t23 44l86 88q-127 150 -127 356v4q0 227 158 391q159 163 395 162q188 0 337 -112l84 88q25 25 51 25t42 -16q16 -15 16 -40t-20 -45l-89 -92q129 -152 129 -357v-4q0 -227 -160 -390
t-395 -163z" />
    <glyph glyph-name="Scommaaccent" unicode="&#x218;" horiz-adv-x="1310" 
d="M694 -20q-301 0 -542 192q-31 20 -31 57t22 61q23 24 55 24t50 -19q201 -170 452 -170q143 0 232 69q88 69 88 175v4q0 103 -78 165t-314 112t-348 144q-114 94 -114 265v4q0 171 133 281t338 110q260 0 457 -141q34 -27 34 -63t-22 -58t-52 -23q-30 0 -50 15
q-172 125 -371 125q-137 0 -221 -67t-84 -165v-4q0 -105 81 -167t317 -113t346 -147q112 -96 112 -257v-4q0 -182 -137 -294q-138 -111 -353 -111zM573 -233v10q0 37 27 63t69 25q43 0 69 -29t26 -78v-10q0 -174 -136 -228q-44 -18 -80 -18t-36 28t47 40q100 25 96 113
q-82 14 -82 84z" />
    <glyph glyph-name="scommaaccent" unicode="&#x219;" horiz-adv-x="1019" 
d="M526 -20q-221 0 -407 133q-29 20 -29 53t20 52q20 20 48 20q27 0 41 -13q166 -113 336 -112q96 0 157 46t62 122v4q0 73 -67 111t-173 68t-152 48q-47 18 -106 52q-117 67 -117 206v4q-1 135 101 219t267 84t331 -90q39 -23 39 -59q-1 -36 -21 -54q-20 -20 -44 -20t-40 8
q-144 82 -256 82t-168 -43t-57 -110v-5q0 -97 189 -154t256 -92q67 -34 97 -64q70 -69 70 -175v-4q-1 -147 -107 -232t-270 -85zM420 -231v10q0 37 26 63t69 25q42 0 69 -29t26 -78v-10q0 -175 -136 -228q-44 -18 -80 -18t-36 28t47 40q101 26 97 113q-82 14 -82 84z" />
    <glyph glyph-name="schwa" unicode="&#x259;" horiz-adv-x="1212" 
d="M1100 532v-4q0 -231 -146 -391t-366 -160q-221 0 -355 158q-133 158 -133 379q0 30 22 52t52 22h766q-16 168 -122 263t-264 95q-159 0 -292 -123q-22 -18 -48 -18t-46 19q-20 20 -20 50t24 50q166 160 394 160t381 -156q153 -154 153 -396zM590 111q144 0 238 102
q96 102 112 258h-682q12 -156 100 -258t232 -102z" />
    <glyph glyph-name="circumflex" unicode="&#x2c6;" horiz-adv-x="1024" 
d="M301 1210q-47 0 -47 29q0 10 14 35l144 176q39 45 82 45h36q43 0 82 -45l144 -176q14 -25 14 -35q0 -29 -49 -29t-90 39l-121 107l-121 -107q-41 -39 -88 -39z" />
    <glyph glyph-name="caron" unicode="&#x2c7;" horiz-adv-x="1024" 
d="M723 1495q47 0 47 -29q0 -12 -14 -32l-144 -177q-37 -47 -82 -47h-36q-45 0 -82 47l-144 177q-14 20 -14 32q0 29 49 29t90 -37l121 -108l121 108q41 37 88 37z" />
    <glyph glyph-name="breve" unicode="&#x2d8;" horiz-adv-x="1024" 
d="M745 1497q56 0 58 -61q0 -37 -21 -72q-82 -150 -270 -150t-270 150q-20 35 -20 67q-1 66 57 66q37 0 57 -39q45 -112 176 -112t176 112q20 39 57 39z" />
    <glyph glyph-name="dotaccent" unicode="&#x2d9;" horiz-adv-x="1024" 
d="M610 1331v-28q0 -41 -28 -68t-70 -27q-41 0 -70 27t-28 68v28q0 41 27 67q28 26 71 26t71 -26q27 -26 27 -67z" />
    <glyph glyph-name="ring" unicode="&#x2da;" horiz-adv-x="1024" 
d="M512 1292q51 0 89 37t38 88v4q0 51 -38 88t-89 37t-89 -37t-38 -88v-4q0 -51 38 -88t89 -37zM512 1214q-86 0 -150 60t-63 143v4q0 83 63 143q64 60 150 60t150 -60t63 -143v-4q1 -83 -63 -143t-150 -60z" />
    <glyph glyph-name="ogonek" unicode="&#x2db;" horiz-adv-x="1024" 
d="M389 -170q0 90 133 203l109 -27q-107 -88 -107 -157t103 -89q59 -12 59 -49q0 -47 -57 -47q-82 0 -161 38t-79 128z" />
    <glyph glyph-name="tilde" unicode="&#x2dc;" horiz-adv-x="1024" 
d="M241 1194q-26 0 -41 14q-16 14 -16 28t6 40q58 166 172 166q58 0 154 -41t130 -41t54 16t38 54t45 36q26 0 41 -14q16 -14 16 -26t-6 -42q-58 -166 -172 -166q-58 0 -154 42q-96 40 -130 40t-54 -16t-39 -53q-18 -37 -44 -37z" />
    <glyph glyph-name="hungarumlaut" unicode="&#x2dd;" horiz-adv-x="1024" 
d="M239 1210q-47 0 -46 29q0 14 12 31l125 188q30 45 68 45t72 -19q34 -20 34 -40t-25 -45l-151 -150q-42 -39 -89 -39zM575 1210q-47 0 -47 29q0 14 13 31l125 188q30 45 68 45t72 -19q34 -20 34 -40t-25 -45l-151 -150q-42 -39 -89 -39z" />
    <glyph glyph-name="commaaccent" unicode="&#x326;" horiz-adv-x="1024" 
d="M418 -231v10q0 37 26 63t69 25q42 0 69 -29t26 -78v-10q0 -175 -136 -228q-44 -18 -80 -18t-36 28t47 40q101 26 97 113q-82 14 -82 84z" />
    <glyph glyph-name="Wgrave" unicode="&#x1e80;" horiz-adv-x="2254" 
d="M1169 1581q0 -29 -48 -29t-87 39l-153 146q-29 29 -29 48t37 39t77 21q40 0 70 -47l123 -186q10 -14 10 -31zM109 1372q-1 22 25 48q26 24 59 24q61 0 83 -68l396 -1138l375 1142q20 63 79 64h11q59 0 80 -64l374 -1142l398 1142q20 63 77 64q33 0 58 -25q24 -25 24 -44
t-10 -50l-459 -1274q-25 -70 -84 -69h-12q-59 0 -84 69l-373 1102l-370 -1102q-25 -70 -84 -69h-13q-61 -1 -84 69l-458 1274q-8 25 -8 47z" />
    <glyph glyph-name="wgrave" unicode="&#x1e81;" horiz-adv-x="1757" 
d="M872 1210q-48 0 -88 39l-153 146q-29 29 -29 48t37 39t77 21q40 0 70 -47l123 -186q10 -14 11 -31q0 -29 -48 -29zM522 -16q-63 0 -88 71l-321 895q-11 30 -11 52t23 45t57 22q59 0 80 -65l266 -795l269 797q20 63 77 63h9q61 0 82 -63l266 -797l270 799q18 61 76 61
q33 1 55 -21t23 -44q0 -22 -10 -52l-324 -897q-25 -72 -86 -71h-6q-63 0 -86 71l-264 772l-267 -772q-23 -72 -86 -71h-4z" />
    <glyph glyph-name="Wacute" unicode="&#x1e82;" horiz-adv-x="2254" 
d="M109 1372q-1 22 25 48q26 24 59 24q61 0 83 -68l396 -1138l375 1142q20 63 79 64h11q59 0 80 -64l374 -1142l398 1142q20 63 77 64q33 0 58 -25q24 -25 24 -44t-10 -50l-459 -1274q-25 -70 -84 -69h-12q-59 0 -84 69l-373 1102l-370 -1102q-25 -70 -84 -69h-13
q-61 -1 -84 69l-458 1274q-8 25 -8 47zM1131 1552q-48 0 -48 29q0 16 11 31l123 186q31 47 71 47t76 -20q37 -19 37 -39t-29 -49l-153 -146q-40 -39 -88 -39z" />
    <glyph glyph-name="wacute" unicode="&#x1e83;" horiz-adv-x="1757" 
d="M522 -16q-63 0 -88 71l-321 895q-11 30 -11 52t23 45t57 22q59 0 80 -65l266 -795l269 797q20 63 77 63h9q61 0 82 -63l266 -797l270 799q18 61 76 61q33 1 55 -21t23 -44q0 -22 -10 -52l-324 -897q-25 -72 -86 -71h-6q-63 0 -86 71l-264 772l-267 -772q-23 -72 -86 -71
h-4zM881 1210q-48 0 -47 29q0 16 10 31l123 186q31 47 71 47t76 -20q37 -19 37 -39t-29 -49l-153 -146q-40 -39 -88 -39z" />
    <glyph glyph-name="Wdieresis" unicode="&#x1e84;" horiz-adv-x="2254" 
d="M109 1372q-1 22 25 48q26 24 59 24q61 0 83 -68l396 -1138l375 1142q20 63 79 64h11q59 0 80 -64l374 -1142l398 1142q20 63 77 64q33 0 58 -25q24 -25 24 -44t-10 -50l-459 -1274q-25 -70 -84 -69h-12q-59 0 -84 69l-373 1102l-370 -1102q-25 -70 -84 -69h-13
q-61 -1 -84 69l-458 1274q-8 25 -8 47zM944 1765q41 -1 69 -27t27 -65v-31q0 -40 -28 -66t-68 -26t-68 27t-28 65v31q0 39 28 65t68 27zM1309 1765q41 -1 69 -27t27 -65v-31q0 -40 -28 -66q-29 -26 -69 -26t-68 27t-28 65v31q0 39 28 65t69 27z" />
    <glyph glyph-name="wdieresis" unicode="&#x1e85;" horiz-adv-x="1757" 
d="M522 -16q-63 0 -88 71l-321 895q-11 30 -11 52t23 45t57 22q59 0 80 -65l266 -795l269 797q20 63 77 63h9q61 0 82 -63l266 -797l270 799q18 61 76 61q33 1 55 -21t23 -44q0 -22 -10 -52l-324 -897q-25 -72 -86 -71h-6q-63 0 -86 71l-264 772l-267 -772q-23 -72 -86 -71
h-4zM694 1423q41 -1 69 -27t28 -65v-31q0 -40 -28 -66t-69 -26q-40 0 -68 27t-28 65v31q0 39 28 65t68 27zM1059 1423q41 -1 69 -27t27 -65v-31q0 -40 -28 -66q-29 -26 -69 -26t-68 27t-27 65v31q0 39 27 66q28 26 69 26z" />
    <glyph glyph-name="Ygrave" unicode="&#x1ef2;" horiz-adv-x="1449" 
d="M768 1581q0 -29 -48 -29t-87 39l-154 146q-29 29 -29 48t37 40q37 20 77 20t71 -47l123 -186q10 -14 10 -31zM643 72v491l-532 746q-42 67 6 111q25 24 63 24t74 -49l473 -682l477 682q35 49 72 49q36 0 60 -24t24 -52t-23 -63l-530 -738v-495q0 -35 -25 -59
q-26 -23 -58 -23t-56 24t-25 58z" />
    <glyph glyph-name="ygrave" unicode="&#x1ef3;" horiz-adv-x="1202" 
d="M649 1239q0 -29 -48 -29t-87 39l-154 146q-28 29 -28 48t37 39t77 21q40 0 70 -47l123 -186q10 -14 10 -31zM348 -334q-104 0 -192 31q-50 20 -50 58q0 37 20 57t42 20q20 0 60 -13t106 -13t114 43q48 44 93 145l8 16l-443 938q-10 24 -10 50t24 49t56 22q55 0 80 -61
l369 -832l327 834q23 59 76 59q34 -1 56 -23t22 -46t-8 -48l-414 -987q-68 -163 -150 -231t-186 -68z" />
    <glyph glyph-name="enspace" unicode="&#x2002;" horiz-adv-x="1024" 
 />
    <glyph glyph-name="emspace" unicode="&#x2003;" horiz-adv-x="2048" 
 />
    <glyph glyph-name="threeperemspace" unicode="&#x2004;" horiz-adv-x="681" 
 />
    <glyph glyph-name="fourperemspace" unicode="&#x2005;" horiz-adv-x="512" 
 />
    <glyph glyph-name="thinspace" unicode="&#x2009;" horiz-adv-x="272" 
 />
    <glyph glyph-name="hairspace" unicode="&#x200a;" horiz-adv-x="153" 
 />
    <glyph glyph-name="endash" unicode="&#x2013;" horiz-adv-x="1081" 
d="M201 537q-33 -1 -56 23t-23 56t23 55q23 24 56 23h680q33 0 55 -24t22 -55t-22 -55t-55 -23h-680z" />
    <glyph glyph-name="emdash" unicode="&#x2014;" horiz-adv-x="1839" 
d="M201 537q-33 -1 -56 23t-23 56t23 55q23 24 56 23h1437q33 0 56 -24q22 -24 22 -55t-22 -55t-56 -23h-1437z" />
    <glyph glyph-name="quoteleft" unicode="&#x2018;" horiz-adv-x="501" 
d="M401 1399q0 -27 -28 -37q-121 -55 -113 -168q34 -8 56 -34t22 -64v-31q0 -41 -28 -69t-70 -28t-68 32q-27 32 -27 81v39q0 174 72 246q31 32 73 54t66 22q45 0 45 -43z" />
    <glyph glyph-name="quoteright" unicode="&#x2019;" horiz-adv-x="501" 
d="M102 1012q0 29 27 39q121 53 115 168q-80 18 -80 96v33q0 40 28 68t69 28q42 0 70 -32t27 -81v-39q0 -172 -73 -245q-31 -33 -72 -55t-68 -21q-43 0 -43 41z" />
    <glyph glyph-name="quotesinglbase" unicode="&#x201a;" horiz-adv-x="501" 
d="M92 -205q0 27 27 37q121 53 114 168q-80 18 -79 98v33q0 41 26 68q27 27 70 27t71 -32q28 -30 27 -81v-39q0 -172 -74 -246q-30 -30 -72 -52t-67 -22q-43 0 -43 41z" />
    <glyph glyph-name="quotedblleft" unicode="&#x201c;" horiz-adv-x="911" 
d="M401 1399q0 -27 -28 -37q-121 -55 -113 -168q34 -8 56 -34t22 -64v-31q0 -41 -28 -69t-70 -28t-68 32q-27 32 -27 81v39q0 174 72 246q31 32 73 54t66 22q45 0 45 -43zM811 1399q0 -27 -29 -37q-121 -55 -112 -168q34 -8 56 -34t22 -64v-31q0 -41 -28 -69t-70 -28t-68 32
t-27 81v39q0 174 72 246q31 32 73 54t66 22q45 0 45 -43z" />
    <glyph glyph-name="quotedblright" unicode="&#x201d;" horiz-adv-x="911" 
d="M512 1012q0 29 27 39q121 53 114 168q-80 18 -80 96v33q0 40 28 68t70 28q41 0 69 -32t28 -81v-39q0 -172 -74 -245q-32 -33 -72 -55t-67 -21q-43 0 -43 41zM102 1012q0 29 27 39q121 53 115 168q-80 18 -80 96v33q0 40 28 68t69 28q42 0 70 -32t27 -81v-39
q0 -172 -73 -245q-31 -33 -72 -55t-68 -21q-43 0 -43 41z" />
    <glyph glyph-name="quotedblbase" unicode="&#x201e;" horiz-adv-x="911" 
d="M502 -205q0 27 26 37q121 53 115 168q-80 18 -80 98v33q0 39 28 67q27 28 69 28t70 -32t28 -81v-39q0 -172 -74 -246q-31 -30 -73 -52t-66 -22q-43 0 -43 41zM92 -205q0 27 27 37q121 53 114 168q-80 18 -79 98v33q0 41 26 68q27 27 70 27t71 -32q28 -30 27 -81v-39
q0 -172 -74 -246q-30 -30 -72 -52t-67 -22q-43 0 -43 41z" />
    <glyph glyph-name="dagger" unicode="&#x2020;" horiz-adv-x="839" 
d="M115 1104q0 23 17 40t40 15l203 -14l-15 233q-2 27 16 46q18 20 44 20q27 0 44 -20t15 -46l-14 -233l203 14q23 2 40 -15t17 -40t-17 -39t-40 -14l-205 14l12 -528q0 -27 -16 -43t-39 -16t-39 16t-16 43l12 528l-205 -14q-23 -2 -40 14t-17 39z" />
    <glyph glyph-name="daggerdbl" unicode="&#x2021;" horiz-adv-x="880" 
d="M745 1104q0 -23 -17 -39t-40 -14l-205 14l13 -348l-13 -348l205 14q23 2 40 -14t17 -39t-17 -40t-40 -16l-203 15l15 -234q2 -27 -16 -46t-44 -19q-27 0 -44 19t-15 46l14 234l-202 -15q-23 -2 -40 16t-18 40q-1 23 17 39t41 14l204 -14l-12 348l12 348l-204 -14
q-23 -2 -40 14t-18 39t17 40t41 15l202 -14l-14 233q-2 27 15 46q17 20 44 20t44 -20t16 -46l-15 -233l203 14q23 2 40 -15t17 -40z" />
    <glyph glyph-name="bullet" unicode="&#x2022;" horiz-adv-x="978" 
d="M489 453q-111 -1 -189 77t-79 189v4q0 111 80 189t187 77q106 0 188 -79t82 -187v-4q0 -111 -79 -189t-190 -77z" />
    <glyph glyph-name="ellipsis" unicode="&#x2026;" horiz-adv-x="1480" 
d="M154 129q0 41 26 69q27 28 69 28q43 0 69 -28t26 -69v-41q0 -43 -27 -71q-27 -27 -69 -27t-68 28q-27 28 -26 70v41zM645 129q0 41 27 69q26 28 68 28t69 -28t27 -69v-41q0 -41 -27 -70q-27 -28 -69 -28t-68 28t-27 70v41zM1139 129q0 41 26 69q27 28 68 28t67 -28
t27 -69v-41q0 -41 -27 -70q-28 -28 -68 -28t-67 28t-26 70v41z" />
    <glyph glyph-name="perthousand" unicode="&#x2030;" horiz-adv-x="2480" 
d="M1087 350q-1 -106 55 -179t137 -73t133 72t52 176v4q0 106 -55 179t-136 73t-133 -72t-53 -176v-4zM2051 98q81 0 133 72t52 176v4q0 106 -55 179t-136 73t-133 -72t-52 -176v-4q0 -106 55 -179t136 -73zM435 831q81 0 133 72t53 176v4q1 105 -55 179t-137 74t-133 -72
t-52 -177v-4q0 -106 55 -179t136 -73zM1275 -16q-142 0 -233 106q-90 106 -90 256v4q0 150 92 258t234 109q142 -1 231 -107q90 -106 90 -256v-4q0 -152 -91 -259t-233 -107zM2374 350q0 -150 -92 -258t-235 -108q-142 0 -232 106t-91 256v4q0 150 92 258t234 109
q141 -1 232 -107t92 -256v-4zM305 46q0 22 12 40l975 1329q24 29 50 29t43 -18q35 -36 6 -78l-975 -1330q-24 -28 -50 -28t-44 17t-17 39zM430 717q-141 0 -232 106t-92 256v4q0 151 92 259t235 108t233 -106t90 -257v-4q0 -150 -92 -258t-234 -108z" />
    <glyph glyph-name="guilsinglleft" unicode="&#x2039;" horiz-adv-x="671" 
d="M532 152q0 -26 -20 -46t-50 -20t-54 33l-273 354q-25 31 -25 57t25 56l271 352q24 33 56 33q32 1 51 -19t19 -45t-18 -51l-242 -324l244 -331q16 -23 16 -49z" />
    <glyph glyph-name="guilsinglright" unicode="&#x203a;" horiz-adv-x="671" 
d="M210 971q32 0 52 -31l275 -356q25 -31 25 -56t-25 -55l-271 -352q-28 -35 -58 -35t-49 19t-19 47t18 49l241 325l-243 332q-36 58 2 94q20 18 52 19z" />
    <glyph glyph-name="fraction" unicode="&#x2044;" horiz-adv-x="878" 
d="M-24 -211q-36 -1 -55 19t-19 45t10 41l889 1628q25 41 59 41q34 1 52 -19q20 -20 20 -45t-10 -41l-891 -1628q-19 -41 -55 -41z" />
    <glyph glyph-name="Euro" unicode="&#x20ac;" horiz-adv-x="1474" 
d="M1358 286q0 -26 -17 -50q-188 -260 -460 -261q-215 -1 -370 139t-210 371h-131q-27 1 -45 19t-19 45q0 27 18 46t46 19h111q-8 137 2 222h-113q-27 0 -45 18t-19 45q0 27 18 45t46 19h137q59 221 210 358t353 137q279 0 463 -237q21 -25 21 -55t-23 -52t-57 -22t-57 28
q-74 98 -155 146t-207 47q-126 0 -230 -95t-152 -255h471q27 -1 46 -19q20 -18 20 -45t-20 -45t-46 -18h-500q-6 -57 -6 -123t4 -99h502q27 0 46 -19q20 -19 20 -46t-20 -45t-46 -19h-477q47 -168 158 -266t262 -98q193 0 340 203q23 28 55 28t54 -20t22 -46z" />
    <glyph glyph-name="published" unicode="&#x2117;" horiz-adv-x="1699" 
d="M713 711h172q88 0 140 40t52 109v4q0 145 -190 146h-174v-299zM598 399v656q0 25 17 41t40 16h242q135 0 215 -66t80 -180v-4q0 -122 -89 -188t-220 -66h-170v-209q1 -23 -17 -40t-41 -17t-40 17t-17 40zM176 713q0 -281 194 -477t479 -197q287 0 481 199t194 479v4
q0 281 -194 477t-480 197q-286 0 -480 -199t-194 -479v-4zM848 -25q-309 0 -524 216t-215 522v4q0 305 217 523t526 218t524 -216t215 -521v-4q0 -305 -217 -523t-526 -219z" />
    <glyph glyph-name="servicemark" unicode="&#x2120;" horiz-adv-x="1447" 
d="M72 911q0 41 39 41q16 0 30 -10q94 -72 201 -72q63 0 101 28t38 71v2q0 41 -35 65q-36 24 -140 48q-104 22 -156 62t-54 118v2q0 78 64 128t170 50q107 0 196 -60q23 -14 23 -34t-11 -32q-10 -12 -26 -13q-16 0 -33 10q-77 51 -149 51t-108 -27t-36 -67t35 -67t139 -49
t157 -62q54 -40 54 -115v-2q-1 -82 -67 -133t-164 -51q-141 0 -246 81q-22 14 -22 37zM723 838v553q0 20 12 32t31 13h12q29 0 41 -23l223 -344l224 344q16 23 41 23h10q17 0 31 -14t14 -31v-553q0 -18 -13 -32t-33 -13q-20 0 -32 13t-12 32v426l-191 -285q-12 -27 -38 -27
t-42 27l-190 285v-426q0 -18 -13 -32q-12 -14 -30 -13q-18 0 -32 13q-13 14 -13 32z" />
    <glyph glyph-name="trademark" unicode="&#x2122;" horiz-adv-x="1413" 
d="M688 838v553q0 45 45 45h12q25 0 41 -23l222 -344l225 344q16 23 39 23h12q16 0 30 -14t13 -31v-553q0 -18 -13 -32q-14 -14 -32 -13q-18 0 -31 13q-12 13 -12 32v426l-190 -285q-16 -27 -41 -27t-41 27l-189 285v-426q0 -18 -13 -32t-31 -13q-18 0 -33 13q-13 14 -13 32
zM256 838v510h-170q-16 0 -30 13q-13 13 -13 29t13 30q13 13 30 14h428q18 0 30 -14t13 -29q0 -15 -12 -29t-31 -14h-168v-510q0 -18 -13 -32t-33 -13q-20 0 -32 13q-12 14 -12 32z" />
    <glyph glyph-name="minus" unicode="&#x2212;" horiz-adv-x="1280" 
d="M1075 645h-868q-33 0 -55 22q-22 21 -23 53q0 32 23 54t55 23h868q31 0 53 -23q22 -22 23 -54q-1 -32 -23 -54t-53 -21z" />
    <glyph glyph-name="Q.alt" horiz-adv-x="1740" 
d="M1434 713v4q0 248 -161 420t-405 172t-402 -170t-159 -418v-4q0 -248 161 -420q160 -172 404 -172t403 170t159 418zM1602 717q0 -166 -67 -316t-187 -251l217 -211q35 -35 35 -71t-26 -61t-64 -25t-72 36l-242 231q-152 -74 -328 -74q-319 0 -524 216t-205 522v4
q0 305 207 523t526 218q318 0 524 -216t206 -521v-4z" />
    <glyph glyph-name="a.alt" 
d="M646 940q-157 0 -263 -111t-107 -297v-4q0 -182 110 -296t264 -114t268 116q115 116 114 294v4q0 176 -114 292q-115 116 -272 116zM1026 989q0 33 23 57t55 24t56 -24t24 -57v-919q0 -33 -23 -57q-23 -23 -55 -23t-56 24t-24 56v143q-160 -236 -405 -236
q-203 0 -355 150t-151 399v4q0 248 151 400q152 152 355 151q249 0 405 -225v133z" />
    <glyph glyph-name="aacute.alt" 
d="M646 940q-157 0 -263 -111t-107 -297v-4q0 -182 110 -296t264 -114t268 116q115 116 114 294v4q0 176 -114 292q-115 116 -272 116zM1026 989q0 33 23 57t55 24t56 -24t24 -57v-919q0 -33 -23 -57q-23 -23 -55 -23t-56 24t-24 56v143q-160 -236 -405 -236
q-203 0 -355 150t-151 399v4q0 248 151 400q152 152 355 151q249 0 405 -225v133zM691 1210q-48 0 -48 29q0 16 10 31l123 186q31 47 71 47t77 -20q37 -19 37 -39t-29 -49l-154 -146q-39 -39 -87 -39z" />
    <glyph glyph-name="abreve.alt" 
d="M686 1214q-188 0 -270 150q-20 35 -20 67q-1 66 57 66q37 0 57 -39q45 -112 176 -112t176 112q20 39 52 39q62 0 63 -61q0 -37 -21 -72q-82 -150 -270 -150zM646 940q-157 0 -263 -111t-107 -297v-4q0 -182 110 -296t264 -114t268 116q115 116 114 294v4q0 176 -114 292
q-115 116 -272 116zM1026 989q0 33 23 57t55 24t56 -24t24 -57v-919q0 -33 -23 -57q-23 -23 -55 -23t-56 24t-24 56v143q-160 -236 -405 -236q-203 0 -355 150t-151 399v4q0 248 151 400q152 152 355 151q249 0 405 -225v133z" />
    <glyph glyph-name="acircumflex.alt" 
d="M646 940q-157 0 -263 -111t-107 -297v-4q0 -182 110 -296t264 -114t268 116q115 116 114 294v4q0 176 -114 292q-115 116 -272 116zM1026 989q0 33 23 57t55 24t56 -24t24 -57v-919q0 -33 -23 -57q-23 -23 -55 -23t-56 24t-24 56v143q-160 -236 -405 -236
q-203 0 -355 150t-151 399v4q0 248 151 400q152 152 355 151q249 0 405 -225v133zM475 1210q-47 0 -47 29q0 10 14 35l144 176q39 45 82 45h37q43 0 81 -45l144 -176q14 -25 14 -35q0 -29 -49 -29t-90 39l-121 107l-121 -107q-41 -39 -88 -39z" />
    <glyph glyph-name="adieresis.alt" 
d="M646 940q-157 0 -263 -111t-107 -297v-4q0 -182 110 -296t264 -114t268 116q115 116 114 294v4q0 176 -114 292q-115 116 -272 116zM1026 989q0 33 23 57t55 24t56 -24t24 -57v-919q0 -33 -23 -57q-23 -23 -55 -23t-56 24t-24 56v143q-160 -236 -405 -236
q-203 0 -355 150t-151 399v4q0 248 151 400q152 152 355 151q249 0 405 -225v133zM504 1423q40 -1 68 -27t28 -65v-31q0 -40 -28 -66t-68 -26t-69 27q-28 27 -27 65v31q0 39 27 66q28 26 69 26zM868 1423q41 -1 69 -27t28 -65v-31q0 -40 -28 -66t-69 -26q-40 0 -68 27
t-28 65v31q0 39 28 65t68 27z" />
    <glyph glyph-name="agrave.alt" 
d="M729 1239q0 -29 -48 -29t-87 39l-154 146q-28 29 -28 48t37 39t77 21q40 0 70 -47l123 -186q10 -14 10 -31zM646 940q-157 0 -263 -111t-107 -297v-4q0 -182 110 -296t264 -114t268 116q115 116 114 294v4q0 176 -114 292q-115 116 -272 116zM1026 989q0 33 23 57t55 24
t56 -24t24 -57v-919q0 -33 -23 -57q-23 -23 -55 -23t-56 24t-24 56v143q-160 -236 -405 -236q-203 0 -355 150t-151 399v4q0 248 151 400q152 152 355 151q249 0 405 -225v133z" />
    <glyph glyph-name="amacron.alt" 
d="M956 1260h-540q-27 0 -46 19t-20 46q0 27 20 46t46 20h540q27 1 46 -19q20 -20 20 -47t-20 -46t-46 -19zM646 940q-157 0 -263 -111t-107 -297v-4q0 -182 110 -296t264 -114t268 116q115 116 114 294v4q0 176 -114 292q-115 116 -272 116zM1026 989q0 33 23 57t55 24
t56 -24t24 -57v-919q0 -33 -23 -57q-23 -23 -55 -23t-56 24t-24 56v143q-160 -236 -405 -236q-203 0 -355 150t-151 399v4q0 248 151 400q152 152 355 151q249 0 405 -225v133z" />
    <glyph glyph-name="aogonek.alt" 
d="M1026 989q0 33 23 57t55 24t56 -24t24 -57v-926q0 -37 -37 -71q-90 -82 -90 -142q0 -70 100 -90q61 -10 62 -49q-1 -47 -53 -47q-125 0 -197 62q-47 39 -47 100q0 94 118 192q-14 14 -14 191v4q-160 -236 -405 -236q-203 0 -355 150t-151 399v4q0 248 151 400
q152 152 355 151q249 0 405 -225v133zM646 940q-157 0 -263 -111t-107 -297v-4q0 -182 110 -296t264 -114t268 116q115 116 114 294v4q0 176 -114 292q-115 116 -272 116z" />
    <glyph glyph-name="aring.alt" 
d="M646 940q-157 0 -263 -111t-107 -297v-4q0 -182 110 -296t264 -114t268 116q115 116 114 294v4q0 176 -114 292q-115 116 -272 116zM1026 989q0 33 23 57t55 24t56 -24t24 -57v-919q0 -33 -23 -57q-23 -23 -55 -23t-56 24t-24 56v143q-160 -236 -405 -236
q-203 0 -355 150t-151 399v4q0 248 151 400q152 152 355 151q249 0 405 -225v133zM686 1292q51 0 89 37t38 88v4q0 51 -38 88t-89 37t-89 -37t-38 -88v-4q0 -51 38 -88t89 -37zM686 1214q-86 0 -149 60t-64 143v4q-1 83 63 143t150 60t150 -60t63 -143v-4q1 -83 -63 -143
t-150 -60z" />
    <glyph glyph-name="aring.alt2" horiz-adv-x="1185" 
d="M594 1075q51 0 89 37t38 88v4q0 51 -38 88t-89 37t-89 -37t-38 -88v-4q0 -51 38 -88t89 -37zM256 313q0 -95 76 -153t207 -58q130 0 234 81q103 81 104 206v103q-155 45 -307 45q-152 1 -233 -59t-81 -161v-4zM492 -23q-160 1 -278 89t-118 241v4q0 164 123 253t309 89
t346 -45v37q0 141 -81 215q-83 74 -229 74t-279 -60q-14 -6 -36 -6t-42 20q-21 20 -21 59q0 38 43 54q111 47 211 64q-59 53 -59 135v4q0 84 63 144q64 60 150 61q86 0 149 -60t64 -145v-4q0 -88 -72 -145q109 -27 183 -99q109 -109 108 -309v-579q0 -33 -22 -56
q-22 -22 -54 -22t-54 22t-22 51v97q-138 -183 -382 -183z" />
    <glyph glyph-name="aringacute.alt" 
d="M646 940q-157 0 -263 -111t-107 -297v-4q0 -182 110 -296t264 -114t268 116q115 116 114 294v4q0 176 -114 292q-115 116 -272 116zM1026 989q0 33 23 57t55 24t56 -24t24 -57v-919q0 -33 -23 -57q-23 -23 -55 -23t-56 24t-24 56v143q-160 -236 -405 -236
q-203 0 -355 150t-151 399v4q0 248 151 400q152 152 355 151q249 0 405 -225v133zM686 1292q51 0 89 37t38 88v4q0 51 -38 88t-89 37t-89 -37t-38 -88v-4q0 -51 38 -88t89 -37zM686 1214q-86 0 -149 60t-64 143v4q-1 83 63 143t150 60t150 -60t63 -143v-4q1 -83 -63 -143
t-150 -60zM691 1694q-48 0 -48 28q0 16 10 31l123 186q53 81 148 27q37 -20 37 -40t-29 -48l-154 -145q-39 -39 -87 -39z" />
    <glyph glyph-name="aringacute.alt2" horiz-adv-x="1185" 
d="M597 1477q-48 0 -48 28q0 16 10 31l123 186q31 47 71 47q41 0 77 -20q36 -19 36 -39t-28 -49l-154 -145q-39 -39 -87 -39zM594 1075q51 0 89 37t38 88v4q0 51 -38 88t-89 37t-89 -37t-38 -88v-4q0 -51 38 -88t89 -37zM256 313q0 -95 76 -153t207 -58q130 0 234 81
q103 81 104 206v103q-155 45 -307 45q-152 1 -233 -59t-81 -161v-4zM492 -23q-160 1 -278 89t-118 241v4q0 164 123 253t309 89t346 -45v37q0 141 -81 215q-83 74 -229 74t-279 -60q-14 -6 -36 -6t-42 20q-21 20 -21 59q0 38 43 54q111 47 211 64q-59 53 -59 135v4
q0 84 63 144q64 60 150 61q86 0 149 -60t64 -145v-4q0 -88 -72 -145q109 -27 183 -99q109 -109 108 -309v-579q0 -33 -22 -56q-22 -22 -54 -22t-54 22t-22 51v97q-138 -183 -382 -183z" />
    <glyph glyph-name="atilde.alt" 
d="M424 1194q-27 0 -42 14t-15 28t6 40q31 88 72 127t99 39t154 -41t130 -41t55 16q19 16 37 54t45 36q27 0 42 -14t15 -26t-6 -42q-59 -166 -172 -166q-58 0 -154 42q-96 40 -130 40t-54 -16t-38 -53q-17 -37 -44 -37zM646 940q-157 0 -263 -111t-107 -297v-4
q0 -182 110 -296t264 -114t268 116q115 116 114 294v4q0 176 -114 292q-115 116 -272 116zM1026 989q0 33 23 57t55 24t56 -24t24 -57v-919q0 -33 -23 -57q-23 -23 -55 -23t-56 24t-24 56v143q-160 -236 -405 -236q-203 0 -355 150t-151 399v4q0 248 151 400
q152 152 355 151q249 0 405 -225v133z" />
    <glyph glyph-name="three.alt" horiz-adv-x="1236" 
d="M627 -25q-297 0 -496 213q-27 27 -27 61q0 33 23 55t57 22t56 -25q160 -178 391 -178q143 0 233 73t90 193v4q0 121 -101 191t-282 69h-86q-29 1 -49 21t-20 49t20 49t49 21h90q150 -1 245 71t95 193v4q0 109 -85 179t-222 71q-201 0 -342 -170q-24 -29 -56 -29t-54 22
t-21 52q0 30 21 53q178 219 456 219q205 0 336 -108t131 -275v-4q0 -240 -250 -336q289 -94 289 -342v-4q0 -176 -137 -295t-354 -119z" />
    <glyph glyph-name="registered.alt" horiz-adv-x="1699" 
d="M672 745h217q82 0 131 36t49 100v4q0 59 -46 95t-128 36h-223v-271zM559 403v660q0 23 16 39t39 16h285q145 0 225 -80q61 -57 62 -147v-4q0 -85 -52 -143t-143 -78l180 -224q34 -48 -2 -78q-16 -16 -42 -16t-44 25l-215 272h-196v-242q0 -23 -18 -39t-40 -16
q-23 0 -39 16t-16 39zM176 713q0 -281 194 -477t479 -197q287 0 481 199t194 479v4q0 281 -194 477t-480 197q-286 0 -480 -199t-194 -479v-4zM848 -25q-309 0 -524 216t-215 522v4q0 305 217 523t526 218t524 -216t215 -521v-4q0 -305 -217 -523t-526 -219z" />
    <glyph glyph-name="NUL" horiz-adv-x="0" 
 />
    <glyph glyph-name="hfjslug" horiz-adv-x="1421" 
d="M872 580q-33 0 -32 34q0 12 9 24t23 11q14 0 24 -11t9 -24q0 -34 -33 -34zM997 612h-22v35h22q20 0 21 -16q-1 -19 -21 -19zM659 823q-33 0 -33 45t33 78l41 -80q-16 -43 -41 -43zM645 1056q0 30 29 29q27 -1 27 -35t-31 -69q-25 45 -25 75zM494 662l28 -97h17l22 70h2
l23 -70h16l29 97h-17l-20 -72h-2l-23 72h-14l-23 -72h-2l-20 72h-16zM270 662v-95h17v66l51 -66h14v95h-16v-66l-51 66h-15zM395 662v-95h70v15h-53v26h47v15h-47v24h53v15h-70zM750 567h16v35l37 60h-19l-26 -46l-27 46h-18l37 -60v-35zM872 565q20 1 34 15q33 33 1 68
q-15 16 -35 16t-34 -16t-14 -34q0 -20 14 -34t34 -15zM1034 631q0 31 -35 31h-41v-95h17v31h24l21 -31h18l-24 35q20 8 20 29zM1071 662v-95h16v25l17 16l31 -41h20l-41 54l37 41h-21l-40 -50h-3v50h-16zM729 1047q0 63 -55 63q-25 0 -41 -18q-35 -39 12 -125
q-47 -37 -47 -83q0 -91 59 -89q39 0 60 49h2l24 -49l25 12l-35 65q13 29 27 80l-27 6q-8 -37 -16 -61h-2l-33 64q47 43 47 86zM985 799q63 0 64 73v281h-33v-281q0 -45 -33 -45q-16 0 -41 11v-31q20 -8 43 -8zM377 1153v-352h31v162h96v-162h31v352h-31v-162h-96v162h-31z
M819 1153v-352h31v160h78v28h-78v135h88v29h-119zM1319 -410h-426l-16 29h-334l-17 -29h-424v621q29 0 48 19q18 19 18 46q0 26 -20 46t-46 20v1135h205l62 161h684l59 -161h207v-1887z" />
    <glyph glyph-name="i.dot" horiz-adv-x="538" 
d="M190 70v919q0 33 23 57t57 24t56 -24q23 -22 22 -57v-919q0 -35 -22 -58q-22 -22 -56 -22q-32 0 -56 24t-24 56zM176 1364v27q0 37 27 61t67 23q40 0 66 -24q27 -24 26 -60v-27q0 -36 -26 -60t-67 -24t-67 24t-26 60z" />
    <glyph glyph-name="caron.alt" horiz-adv-x="1024" 
d="M549 1499q45 0 45 -43q0 -18 -10 -49l-72 -217q-12 -41 -45 -41q-43 0 -37 47l19 238q6 66 69 65h31z" />
    </font>
</defs>
</svg>
