<?xml version="1.0" standalone="no"?>
<!DOCTYPE svg PUBLIC "-//W3C//DTD SVG 1.1//EN" "http://www.w3.org/Graphics/SVG/1.1/DTD/svg11.dtd" >
<svg xmlns="http://www.w3.org/2000/svg">
<metadata>
Created by FontPrep 20130207 at Tue Sep 16 16:59:57 2014
 By Jefry
Part of the digitally encoded machine readable outline data for producing the Typefaces provided is copyrighted (c) 2003 - 2006 Linotype GmbH, www.linotype.com. All rights reserved. This software is the property of Linotype GmbH, and may not be reproduced, modified, disclosed or transferred without the express written approval of Linotype GmbH. Copyright (c) 1988, 1990, 1993 Adobe Systems Incorporated. All Rights Reserved. Helvetica is a trademark of Heidelberger Druckmaschinen AG, exclusively licensed through Linotype GmbH, and may be registered in certain jurisdictions. This typeface is original artwork of Linotype Design Studio. The design may be protected in certain jurisdictions.
</metadata>
<defs>
<font id="1bfe3908464079d33e43d1bde3a33e17" horiz-adv-x='1024' >
  <font-face 
    font-family="HelveticaNeueLTCom-Cn"
    font-weight="400"
    font-stretch="normal"
    units-per-em="2048"
    panose-1="2 11 5 6 3 5 2 3 2 4"
    ascent="1462"
    descent="-586"
    x-height="1098"
    cap-height="1462"
    bbox="-336 -438 2048 1931"
    underline-thickness="102"
    underline-position="-102"
    unicode-range="U+0020-FB02"
  />
<missing-glyph horiz-adv-x="1048" 
d="M1049 1470v-1470h-1049v1470h1049zM946 102v1264h-844v-1264h844zM680 988q0 56 -46 106.5t-109.5 50.5t-109.5 -45t-59 -150l-102 17q14 145 90 212.5t186 67.5t182 -73.5t72 -194.5q0 -66 -25.5 -120t-102.5 -124t-89 -108.5t-12 -147.5h-94l-4 35q0 113 26.5 165.5
t93.5 118.5t85 100t18 90zM455 240v137h114v-137h-114z" />
    <glyph glyph-name="IJ" unicode="IJ" horiz-adv-x="1273" 
d="M119 1462h180v-1462h-180v1462zM1155 420q0 -218 -71 -322q-86 -127 -296 -127q-171 0 -255 95t-87 239v121h172v-107q0 -92 38 -146t114 -54t115 19q69 36 84 155q6 57 6 133v1036h180v-1042z" />
    <glyph glyph-name="ij" unicode="ij" horiz-adv-x="839" 
d="M123 1098h172v-1098h-172v1098zM123 1462h172v-196h-172v196zM375 -223q48 -6 75 -6t57 18t34 73q4 54 4 93v1143h172v-1204q-1 -135 -61 -203t-201 -68q-17 0 -80 6v148zM717 1266h-172v196h172v-196z" />
    <glyph glyph-name="napostrophe" unicode="&#x22;n" 
d="M113 1098h163v-129h5q35 77 111 117t170 40q174 0 238 -125q28 -53 32 -113t4 -110v-778h-172v758q0 93 -20 135q-41 86 -132 86q-92 0 -159 -55q-68 -55 -68 -166v-758h-172v1098zM27 1649h170v-164q0 -84 -40 -121t-120 -43v53q27 8 46 22t23 66h-79v187z" />
    <glyph glyph-name="fi" unicode="fi" 
d="M164 963h-160v135h160v129q0 125 56 188.5t181 63.5h125v-148h-80q-55 0 -82.5 -23.5t-27.5 -80.5v-129h188v-135h-188v-963h-172v963zM653 1098h172v-1098h-172v1098zM653 1462h172v-196h-172v196z" />
    <glyph glyph-name="fl" unicode="fl" 
d="M164 963h-160v135h160v129q0 125 56 188.5t181 63.5h125v-148h-80q-55 0 -82.5 -23.5t-27.5 -80.5v-129h188v-135h-188v-963h-172v963zM653 1462h172v-1462h-172v1462z" />
    <glyph glyph-name=".notdef" horiz-adv-x="1048" 
d="M1049 1470v-1470h-1049v1470h1049zM946 102v1264h-844v-1264h844zM680 988q0 56 -46 106.5t-109.5 50.5t-109.5 -45t-59 -150l-102 17q14 145 90 212.5t186 67.5t182 -73.5t72 -194.5q0 -66 -25.5 -120t-102.5 -124t-89 -108.5t-12 -147.5h-94l-4 35q0 113 26.5 165.5
t93.5 118.5t85 100t18 90zM455 240v137h114v-137h-114z" />
    <glyph glyph-name=".null" horiz-adv-x="1024" 
 />
    <glyph glyph-name="nonmarkingreturn" horiz-adv-x="0" 
 />
    <glyph glyph-name="space" unicode=" " horiz-adv-x="491" 
 />
    <glyph glyph-name="exclam" unicode="!" horiz-adv-x="528" 
d="M170 1462h188l-32 -1081h-123zM170 197h188v-197h-188v197z" />
    <glyph glyph-name="quotedbl" unicode="&#x22;" horiz-adv-x="833" 
d="M178 1462h135v-520h-135v520zM520 1462h135v-520h-135v520z" />
    <glyph glyph-name="numbersign" unicode="#" horiz-adv-x="983" 
d="M47 420v135h184l39 315h-178v136h197l51 415h135l-51 -415h217l51 415h135l-51 -415h160v-136h-178l-39 -315h170v-135h-187l-53 -420h-135l53 420h-217l-53 -420h-135l53 420h-168zM367 555h217l39 315h-217z" />
    <glyph glyph-name="dollar" unicode="$" horiz-adv-x="983" 
d="M752 367q0 150 -88.5 196.5t-133.5 63.5v-508q98 8 160 74.5t62 173.5zM250 1075q0 -104 54 -158.5t140 -87.5v474q-194 -25 -194 -228zM444 1569h86v-119q190 -10 277.5 -108.5t91.5 -288.5h-180q0 226 -189 250v-502q70 -25 240 -81.5t170 -324.5q0 -208 -120 -311.5
t-290 -112.5v-192h-86v192q-321 11 -361 188t-40 287h180q0 -148 39 -230t182 -97v536q-70 23 -226.5 81.5t-156.5 320.5q0 234 130.5 309.5t252.5 83.5v119z" />
    <glyph glyph-name="percent" unicode="%" horiz-adv-x="1554" 
d="M362.5 774q43.5 0 68 20.5t35.5 57.5t14 89t3 115.5t-3 116t-14 89t-35.5 57t-68 20.5t-68 -20.5t-35.5 -57t-14 -89t-3 -116t3 -115.5t14 -89t35.5 -57.5t68 -20.5zM1016 1450h143l-635 -1479h-143zM1192 82q43 0 67.5 20.5t36 57.5t14.5 89t3 115.5t-3 115.5t-14.5 89
t-36 57.5t-67.5 20.5t-67.5 -20.5t-36 -57.5t-14.5 -89t-3 -115.5t3 -115.5t14.5 -89t36 -57.5t67.5 -20.5zM326 664q-129 0 -180.5 102t-51.5 291t35 258t88 102t181.5 33t180.5 -101.5t52 -291.5q0 -189 -35 -258.5t-88 -102t-182 -32.5zM1155.5 -29q-128.5 0 -180 100.5
t-51.5 292.5t34.5 260t88 101t182 33t180 -101t51.5 -293t-34.5 -259.5t-88 -100.5t-182 -33z" />
    <glyph glyph-name="ampersand" unicode="&#x26;" horiz-adv-x="1138" 
d="M657 1178q0 68 -41 108.5t-106.5 40.5t-105 -40t-39.5 -111t88 -199l34 -49l39 37q49 47 90 96t41 117zM440 725q-209 -126 -209 -339q0 -122 77.5 -194.5t177.5 -72.5t161.5 41t114.5 100zM1069 690q0 -79 -38 -224.5t-81 -201.5l189 -264h-195l-98 137
q-84 -82 -163 -124t-205 -42t-211 45t-150.5 131.5t-65.5 216.5q0 240 199 392l106 80l-45 73q-41 61 -73.5 125t-32.5 134q0 136 88.5 215t214.5 79q309 0 309 -278q0 -138 -82 -213.5t-119 -106.5l-53 -45l289 -413q42 100 57 284h160z" />
    <glyph glyph-name="quotesingle" unicode="'" horiz-adv-x="491" 
d="M178 1462h135v-520h-135v520z" />
    <glyph glyph-name="parenleft" unicode="(" horiz-adv-x="493" 
d="M260 543q0 -484 225 -920h-98q-147 199 -223 436.5t-76 483.5q0 508 299 919h98q-225 -369 -225 -919z" />
    <glyph glyph-name="parenright" unicode=")" horiz-adv-x="493" 
d="M233 543q0 487 -225 919h98q147 -199 223.5 -436.5t76.5 -482.5q0 -509 -300 -920h-98q225 369 225 920z" />
    <glyph glyph-name="asterisk" unicode="*" horiz-adv-x="720" 
d="M299 1462h123v-243l219 84l45 -119l-231 -70l155 -192l-102 -76l-148 209l-147 -209l-102 76l155 192l-231 70l45 119l219 -84v243z" />
    <glyph glyph-name="plus" unicode="+" horiz-adv-x="1228" 
d="M547 451h-451v135h451v450h135v-450h451v-135h-451v-451h-135v451z" />
    <glyph glyph-name="comma" unicode="," horiz-adv-x="491" 
d="M152 217h188v-178q0 -142 -23.5 -199t-61.5 -91t-103 -52v96q53 27 71.5 61.5t18.5 96.5v49h-90v217z" />
    <glyph glyph-name="hyphen" unicode="-" horiz-adv-x="720" 
d="M111 662h499v-160h-499v160z" />
    <glyph glyph-name="period" unicode="." horiz-adv-x="491" 
d="M152 217h188v-217h-188v217z" />
    <glyph glyph-name="slash" unicode="/" horiz-adv-x="569" 
d="M455 1491h135l-475 -1520h-135z" />
    <glyph glyph-name="zero" unicode="0" horiz-adv-x="983" 
d="M78 680q0 105 3 190.5t25 222t113 247t273 110.5q372 0 392.5 -306t20.5 -410t-3 -188.5t-43.5 -329.5t-366.5 -245q-262 0 -329 171t-76 302t-9 236zM258 707q0 -117 5 -224.5t28.5 -191.5t70 -134.5t129.5 -50.5q149 0 191.5 152.5t42.5 450.5q0 299 -28.5 402
t-76.5 153.5t-130 50.5t-128.5 -50.5t-70 -135.5t-28.5 -195t-5 -227z" />
    <glyph glyph-name="one" unicode="1" horiz-adv-x="983" 
d="M618 1450v-1450h-172v1090h-309v122q173 10 233 40t91 75t35 123h122z" />
    <glyph glyph-name="two" unicode="2" horiz-adv-x="983" 
d="M897 0h-811q0 181 83 323.5t230 270.5l119 100q99 85 146 160.5t47 187.5q0 171 -77.5 216t-147.5 45t-116 -38t-73 -98.5t-27 -177.5h-180q0 331 150.5 396t268.5 65t250 -74t132 -305t-96.5 -332.5t-157.5 -152.5l-205 -178q-124 -107 -158 -248h623v-160z" />
    <glyph glyph-name="three" unicode="3" horiz-adv-x="983" 
d="M492 106q231 0 231 318q0 111 -63.5 184.5t-198.5 73.5h-92v135h90q115 0 168 74t53 182q0 169 -68 205.5t-130 36.5q-114 0 -156.5 -85t-42.5 -198h-181q0 298 143 358t249 60q197 0 281.5 -111.5t84.5 -243.5q0 -277 -225 -333v-4q268 -54 268 -338q0 -203 -103 -326
t-292 -123q-328 0 -378 168t-50 236v18h180q0 -110 58 -198.5t174 -88.5z" />
    <glyph glyph-name="four" unicode="4" horiz-adv-x="983" 
d="M586 498v669h-4l-365 -669h369zM758 1450v-952h164v-148h-164v-350h-172v350h-525v162l525 938h172z" />
    <glyph glyph-name="five" unicode="5" horiz-adv-x="983" 
d="M539 946q164 0 263 -124t99 -353q0 -345 -154.5 -421.5t-275.5 -76.5t-255 79.5t-134 322.5h180q0 -161 75 -214t149 -53q133 0 184 113t51 264q0 222 -86.5 275t-144.5 53t-96 -17.5t-64.5 -40t-41 -47t-14.5 -36.5l-155 8l80 743h647v-159h-510l-57 -420l4 -4
q92 108 256 108z" />
    <glyph glyph-name="six" unicode="6" horiz-adv-x="983" 
d="M698 1102q0 92 -49 152.5t-141 60.5q-189 0 -222.5 -179.5t-33.5 -256.5v-115h4q50 100 134 131t160 31t218.5 -68t142.5 -391q0 -222 -107 -359t-340 -137t-312.5 195t-79.5 458t26 427t124 281.5t290 117.5q125 0 198.5 -45t121 -120t47.5 -183h-181zM501.5 778
q-229.5 0 -229.5 -279t81 -336t175.5 -57t148.5 98t54 336t-229.5 238z" />
    <glyph glyph-name="seven" unicode="7" horiz-adv-x="983" 
d="M78 1421h827v-149q-178 -235 -284 -498q-165 -396 -199 -774h-201q41 336 174 658t346 604h-663v159z" />
    <glyph glyph-name="eight" unicode="8" horiz-adv-x="983" 
d="M76 399q0 289 256 373q-111 45 -161 119t-50 190q0 178 98 273.5t272.5 95.5t272.5 -95t98 -274q0 -117 -50 -190.5t-161 -118.5q256 -84 256 -369t-146.5 -358.5t-319 -73.5t-269 128.5t-96.5 299.5zM491 1315q-99 0 -144.5 -66.5t-45.5 -171t44.5 -171t144.5 -66.5
t146 66.5t46 171t-46 171t-145 66.5zM314.5 187q58.5 -81 180.5 -81t177 85t55 214.5t-55.5 214.5t-176.5 85t-180 -80.5t-59 -218.5t58.5 -219z" />
    <glyph glyph-name="nine" unicode="9" horiz-adv-x="983" 
d="M285 319q0 -92 49 -152.5t150 -60.5t174 112t73 325v114h-4q-27 -53 -97 -107t-172 -54q-190 0 -288 123.5t-98 340.5q0 216 107 353t297 137t303.5 -121.5t122.5 -307t9 -263.5t-3 -169t-45 -354.5t-392 -263.5q-215 0 -291 120t-76 228h181zM481.5 643
q229.5 0 229.5 279t-81 336t-175.5 57t-148.5 -98t-54 -336t229.5 -238z" />
    <glyph glyph-name="colon" unicode=":" horiz-adv-x="491" 
d="M152 1036h188v-217h-188v217zM152 217h188v-217h-188v217z" />
    <glyph glyph-name="semicolon" unicode=";" horiz-adv-x="491" 
d="M152 217h188v-178q0 -142 -23.5 -199t-61.5 -91t-103 -52v96q53 27 71.5 61.5t18.5 96.5v49h-90v217zM152 1036h188v-217h-188v217z" />
    <glyph glyph-name="less" unicode="&#x3c;" horiz-adv-x="1228" 
d="M96 580l1037 473v-135l-877 -400l877 -399v-135l-1037 473v123z" />
    <glyph glyph-name="equal" unicode="=" horiz-adv-x="1228" 
d="M96 795h1037v-136h-1037v136zM96 377h1037v-135h-1037v135z" />
    <glyph glyph-name="greater" unicode="&#x3e;" horiz-adv-x="1228" 
d="M96 119l877 399l-877 400v135l1037 -473v-123l-1037 -473v135z" />
    <glyph glyph-name="question" unicode="?" horiz-adv-x="909" 
d="M72 1032q0 192 95.5 319.5t279.5 127.5t287.5 -108t103.5 -275t-103 -291q-28 -35 -71 -81.5t-86 -96.5q-68 -82 -68 -207v-39h-160q0 178 28 232q28 53 56.5 89.5t58 71.5t57.5 66.5t54 66.5q52 69 53 210q0 141 -74.5 177.5t-136.5 36.5t-104.5 -32.5t-70 -91.5
t-27.5 -175h-172zM338 197h188v-197h-188v197z" />
    <glyph glyph-name="at" unicode="@" horiz-adv-x="1638" 
d="M492 593q0 -79 53 -134.5t132 -55.5q136 0 230 148.5t94 286.5q0 75 -46 139.5t-120 64.5q-73 0 -136.5 -42t-109.5 -107.5t-71.5 -143t-25.5 -156.5zM903 401q-115 -120 -239 -120q-135 0 -221.5 88t-86.5 206q0 238 136 414t344 176q175 0 233 -168h4l45 129h115
l-172 -577q-19 -64 -19 -89.5t15 -41t65 -15.5t112 38t136 137.5t74 271.5q0 231 -181 374.5t-444 143.5q-264 0 -444 -184t-180 -456q0 -271 179.5 -452.5t444.5 -181.5q383 0 555 228h129q-198 -351 -684 -351q-158 0 -296 59.5t-241.5 163t-163 241.5t-59.5 296t59.5 296
t163 241.5t242 163t300.5 59.5t301 -47t240 -131t157.5 -201t56.5 -252t-48 -241.5t-125 -182.5t-171 -115.5t-184 -39.5q-129 0 -144 120h-4z" />
    <glyph glyph-name="A" unicode="A" horiz-adv-x="1024" 
d="M406 1462h241l393 -1462h-188l-104 401h-467l-109 -401h-188zM317 549h394l-187 706h-4z" />
    <glyph glyph-name="B" unicode="B" horiz-adv-x="1062" 
d="M299 147h246q133 0 194.5 76t61.5 174q0 97 -43.5 198t-243.5 101h-215v-549zM119 1462h448q257 0 316 -134t59 -212q0 -133 -57.5 -218.5t-155.5 -115.5v-4q135 -33 197.5 -129t62.5 -231q0 -223 -122 -320.5t-351 -97.5h-397v1462zM299 831h207q157 0 202.5 80.5
t45.5 180.5t-58.5 161.5t-193.5 61.5h-203v-484z" />
    <glyph glyph-name="C" unicode="C" horiz-adv-x="1062" 
d="M550 -29q-138 0 -230.5 66.5t-157 210t-64.5 483.5t99 550t372 210q223 0 324.5 -119t107.5 -336h-188q-7 218 -90.5 262.5t-165.5 44.5t-137 -48t-85 -131t-39 -194.5t-9 -325t56.5 -369.5t225.5 -156q147 0 199 105t57 278h189q-21 -369 -173.5 -450t-290.5 -81z" />
    <glyph glyph-name="D" unicode="D" horiz-adv-x="1138" 
d="M317 147h189q208 0 277 163.5t69 418.5q0 106 -18.5 346t-327.5 240h-189v-1168zM137 1462h391q312 0 396 -156.5t100 -289t16 -278.5q0 -737 -493 -738h-410v1462z" />
    <glyph glyph-name="E" unicode="E" 
d="M119 1462h755v-159h-575v-459h543v-160h-543v-524h600v-160h-780v1462z" />
    <glyph glyph-name="F" unicode="F" horiz-adv-x="909" 
d="M119 1462h755v-159h-575v-459h543v-160h-543v-684h-180v1462z" />
    <glyph glyph-name="G" unicode="G" horiz-adv-x="1099" 
d="M556 1343q-81 0 -136 -48t-85 -131t-39 -194.5t-9 -238.5t9 -238.5t39 -194.5t85 -131t184.5 -48t181.5 145t52 348h-289v148h452v-760h-135v199h-4q-29 -94 -110.5 -161t-214.5 -67t-221.5 63.5t-153 205.5t-64.5 486q0 345 99 555t372 210q335 0 383.5 -179t48.5 -255
h-188q-14 201 -95 243.5t-162 42.5z" />
    <glyph glyph-name="H" unicode="H" horiz-adv-x="1099" 
d="M981 0h-180v705h-502v-705h-180v1462h180v-598h502v598h180v-1462z" />
    <glyph glyph-name="I" unicode="I" horiz-adv-x="417" 
d="M119 1462h180v-1462h-180v1462z" />
    <glyph glyph-name="J" unicode="J" horiz-adv-x="872" 
d="M754 420q0 -216 -78.5 -332.5t-288.5 -116.5q-171 0 -256.5 96t-85.5 238v121h172v-107q0 -92 38.5 -146t114.5 -54t113 19.5t63.5 70t26.5 217.5v1036h181v-1042z" />
    <glyph glyph-name="K" unicode="K" horiz-adv-x="1024" 
d="M119 1462h180v-708h4l506 708h201l-443 -610l480 -852h-201l-395 705l-152 -207v-498h-180v1462z" />
    <glyph glyph-name="L" unicode="L" horiz-adv-x="909" 
d="M119 1462h180v-1302h594v-160h-774v1462z" />
    <glyph glyph-name="M" unicode="M" horiz-adv-x="1441" 
d="M123 1462h303l293 -1159h4l293 1159h303v-1462h-180v1278h-4l-324 -1278h-180l-324 1278h-4v-1278h-180v1462z" />
    <glyph glyph-name="N" unicode="N" horiz-adv-x="1138" 
d="M119 1462h233l484 -1220h4v1220h180v-1462h-248l-469 1184h-4v-1184h-180v1462z" />
    <glyph glyph-name="O" unicode="O" horiz-adv-x="1138" 
d="M941 1282.5q99 -208.5 99 -550.5t-99 -551.5t-372.5 -209.5t-372 211t-98.5 550t99 549t372 210t372 -208.5zM569.5 1343q-94.5 0 -149.5 -48t-85 -131t-39 -194.5t-9 -238.5t9 -238.5t39 -194.5t85 -131t149.5 -48t149.5 48t85 131t39 194.5t9 238.5t-9 238.5t-39 194.5
t-85 131t-149.5 48z" />
    <glyph glyph-name="P" unicode="P" horiz-adv-x="985" 
d="M119 1462h373q173 0 312.5 -72.5t139.5 -347.5q0 -202 -116.5 -313t-305.5 -111h-223v-618h-180v1462zM756 1051q0 264 -254 264h-203v-549h215q98 0 170 69.5t72 215.5z" />
    <glyph glyph-name="Q" unicode="Q" horiz-adv-x="1138" 
d="M196.5 182q-98.5 211 -98.5 550t99 549t372 210t372 -208.5t99 -578.5t-118 -550l147 -136l-100 -106l-148 133q-99 -74 -252 -74q-274 0 -372.5 211zM797 268q55 135 55 449t-56.5 470t-263 156t-226 -242.5t-19.5 -456t56.5 -369.5t225.5 -156q80 0 133 35l-141 127
l101 110z" />
    <glyph glyph-name="R" unicode="R" horiz-adv-x="1062" 
d="M119 1462h473q174 0 274.5 -96t100.5 -289t-81 -264.5t-145 -85.5v-4q96 -10 148.5 -80t58.5 -164l13 -250q5 -159 33 -189t44 -40h-217q-36 36 -49 211l-12 227q-11 133 -68 173t-149 40h-244v-651h-180v1462zM299 799h178q39 0 91.5 4t131 48.5t78.5 229.5
q0 111 -67.5 172.5t-196.5 61.5h-215v-516z" />
    <glyph glyph-name="S" unicode="S" horiz-adv-x="1024" 
d="M739 1083q0 260 -227 260q-117 0 -179.5 -59.5t-62.5 -169.5t51.5 -165.5t128 -88.5t166 -58.5t166 -68.5t128 -118.5t51.5 -205.5q0 -235 -135.5 -336.5t-319.5 -101.5q-245 0 -344 120.5t-99 367.5h181q0 -161 32.5 -221t88 -89.5t131.5 -29.5q134 0 205 71.5t71 186.5
q0 190 -140 238.5t-256 88.5t-205 121t-89 262q0 253 144.5 328.5t283.5 75.5q211 0 308 -101.5t102 -306.5h-181z" />
    <glyph glyph-name="T" unicode="T" 
d="M563 0h-180v1303h-367v159h916v-159h-369v-1303z" />
    <glyph glyph-name="U" unicode="U" horiz-adv-x="1062" 
d="M102 1462h181v-1028q0 -162 56 -238.5t195 -76.5t192.5 81t53.5 234v1028h181v-1028q0 -211 -108 -337t-327 -126t-321.5 117t-102.5 346v1028z" />
    <glyph glyph-name="V" unicode="V" horiz-adv-x="946" 
d="M-4 1462h188l287 -1255h4l287 1255h188l-368 -1462h-230z" />
    <glyph glyph-name="W" unicode="W" horiz-adv-x="1478" 
d="M16 1462h181l223 -1196h4l207 1196h217l207 -1196h4l223 1196h180l-301 -1462h-219l-201 1184h-4l-211 -1184h-219z" />
    <glyph glyph-name="X" unicode="X" horiz-adv-x="985" 
d="M33 1462h200l267 -547l268 547h188l-364 -719l389 -743h-201l-291 586l-296 -586h-189l389 743z" />
    <glyph glyph-name="Y" unicode="Y" horiz-adv-x="946" 
d="M563 0h-180v573l-387 889h199l278 -684l289 684h188l-387 -889v-573z" />
    <glyph glyph-name="Z" unicode="Z" 
d="M84 1303v159h809v-166l-657 -1136h665v-160h-854v152l658 1151h-621z" />
    <glyph glyph-name="bracketleft" unicode="[" horiz-adv-x="530" 
d="M160 1462h366v-135h-207v-1569h207v-135h-366v1839z" />
    <glyph glyph-name="backslash" unicode="\" horiz-adv-x="569" 
d="M-20 1491h135l475 -1520h-135z" />
    <glyph glyph-name="bracketright" unicode="]" horiz-adv-x="530" 
d="M371 -377h-367v135h207v1569h-207v135h367v-1839z" />
    <glyph glyph-name="asciicircum" unicode="^" horiz-adv-x="1228" 
d="M565 1421h99l469 -886h-136l-383 739l-383 -739h-135z" />
    <glyph glyph-name="underscore" unicode="_" horiz-adv-x="1024" 
d="M0 -154h1024v-102h-1024v102z" />
    <glyph glyph-name="grave" unicode="`" horiz-adv-x="417" 
d="M168 1538l143 -291h-123l-221 291h201z" />
    <glyph glyph-name="a" unicode="a" horiz-adv-x="909" 
d="M446 991q-188 0 -188 -215v-10h-172q0 186 86 273t294 87t260 -81.5t57 -136t5 -97.5v-612q0 -35 6 -61.5t40 -26.5t49 10v-123q-194 -39 -224 19.5t-32 111.5h-4q-41 -74 -114 -116t-151 -42q-154 0 -226.5 86.5t-72.5 218.5t50.5 208.5t156.5 109.5l232 70
q86 26 105.5 57.5t19.5 107.5q0 162 -177 162zM240 288q0 -79 33.5 -130.5t121.5 -51.5t154.5 62.5t66.5 146.5v283q-37 -37 -148.5 -72.5t-147.5 -59.5t-58 -61.5t-22 -116.5z" />
    <glyph glyph-name="b" unicode="b" 
d="M274 547q0 -197 47.5 -312.5t174.5 -115.5q162 0 181 168t19 264q0 212 -44 320t-156 108q-183 0 -202.5 -175t-19.5 -257zM113 1462h172v-489h4q29 72 99 112.5t168 40.5t164 -58t111.5 -170t45.5 -349q0 -396 -132.5 -487t-220.5 -91t-157 49t-86 115h-5v-135h-163
v1462z" />
    <glyph glyph-name="c" unicode="c" horiz-adv-x="872" 
d="M635 764q0 88 -40.5 157.5t-133.5 69.5q-41 0 -79 -14t-87 -92t-49 -348q0 -181 23.5 -258.5t66 -125t108.5 -47.5t101 27t62.5 80.5t27.5 167.5h172q0 -159 -87.5 -284.5t-281.5 -125.5q-195 0 -283.5 139.5t-88.5 412.5t81.5 438t309.5 165q199 0 274.5 -114t75.5 -248
h-172z" />
    <glyph glyph-name="d" unicode="d" 
d="M252 549q0 -214 44 -322t166 -108t167 110t45 310t-33 283t-76 120t-107 37t-103.5 -30.5t-71 -108t-31.5 -291.5zM72 549q0 577 346 577q74 0 143.5 -41t97.5 -112h5v489h172v-1462h-164v135h-4q-17 -65 -86.5 -114.5t-159.5 -49.5q-178 0 -264 152.5t-86 425.5z" />
    <glyph glyph-name="e" unicode="e" horiz-adv-x="909" 
d="M653 664v59q0 180 -66.5 224t-128.5 44t-129 -59t-67 -227v-41h391zM256 528q0 -192 23.5 -265t66 -115t112.5 -42q117 0 156 80.5t39 173.5h172q0 -130 -85 -259.5t-285 -129.5q-201 0 -290 139.5t-89 412.5t81.5 438t308.5 165q226 0 297 -148t71 -380v-70h-578z" />
    <glyph glyph-name="f" unicode="f" horiz-adv-x="530" 
d="M164 963h-160v135h160v129q0 125 56 188.5t181 63.5h125v-148h-80q-55 0 -82.5 -23.5t-27.5 -80.5v-129h188v-135h-188v-963h-172v963z" />
    <glyph glyph-name="g" unicode="g" 
d="M458 979q-119 0 -162.5 -108t-43.5 -300q0 -191 27.5 -269.5t66.5 -116.5t107 -38q127 0 174 103.5t47 296.5q0 192 -33 275t-76 120t-107 37zM274 -102q11 -140 184 -140q135 0 170.5 71.5t35.5 174.5v143h-5q-29 -70 -97 -108.5t-149 -38.5t-137.5 30.5t-130 126
t-73.5 391.5q0 258 83 418t275 160q87 0 153 -48.5t85 -119.5h4v140h164v-1028q0 -447 -373 -447q-119 0 -186.5 30t-115.5 86t-59 159h172z" />
    <glyph glyph-name="h" unicode="h" 
d="M113 1462h172v-489h4q31 64 108 108.5t170 44.5q92 0 149.5 -35.5t88.5 -98t31 -214.5v-778h-172v758q0 93 -30 157t-121 64t-159.5 -55.5t-68.5 -165.5v-758h-172v1462z" />
    <glyph glyph-name="i" unicode="i" horiz-adv-x="417" 
d="M123 1098h172v-1098h-172v1098zM123 1462h172v-196h-172v196z" />
    <glyph glyph-name="j" unicode="j" horiz-adv-x="417" 
d="M28 -229q61 0 78 43.5t17 140.5v1143h172v-1204q0 -135 -60.5 -203t-201.5 -68q-20 0 -40 2l-40 4v148q48 -6 75 -6zM295 1266h-172v196h172v-196z" />
    <glyph glyph-name="k" unicode="k" horiz-adv-x="909" 
d="M285 0h-172v1462h172v-870h4l385 506h200l-333 -414l391 -684h-201l-305 543l-141 -172v-371z" />
    <glyph glyph-name="l" unicode="l" horiz-adv-x="417" 
d="M123 1462h172v-1462h-172v1462z" />
    <glyph glyph-name="m" unicode="m" horiz-adv-x="1478" 
d="M129 1098h164v-129h4q35 76 110.5 116.5t164.5 40.5t145.5 -39.5t83.5 -134.5q37 72 105 123t166 51t156 -35.5t85.5 -89t32 -114t4.5 -109.5v-778h-172v758q0 91 -27 156t-112 65t-149.5 -53t-64.5 -168v-758h-172v758q0 94 -27 157.5t-120 63.5q-130 0 -167.5 -79
t-37.5 -142v-758h-172v1098z" />
    <glyph glyph-name="n" unicode="n" 
d="M113 1098h163v-129h5q35 76 111 116.5t170 40.5t152 -35.5t85.5 -89t32 -114t4.5 -109.5v-778h-172v758q0 93 -30 157t-121 64t-159.5 -55.5t-68.5 -165.5v-758h-172v1098z" />
    <glyph glyph-name="o" unicode="o" horiz-adv-x="909" 
d="M452 106q123 0 170.5 117.5t47.5 324.5t-32 289.5t-75 118t-111 35.5q-122 0 -167 -116.5t-45 -324.5t30.5 -290t72.5 -118t109 -36zM59 549q0 117 17.5 221t61.5 183t121 126t195.5 47t195.5 -47t121 -126t61.5 -183t17.5 -221t-17.5 -221.5t-62.5 -183t-121 -126
t-194.5 -47.5t-195.5 47.5t-121 126t-61.5 183t-17.5 221.5z" />
    <glyph glyph-name="p" unicode="p" 
d="M322 238q48 -119 174 -119q163 0 181.5 172t18.5 270q0 206 -43.5 312t-165.5 106t-167.5 -109.5t-45.5 -310.5q0 -202 48 -321zM113 1098h163v-135h5q17 66 85 114.5t159 48.5q179 0 265.5 -148t86.5 -393q0 -402 -126.5 -508t-216.5 -106t-153.5 41t-91.5 113h-4v-485
h-172v1458z" />
    <glyph glyph-name="q" unicode="q" 
d="M664 125h-5q-29 -72 -92 -113t-153 -41t-216 92.5t-126 498.5t130 485t202 79q110 0 177 -48t87 -115h4v135h164v-1458h-172v485zM674 556q0 204 -45 313.5t-176 109.5q-163 0 -182 -160t-19 -258q0 -217 43 -329.5t163 -112.5q216 0 216 437z" />
    <glyph glyph-name="r" unicode="r" horiz-adv-x="606" 
d="M285 694v-694h-172v1098h172v-164h4q41 90 96 141t141 51q51 0 76 -12v-168q-48 8 -87 8q-85 0 -157.5 -69.5t-72.5 -190.5z" />
    <glyph glyph-name="s" unicode="s" horiz-adv-x="833" 
d="M584 776q0 104 -34 159.5t-136 55.5t-136 -54.5t-34 -108.5t23.5 -84.5t61.5 -52t86 -36t98 -30.5q129 -41 199 -102.5t70 -217.5t-97 -245t-247 -89t-226.5 45t-112.5 107.5t-42 128t-6 108.5h172q0 -114 31 -163.5t70.5 -70t81.5 -20.5q85 0 144.5 41t59.5 141
q0 99 -64.5 139t-158.5 70.5t-204.5 74.5t-110.5 251q0 147 98 225t235 78q136 0 203.5 -36.5t107.5 -102.5t40 -211h-172z" />
    <glyph glyph-name="t" unicode="t" horiz-adv-x="530" 
d="M396 -12q-143 0 -187.5 51.5t-44.5 165.5v758h-160v135h160v319h172v-319h190v-135h-190v-705q0 -66 22.5 -94.5t72.5 -28.5t93 6v-141q-48 -12 -128 -12z" />
    <glyph glyph-name="u" unicode="u" 
d="M836 0h-164v129h-4q-35 -76 -111.5 -117t-170.5 -41t-152 36t-85.5 89.5t-31.5 113.5t-4 109v779h172v-758q0 -97 19.5 -136.5t51 -62t78.5 -22.5q94 0 162 56t68 165v758h172v-1098z" />
    <glyph glyph-name="v" unicode="v" horiz-adv-x="831" 
d="M20 1098h189l205 -881h4l205 881h188l-297 -1098h-197z" />
    <glyph glyph-name="w" unicode="w" horiz-adv-x="1327" 
d="M20 1098h181l176 -897h4l186 897h203l182 -897h4l170 897h181l-260 -1098h-189l-192 897h-4l-185 -897h-201z" />
    <glyph glyph-name="x" unicode="x" horiz-adv-x="831" 
d="M33 1098h188l199 -391l201 391h188l-287 -527l297 -571h-188l-219 434l-211 -434h-189l301 571z" />
    <glyph glyph-name="y" unicode="y" horiz-adv-x="831" 
d="M211 -360q-68 0 -135 6v135q37 -6 98 -6t91 30.5t46 75.5l33 96l-324 1121h189l217 -881h4l193 881h188l-317 -1172q-39 -141 -78 -190t-88 -72.5t-117 -23.5z" />
    <glyph glyph-name="z" unicode="z" horiz-adv-x="796" 
d="M80 1098h661v-144l-491 -807h487v-147h-682v135l498 815h-473v148z" />
    <glyph glyph-name="braceleft" unicode="{" horiz-adv-x="530" 
d="M4 604q68 0 112 58.5t44 168.5v365q0 140 62 203t159 63h145v-135h-104q-91 0 -97 -69.5t-6 -98.5v-352q0 -130 -61.5 -192.5t-118.5 -69.5v-4q56 -7 118 -69t62 -193v-353q0 -120 33 -144t70 -24h104v-135h-145q-152 0 -186.5 95.5t-34.5 170.5v365q0 111 -44 169
t-112 58v123z" />
    <glyph glyph-name="bar" unicode="|" horiz-adv-x="454" 
d="M160 1491h135v-1520h-135v1520z" />
    <glyph glyph-name="braceright" unicode="}" horiz-adv-x="530" 
d="M526 481q-68 0 -111.5 -58t-43.5 -169v-365q0 -205 -89 -235.5t-132 -30.5h-146v135h105q93 0 97.5 70t4.5 98v353q0 131 62 193t118 69v4q-58 7 -119 69.5t-61 192.5v352q0 78 -17.5 123t-84.5 45h-105v135h146q152 0 186.5 -95t34.5 -171v-365q0 -111 44 -169t111 -58
v-123z" />
    <glyph glyph-name="asciitilde" unicode="~" horiz-adv-x="1228" 
d="M506 651.5q46 -12.5 154 -78t154 -65.5q73 0 121.5 43t92.5 106l86 -92q-62 -89 -125 -140.5t-153 -51.5t-133 19.5t-87 43.5t-100 58t-102 34q-70 0 -118 -41t-95 -108l-86 94q58 83 122.5 137t143.5 54t125 -12.5z" />
    <glyph glyph-name="uni00A0" unicode="&#xa0;" horiz-adv-x="491" 
 />
    <glyph glyph-name="exclamdown" unicode="&#xa1;" horiz-adv-x="528" 
d="M358 -360h-188l33 1081h123zM358 905h-188v197h188v-197z" />
    <glyph glyph-name="cent" unicode="&#xa2;" horiz-adv-x="983" 
d="M330 252.5q29 -120.5 135 -146.5v885q-116 -28 -140 -177.5t-24 -295.5q0 -145 29 -265.5zM121 535q0 560 344 591v144h86v-144q174 -11 242.5 -120t68.5 -242h-172q0 136 -50 178.5t-89 48.5v-885q139 32 139 275h172q0 -245 -111.5 -323t-199.5 -87v-174h-86v174
q-184 10 -264 148.5t-80 415.5z" />
    <glyph glyph-name="sterling" unicode="&#xa3;" horiz-adv-x="983" 
d="M293 516q0 80 -43 143h-195v123h144l-33 64q-68 134 -68 228q0 179 117 277.5t295 98.5q289 0 347 -154.5t58 -261.5h-172q0 197 -85.5 239t-149.5 42t-109 -20.5t-71.5 -52.5t-37.5 -69.5t-11 -86.5t30.5 -124.5t83.5 -179.5h336v-123h-291q35 -63 35 -131
q0 -117 -64 -196.5t-196 -194.5l4 -4q117 57 166 57t76.5 -9t81.5 -29t94 -21q67 0 110 17t123 63l76 -137q-144 -103 -282 -103q-71 0 -147.5 29t-117.5 42t-87 13t-97 -22l-96 -45l-78 133q121 99 165 154t66.5 108t22.5 133z" />
    <glyph glyph-name="currency" unicode="&#xa4;" horiz-adv-x="983" 
d="M188 710.5q0 -67.5 24 -125t64.5 -99.5t96 -66.5t119 -24.5t119 24.5t96.5 66.5t64.5 99.5t23.5 125t-23.5 125t-64.5 99.5t-96.5 66.5t-119 24.5t-119 -24.5t-96 -66.5t-64.5 -99.5t-24 -125zM41 709.5q0 149.5 92 271.5l-96 96l88 88l96 -96q117 92 270 92t271 -92
l96 96l88 -88l-96 -96q92 -117 92 -271t-94 -270l98 -98l-86 -86l-98 98q-115 -94 -268 -94t-275 92l-96 -96l-86 86l96 96q-92 122 -92 271.5z" />
    <glyph glyph-name="yen" unicode="&#xa5;" horiz-adv-x="983" 
d="M410 313h-301v123h301v123l-21 45h-280v123h225l-316 694h199l279 -663l288 663h181l-308 -694h226v-123h-281l-20 -45v-123h301v-123h-301v-313h-172v313z" />
    <glyph glyph-name="brokenbar" unicode="&#xa6;" horiz-adv-x="454" 
d="M160 573h135v-602h-135v602zM160 1491h135v-602h-135v602z" />
    <glyph glyph-name="section" unicode="&#xa7;" horiz-adv-x="987" 
d="M743 256q119 -77 119 -256q0 -147 -104 -231t-235 -84q-132 0 -262 65.5t-130 290.5h172q0 -94 49 -157.5t150 -63.5t140.5 55.5t39.5 105.5q0 80 -49 132.5t-121 99.5l-231 143q-220 138 -220 290t79 212t122 88q-59 39 -95 106.5t-36 140.5q0 137 104 217.5t251 80.5
t244.5 -64.5t115.5 -242.5h-180q0 86 -53 129t-113 43q-97 0 -143 -48t-46 -94q0 -74 48.5 -120.5t115.5 -85.5l205 -123q127 -80 186.5 -148.5t59.5 -173.5q0 -181 -183 -307zM754 540q0 56 -48.5 107t-109.5 88l-225 139q-20 -16 -79 -62t-59 -120q0 -73 45.5 -115
t98.5 -75l135 -86l123 -84q119 67 119 208z" />
    <glyph glyph-name="dieresis" unicode="&#xa8;" horiz-adv-x="417" 
d="M-37 1497h160v-207h-160v207zM295 1497h160v-207h-160v207z" />
    <glyph glyph-name="copyright" unicode="&#xa9;" horiz-adv-x="1638" 
d="M383 725q0 211 122 341t326 130q250 0 322 -119t82 -198h-123q-16 82 -90 138t-168 56t-152.5 -27.5t-99.5 -74.5t-62.5 -110.5t-21.5 -174.5t86.5 -210t214.5 -99q129 0 203 56t90 138h123q-19 -150 -133 -233.5t-285 -83.5q-90 0 -173 35t-172 130t-89 306zM59 731
q0 158 59.5 296t163 241.5t242 163t296 59.5t295.5 -59.5t241.5 -163t163 -241.5t59.5 -296t-59.5 -296t-163 -241.5t-241.5 -163t-295.5 -59.5t-296 59.5t-242 163t-163 241.5t-59.5 296zM819 94q129 0 244 50.5t248 186.5t133 400q0 131 -49 248t-133 203t-199 136
t-244 50t-243.5 -50t-198.5 -136t-133 -203t-49 -249t49 -247.5t133 -201.5t198.5 -136.5t243.5 -50.5z" />
    <glyph glyph-name="ordfeminine" unicode="&#xaa;" horiz-adv-x="591" 
d="M281 1352q-121 0 -121 -119v-8h-123q0 123 58.5 174t201.5 51t180 -55.5t37 -141.5v-360q0 -20 4 -37.5t24 -17.5t33 6v-86q-18 -6 -77 -6q-99 0 -103 94h-4q-52 -94 -180 -94q-98 0 -146.5 52t-48.5 132t35 126t113 68l149 41q57 16 67.5 37t10.5 56q0 88 -110 88z
M152 920.5q0 -70.5 94 -70.5q54 0 99.5 34.5t45.5 78.5v157q-23 -23 -72 -37t-75 -21.5t-46 -21.5t-33 -31.5t-13 -88z" />
    <glyph glyph-name="guillemotleft" unicode="&#xab;" horiz-adv-x="796" 
d="M406 662l290 292v-180l-192 -192l192 -193v-180l-290 293v160zM100 662l291 292v-180l-192 -192l192 -193v-180l-291 293v160z" />
    <glyph glyph-name="logicalnot" unicode="&#xac;" horiz-adv-x="1228" 
d="M997 659h-901v136h1037v-578h-136v442z" />
    <glyph glyph-name="uni00AD" unicode="&#xad;" horiz-adv-x="720" 
d="M111 662h499v-160h-499v160z" />
    <glyph glyph-name="registered" unicode="&#xae;" horiz-adv-x="1638" 
d="M860 1171q303 1 303 -251q0 -128 -67.5 -186t-171.5 -68l254 -383h-136l-245 372h-146v-372h-135v888h344zM797 778q115 0 173 24t58 116q0 111 -79 121t-113 10h-185v-271h146zM59 731q0 158 59.5 296t163 241.5t242 163t296 59.5t295.5 -59.5t241.5 -163t163 -241.5
t59.5 -296t-59.5 -296t-163 -241.5t-241.5 -163t-295.5 -59.5t-296 59.5t-242 163t-163 241.5t-59.5 296zM819 94q129 0 244 50.5t248 186.5t133 400q0 131 -49 248t-133 203t-199 136t-244 50t-243.5 -50t-198.5 -136t-133 -203t-49 -249t49 -247.5t133 -201.5
t198.5 -136.5t243.5 -50.5z" />
    <glyph glyph-name="macron" unicode="&#xaf;" horiz-adv-x="417" 
d="M-61 1448h540v-111h-540v111z" />
    <glyph glyph-name="degree" unicode="&#xb0;" horiz-adv-x="819" 
d="M104 1144.5q0 65.5 23 122t63.5 97.5t97 63.5t122 22.5t122 -22.5t97.5 -63.5t63.5 -97.5t22.5 -122t-22.5 -121.5t-63.5 -97t-97.5 -63.5t-122 -22.5t-122 22.5t-97 63.5t-63.5 97t-23 121.5zM272.5 1007.5q57.5 -57.5 137.5 -57.5t137 57.5t57 136.5t-56.5 137
t-137.5 58t-138 -58t-57 -137t57.5 -136.5z" />
    <glyph glyph-name="plusminus" unicode="&#xb1;" horiz-adv-x="1228" 
d="M96 739h451v297h135v-297h451v-135h-451v-297h-135v297h-451v135zM96 135h1037v-135h-1037v135z" />
    <glyph glyph-name="twosuperior" unicode="&#xb2;" horiz-adv-x="638" 
d="M315 1327q-127 0 -127 -156h-147q0 198 102.5 238.5t202.5 40.5t176 -58.5t76 -166.5t-43 -171t-123 -126l-127 -103q-73 -59 -96 -129h369v-123h-535q0 160 83 243t122 116l76 61q59 47 93 93.5t34 108.5q0 132 -136 132z" />
    <glyph glyph-name="threesuperior" unicode="&#xb3;" horiz-adv-x="638" 
d="M322 1339q-127 0 -127 -141h-148q0 113 63.5 182.5t210.5 69.5t204 -68t57 -147q0 -78 -43 -131t-129 -70v-4q88 -14 142 -62t54 -156t-68 -180.5t-190 -72.5t-218.5 54.5t-96.5 187.5v10h147q0 -54 36.5 -97.5t115.5 -43.5t103 53t24 109t-39 97.5t-125 41.5h-57v110h49
q74 0 110.5 40.5t36.5 94.5t-27.5 88.5t-84.5 34.5z" />
    <glyph glyph-name="acute" unicode="&#xb4;" horiz-adv-x="417" 
d="M250 1538h201l-222 -291h-123z" />
    <glyph glyph-name="mu" unicode="&#xb5;" 
d="M403 -29q-78 0 -118 29v-360h-172v1458h172v-758q0 -97 19.5 -136.5t51 -62t78.5 -22.5q94 0 162 56t68 165v758h172v-1098h-164v129h-4q-35 -76 -111 -117t-154 -41z" />
    <glyph glyph-name="paragraph" unicode="&#xb6;" horiz-adv-x="1138" 
d="M842 1352h-205v-1639h-135v946q-186 0 -307 109.5t-121 271.5q0 198 132.5 310t350.5 112h420v-1749h-135v1639z" />
    <glyph glyph-name="periodcentered" unicode="&#xb7;" horiz-adv-x="491" 
d="M131 670q0 47 34 80.5t81 33.5t80.5 -33.5t33.5 -80.5t-33.5 -81t-80.5 -34t-81 34t-34 81z" />
    <glyph glyph-name="cedilla" unicode="&#xb8;" horiz-adv-x="417" 
d="M369.5 -142q50.5 -36 50.5 -110t-65 -126t-138 -52q-135 0 -219 41l31 70q2 0 17 -4.5t56 -12.5t81 -8t64.5 24.5t24.5 57.5t-29.5 53.5t-66.5 20.5t-82 -15l-31 37l121 166h86l-80 -111l5 -4q36 9 80 9t94.5 -36z" />
    <glyph glyph-name="onesuperior" unicode="&#xb9;" horiz-adv-x="638" 
d="M262 1214h-196v99q106 0 147 18.5t61.5 45t22.5 73.5h100v-877h-135v641z" />
    <glyph glyph-name="ordmasculine" unicode="&#xba;" horiz-adv-x="591" 
d="M293 1450q266 0 266 -349t-265 -349q-147 0 -204 96t-57 256q0 346 260 346zM296 850q128 0 128 251t-131 251q-67 0 -96 -69.5t-29 -178.5q0 -254 128 -254z" />
    <glyph glyph-name="guillemotright" unicode="&#xbb;" horiz-adv-x="796" 
d="M696 502l-290 -293v180l192 193l-192 192v180l290 -292v-160zM391 502l-291 -293v180l193 193l-193 192v180l291 -292v-160z" />
    <glyph glyph-name="onequarter" unicode="&#xbc;" horiz-adv-x="1476" 
d="M1159 313v379h-4l-225 -379h229zM1294 877v-564h97v-110h-97v-203h-135v203h-340v123l328 551h147zM1079 1485h123l-889 -1548h-123zM66 1313q106 0 147 18.5t61.5 45t22.5 73.5h100v-877h-135v641h-196v99z" />
    <glyph glyph-name="onehalf" unicode="&#xbd;" horiz-adv-x="1476" 
d="M1040 1485h123l-889 -1548h-122zM61 1313q107 0 148 18.5t61.5 45t22.5 73.5h100v-877h-135v641h-197v99zM1133 754q-127 0 -127 -156h-148q0 198 102 238.5t202 40.5t176.5 -58.5t76.5 -166.5t-43 -171t-123 -127l-127 -102q-73 -59 -96 -129h369v-123h-535
q0 160 83 243t122 115l76 62q59 47 93 93.5t34 108.5q0 132 -135 132z" />
    <glyph glyph-name="threequarters" unicode="&#xbe;" horiz-adv-x="1476" 
d="M1204 313v379h-4l-225 -379h229zM1339 877v-564h97v-110h-97v-203h-135v203h-340v123l328 551h147zM1186 1485h123l-889 -1548h-123zM330 1339q-127 0 -127 -141h-148q0 113 63.5 182.5t210.5 69.5t204 -68t57 -147q0 -78 -43 -131t-129 -70v-4q88 -14 142 -62t54 -156
t-68 -180.5t-190 -72.5t-218.5 54.5t-96.5 187.5v10h147q0 -54 37 -97.5t115 -43.5t102.5 53t24.5 109t-39 97.5t-125 41.5h-57v110h49q74 0 110.5 40.5t36.5 94.5t-27.5 88.5t-84.5 34.5z" />
    <glyph glyph-name="questiondown" unicode="&#xbf;" horiz-adv-x="909" 
d="M838 70q0 -192 -96 -319.5t-280 -127.5q-183 0 -286.5 107.5t-103.5 275.5t102 291q8 8 31.5 34.5t64 70.5t72.5 84q58 74 57 196v39h160q-1 -178 -29 -232q-41 -76 -105.5 -152t-111.5 -130q-61 -83 -61 -197q0 -109 51 -174t137 -65q85 0 155.5 54t70.5 245h172z
M571 905h-188v197h188v-197z" />
    <glyph glyph-name="Agrave" unicode="&#xc0;" horiz-adv-x="1024" 
d="M406 1462h241l393 -1462h-188l-104 401h-467l-109 -401h-188zM317 549h394l-187 706h-4zM498 1874l143 -291h-123l-221 291h201z" />
    <glyph glyph-name="Aacute" unicode="&#xc1;" horiz-adv-x="1024" 
d="M406 1462h241l393 -1462h-188l-104 401h-467l-109 -401h-188zM317 549h394l-187 706h-4zM553 1874h201l-222 -291h-122z" />
    <glyph glyph-name="Acircumflex" unicode="&#xc2;" horiz-adv-x="1024" 
d="M406 1462h241l393 -1462h-188l-104 401h-467l-109 -401h-188zM317 549h394l-187 706h-4zM449 1874h157l205 -291h-160l-125 180l-125 -180h-159z" />
    <glyph glyph-name="Atilde" unicode="&#xc3;" horiz-adv-x="1024" 
d="M406 1462h241l393 -1462h-188l-104 401h-467l-109 -401h-188zM317 549h394l-187 706h-4zM418 1700q-67 0 -80 -92h-111q0 92 56 160q56 67 135 67q52 0 123 -39q31 -14 59 -26t56 -13q30 0 43 32t20 60h110q0 -87 -47 -157t-129 -70q-51 0 -108 26q-59 26 -85 40
q-26 12 -42 12z" />
    <glyph glyph-name="Adieresis" unicode="&#xc4;" horiz-adv-x="1024" 
d="M406 1462h241l393 -1462h-188l-104 401h-467l-109 -401h-188zM317 549h394l-187 706h-4zM279 1833h159v-207h-159v207zM610 1833h160v-207h-160v207z" />
    <glyph glyph-name="Aring" unicode="&#xc5;" horiz-adv-x="1024" 
d="M406 1462h241l393 -1462h-188l-104 401h-467l-109 -401h-188zM317 549h394l-187 706h-4zM324 1729q0 86 58 144t144 58t144 -58t59 -144q0 -87 -58 -145q-59 -58 -145 -58t-144 58t-58 145zM410 1729q0 -47 34 -82t82 -35q47 0 82 35t35 82t-35 81t-82 35q-48 -1 -82 -35
t-34 -81z" />
    <glyph glyph-name="AE" unicode="&#xc6;" horiz-adv-x="1478" 
d="M680 549v766h-21l-286 -766h307zM1405 1462v-159h-545v-459h512v-160h-512v-524h570v-160h-750v401h-358l-150 -401h-188l565 1462h856z" />
    <glyph glyph-name="Ccedilla" unicode="&#xc7;" horiz-adv-x="1062" 
d="M701 -142q51 -36 51 -111q0 -74 -65.5 -125.5t-138.5 -51.5q-133 0 -218 41l30 70q2 0 17.5 -4.5t56.5 -12.5t81 -8t64.5 24.5t24.5 57.5t-29.5 53.5t-66.5 20.5t-82 -15l-31 37l103 141q-198 22 -286 179.5t-101 313.5t-13 278q0 324 99 534.5t372 210.5
q223 0 324.5 -119t107.5 -336h-188q-7 218 -90.5 262.5t-165.5 44.5t-137 -48t-85 -131t-39 -194.5t-9 -325t56.5 -369.5t225.5 -156q147 0 199 105t57 278h189q-13 -260 -126 -392t-306 -139l-60 -82l4 -4q36 9 80 9t95 -36z" />
    <glyph glyph-name="Egrave" unicode="&#xc8;" 
d="M119 1462h755v-159h-575v-459h543v-160h-543v-524h600v-160h-780v1462zM481 1874l144 -291h-123l-221 291h200z" />
    <glyph glyph-name="Eacute" unicode="&#xc9;" 
d="M119 1462h755v-159h-575v-459h543v-160h-543v-524h600v-160h-780v1462zM588 1874h200l-221 -291h-123z" />
    <glyph glyph-name="Ecircumflex" unicode="&#xca;" 
d="M119 1462h755v-159h-575v-459h543v-160h-543v-524h600v-160h-780v1462zM422 1874h158l204 -291h-159l-125 180l-125 -180h-160z" />
    <glyph glyph-name="Edieresis" unicode="&#xcb;" 
d="M119 1462h755v-159h-575v-459h543v-160h-543v-524h600v-160h-780v1462zM260 1833h160v-207h-160v207zM592 1833h160v-207h-160v207z" />
    <glyph glyph-name="Igrave" unicode="&#xcc;" horiz-adv-x="417" 
d="M119 1462h180v-1462h-180v1462zM156 1874l143 -291h-123l-221 291h201z" />
    <glyph glyph-name="Iacute" unicode="&#xcd;" horiz-adv-x="417" 
d="M119 1462h180v-1462h-180v1462zM264 1874h201l-221 -291h-123z" />
    <glyph glyph-name="Icircumflex" unicode="&#xce;" horiz-adv-x="417" 
d="M119 1462h180v-1462h-180v1462zM131 1874h158l205 -291h-160l-125 180l-125 -180h-160z" />
    <glyph glyph-name="Idieresis" unicode="&#xcf;" horiz-adv-x="417" 
d="M119 1462h180v-1462h-180v1462zM-37 1833h160v-207h-160v207zM295 1833h160v-207h-160v207z" />
    <glyph glyph-name="Eth" unicode="&#xd0;" horiz-adv-x="1138" 
d="M137 696h-119v135h119v631h391q312 0 396 -156.5t100 -289t16 -278.5q0 -737 -493 -738h-410v696zM506 147q208 0 277 163.5t69 418.5q0 106 -18.5 346t-327.5 240h-189v-484h275v-135h-275v-549h189z" />
    <glyph glyph-name="Ntilde" unicode="&#xd1;" horiz-adv-x="1138" 
d="M119 1462h233l484 -1220h4v1220h180v-1462h-248l-469 1184h-4v-1184h-180v1462zM455 1700q-67 0 -80 -92h-111q0 91 55 159t136 68q52 0 123 -39q30 -14 58 -26t58 -13q30 0 42 32q13 32 20 60h110q0 -87 -47 -157t-129 -70q-51 0 -108 26q-58 26 -84 40q-26 12 -43 12z
" />
    <glyph glyph-name="Ograve" unicode="&#xd2;" horiz-adv-x="1138" 
d="M956 1249q84 -180 84 -520t-84 -516q-113 -242 -385 -242t-389 242q-82 174 -83 516t83 520q113 242 386 242q274 0 388 -242zM569 1343q-94 0 -149 -48q-105 -92 -124 -325q-9 -112 -9 -239t9 -239t39 -194q65 -179 234 -179q244 0 274 374q9 113 9 239q0 301 -48 432
q-65 179 -235 179zM510 1874l143 -291h-123l-221 291h201z" />
    <glyph glyph-name="Oacute" unicode="&#xd3;" horiz-adv-x="1138" 
d="M956 1249q84 -180 84 -520t-84 -516q-113 -242 -385 -242t-389 242q-82 174 -83 516t83 520q113 242 386 242q274 0 388 -242zM569 1343q-94 0 -149 -48q-105 -92 -124 -325q-9 -112 -9 -239t9 -239t39 -194q65 -179 234 -179q244 0 274 374q9 113 9 239q0 301 -48 432
q-65 179 -235 179zM631 1874h200l-221 -291h-123z" />
    <glyph glyph-name="Ocircumflex" unicode="&#xd4;" horiz-adv-x="1138" 
d="M956 1249q84 -180 84 -520t-84 -516q-113 -242 -385 -242t-389 242q-82 174 -83 516t83 520q113 242 386 242q274 0 388 -242zM569 1343q-94 0 -149 -48q-105 -92 -124 -325q-9 -112 -9 -239t9 -239t39 -194q65 -179 234 -179q244 0 274 374q9 113 9 239q0 301 -48 432
q-65 179 -235 179zM492 1874h157l205 -291h-160l-125 180l-125 -180h-159z" />
    <glyph glyph-name="Otilde" unicode="&#xd5;" horiz-adv-x="1138" 
d="M956 1249q84 -180 84 -520t-84 -516q-113 -242 -385 -242t-389 242q-82 174 -83 516t83 520q113 242 386 242q274 0 388 -242zM569 1343q-94 0 -149 -48q-105 -92 -124 -325q-9 -112 -9 -239t9 -239t39 -194q65 -179 234 -179q244 0 274 374q9 113 9 239q0 301 -48 432
q-65 179 -235 179zM455 1700q-67 0 -80 -92h-111q0 91 55 159t136 68q52 0 123 -39q30 -14 58 -26t58 -13q30 0 42 32q13 32 20 60h110q0 -87 -47 -157t-129 -70q-51 0 -108 26q-58 26 -84 40q-26 12 -43 12z" />
    <glyph glyph-name="Odieresis" unicode="&#xd6;" horiz-adv-x="1138" 
d="M956 1249q84 -180 84 -520t-84 -516q-113 -242 -385 -242t-389 242q-82 174 -83 516t83 520q113 242 386 242q274 0 388 -242zM569 1343q-94 0 -149 -48q-105 -92 -124 -325q-9 -112 -9 -239t9 -239t39 -194q65 -179 234 -179q244 0 274 374q9 113 9 239q0 301 -48 432
q-65 179 -235 179zM326 1833h159v-207h-159v207zM657 1833h160v-207h-160v207z" />
    <glyph glyph-name="multiply" unicode="&#xd7;" horiz-adv-x="1228" 
d="M614 430l-370 -369l-86 86l370 371l-370 371l86 86l370 -369l369 369l88 -86l-371 -371l371 -371l-88 -86z" />
    <glyph glyph-name="Oslash" unicode="&#xd8;" horiz-adv-x="1138" 
d="M574 1343q-98 0 -153.5 -48t-94.5 -156t-39 -398q0 -291 43 -428l403 969q-61 61 -159 61zM566 119q97 0 152.5 48t94.5 156t39 403t-43 425l-401 -971q61 -61 158 -61zM98 731q0 340 99 550t372 210q139 0 228 -57l49 120l110 -45l-65 -157q149 -182 149 -621
q0 -341 -99 -550.5t-372 -209.5q-135 0 -225 58l-53 -127l-111 49l68 164q-150 176 -150 616z" />
    <glyph glyph-name="Ugrave" unicode="&#xd9;" horiz-adv-x="1062" 
d="M102 1462h181v-1028q0 -162 56 -238t195 -77q139 0 193 81q53 81 53 234v1028h181v-1028q0 -211 -108 -337t-327 -126t-321 117t-103 346v1028zM469 1874l143 -291h-123l-221 291h201z" />
    <glyph glyph-name="Uacute" unicode="&#xda;" horiz-adv-x="1062" 
d="M102 1462h181v-1028q0 -162 56 -238t195 -77q139 0 193 81q53 81 53 234v1028h181v-1028q0 -211 -108 -337t-327 -126t-321 117t-103 346v1028zM600 1874h201l-221 -291h-123z" />
    <glyph glyph-name="Ucircumflex" unicode="&#xdb;" horiz-adv-x="1062" 
d="M102 1462h181v-1028q0 -162 56 -238t195 -77q139 0 193 81q53 81 53 234v1028h181v-1028q0 -211 -108 -337t-327 -126t-321 117t-103 346v1028zM457 1874h157l205 -291h-160l-124 180l-125 -180h-160z" />
    <glyph glyph-name="Udieresis" unicode="&#xdc;" horiz-adv-x="1062" 
d="M102 1462h181v-1028q0 -162 56 -238t195 -77q139 0 193 81q53 81 53 234v1028h181v-1028q0 -211 -108 -337t-327 -126t-321 117t-103 346v1028zM285 1833h159v-207h-159v207zM616 1833h160v-207h-160v207z" />
    <glyph glyph-name="Yacute" unicode="&#xdd;" horiz-adv-x="946" 
d="M563 0h-180v573l-387 889h199l278 -684l289 684h188l-387 -889v-573zM545 1874h200l-221 -291h-123z" />
    <glyph glyph-name="Thorn" unicode="&#xde;" horiz-adv-x="985" 
d="M119 1462h180v-286h193q257 0 354.5 -115t97.5 -310q0 -196 -115.5 -307.5t-306.5 -111.5h-223v-332h-180v1462zM756 764q0 264 -254 264h-203v-549h215q98 0 170 69.5t72 215.5z" />
    <glyph glyph-name="germandbls" unicode="&#xdf;" 
d="M489 766q-57 0 -81 -6v141h41q78 0 135 54.5t57 160.5q0 150 -62.5 188.5t-124.5 38.5q-115 0 -149.5 -72.5t-34.5 -195.5v-1075h-172v1047q0 207 80.5 319.5t282.5 112.5q245 0 298.5 -123.5t53.5 -191.5q0 -124 -55.5 -212.5t-161.5 -107.5v-4q138 0 215.5 -109
t77.5 -284t-93.5 -311t-273.5 -136h-121v147h119q147 0 168 134.5t21 177.5q0 141 -57.5 224t-162.5 83z" />
    <glyph glyph-name="agrave" unicode="&#xe0;" horiz-adv-x="909" 
d="M446 991q-188 0 -188 -215v-10h-172q0 186 86 273t294 87t280 -114q32 -50 37 -104t5 -97v-612q0 -35 6 -62t39 -27q32 0 50 11v-123q-194 -39 -239 49q-15 29 -17 82h-4q-41 -74 -114 -116t-151 -42q-154 0 -226 86q-72 87 -73 219q1 132 51 208t156 110l232 70
q88 26 106 58q19 32 19 107q0 162 -177 162zM616 315v283q-36 -36 -110 -60t-114 -37q-154 -50 -152 -206q0 -86 34 -137q34 -52 121 -52q88 0 154 62q67 63 67 147zM430 1538l143 -291h-122l-222 291h201z" />
    <glyph glyph-name="aacute" unicode="&#xe1;" horiz-adv-x="909" 
d="M446 991q-188 0 -188 -215v-10h-172q0 186 86 273t294 87t280 -114q32 -50 37 -104t5 -97v-612q0 -35 6 -62t39 -27q32 0 50 11v-123q-194 -39 -239 49q-15 29 -17 82h-4q-41 -74 -114 -116t-151 -42q-154 0 -226 86q-72 87 -73 219q1 132 51 208t156 110l232 70
q88 26 106 58q19 32 19 107q0 162 -177 162zM616 315v283q-36 -36 -110 -60t-114 -37q-154 -50 -152 -206q0 -86 34 -137q34 -52 121 -52q88 0 154 62q67 63 67 147zM528 1538h201l-221 -291h-123z" />
    <glyph glyph-name="acircumflex" unicode="&#xe2;" horiz-adv-x="909" 
d="M446 991q-188 0 -188 -215v-10h-172q0 186 86 273t294 87t280 -114q32 -50 37 -104t5 -97v-612q0 -35 6 -62t39 -27q32 0 50 11v-123q-194 -39 -239 49q-15 29 -17 82h-4q-41 -74 -114 -116t-151 -42q-154 0 -226 86q-72 87 -73 219q1 132 51 208t156 110l232 70
q88 26 106 58q19 32 19 107q0 162 -177 162zM616 315v283q-36 -36 -110 -60t-114 -37q-154 -50 -152 -206q0 -86 34 -137q34 -52 121 -52q88 0 154 62q67 63 67 147zM379 1538h158l204 -291h-159l-125 180l-125 -180h-160z" />
    <glyph glyph-name="atilde" unicode="&#xe3;" horiz-adv-x="909" 
d="M446 991q-188 0 -188 -215v-10h-172q0 186 86 273t294 87t280 -114q32 -50 37 -104t5 -97v-612q0 -35 6 -62t39 -27q32 0 50 11v-123q-194 -39 -239 49q-15 29 -17 82h-4q-41 -74 -114 -116t-151 -42q-154 0 -226 86q-72 87 -73 219q1 132 51 208t156 110l232 70
q88 26 106 58q19 32 19 107q0 162 -177 162zM616 315v283q-36 -36 -110 -60t-114 -37q-154 -50 -152 -206q0 -86 34 -137q34 -52 121 -52q88 0 154 62q67 63 67 147zM338 1364q-64 0 -80 -92h-111q0 91 55 159t136 68q52 0 123 -39q84 -38 114 -38q31 -1 45 31q13 32 19 60
h111q0 -82 -33 -133q-61 -94 -144 -94q-51 0 -108 26q-59 26 -85 40q-26 12 -42 12z" />
    <glyph glyph-name="adieresis" unicode="&#xe4;" horiz-adv-x="909" 
d="M446 991q-188 0 -188 -215v-10h-172q0 186 86 273t294 87t280 -114q32 -50 37 -104t5 -97v-612q0 -35 6 -62t39 -27q32 0 50 11v-123q-194 -39 -239 49q-15 29 -17 82h-4q-41 -74 -114 -116t-151 -42q-154 0 -226 86q-72 87 -73 219q1 132 51 208t156 110l232 70
q88 26 106 58q19 32 19 107q0 162 -177 162zM616 315v283q-36 -36 -110 -60t-114 -37q-154 -50 -152 -206q0 -86 34 -137q34 -52 121 -52q88 0 154 62q67 63 67 147zM207 1497h160v-207h-160v207zM539 1497h159v-207h-159v207z" />
    <glyph glyph-name="aring" unicode="&#xe5;" horiz-adv-x="909" 
d="M446 991q-188 0 -188 -215v-10h-172q0 186 86 273t294 87t280 -114q32 -50 37 -104t5 -97v-612q0 -35 6 -62t39 -27q32 0 50 11v-123q-194 -39 -239 49q-15 29 -17 82h-4q-41 -74 -114 -116t-151 -42q-154 0 -226 86q-72 87 -73 219q1 132 51 208t156 110l232 70
q88 26 106 58q19 32 19 107q0 162 -177 162zM616 315v283q-36 -36 -110 -60t-114 -37q-154 -50 -152 -206q0 -86 34 -137q34 -52 121 -52q88 0 154 62q67 63 67 147zM250 1413q0 87 58 145t144 58t145 -58q58 -58 58 -144t-58 -145t-144 -59q-87 0 -145 58t-58 145z
M336 1413q0 -47 35 -82t82 -35t82 35t34 82q0 47 -34 82q-35 35 -82 35t-82 -35t-35 -82z" />
    <glyph glyph-name="ae" unicode="&#xe6;" horiz-adv-x="1366" 
d="M1133 664v59q0 179 -64.5 223.5t-122.5 44.5t-122 -59.5t-64 -226.5v-41h373zM430 991q-176 0 -176 -215v-10h-172q0 190 87 275t273 85q111 0 177.5 -41t85.5 -110h4q26 65 99.5 108t175.5 43t170.5 -49t113.5 -149.5t45 -329.5v-70h-559q0 -190 21.5 -264t60 -116
t104.5 -42q113 0 153 81.5t40 172.5h172q0 -126 -82 -257.5t-265 -131.5q-147 0 -217 71t-77 130h-5q-41 -88 -111.5 -144.5t-200.5 -56.5t-212 86.5t-82 218.5q0 254 209 318l256 78q49 16 62.5 52t13.5 105q0 162 -164 162zM594 356v215h-4q-10 -19 -90 -44t-121 -37.5
t-55 -18.5q-91 -34 -91 -174q0 -76 36 -133.5t114 -57.5q132 0 171.5 85t39.5 165z" />
    <glyph glyph-name="ccedilla" unicode="&#xe7;" horiz-adv-x="872" 
d="M594.5 -142q50.5 -36 50.5 -110t-65 -126t-138 -52q-135 0 -219 41l31 70q2 0 17.5 -4.5t56 -12.5t80.5 -8t65 24.5t25 57.5t-30 53.5t-65 20.5t-84 -15l-30 37l102 141q-161 17 -243 145t-82 402t81.5 439t309.5 165q199 0 274.5 -114t75.5 -248h-172q0 88 -40.5 157.5
t-133.5 69.5q-41 0 -79 -14t-87 -92t-49 -348q0 -181 23.5 -258.5t66 -125t108.5 -47.5t101 27t62.5 80.5t27.5 167.5h172q0 -179 -94.5 -290t-237.5 -118l-59 -84l4 -4q36 9 80 9t94.5 -36z" />
    <glyph glyph-name="egrave" unicode="&#xe8;" horiz-adv-x="909" 
d="M653 664v59q0 177 -96 244q-37 25 -99 25t-103 -37q-93 -84 -93 -250v-41h391zM256 528q0 -193 24 -265q51 -157 172 -157q122 0 170 96q31 65 31 158h172q0 -131 -71 -238q-100 -151 -300 -151q-200 -1 -289 139t-89 412t68 411q95 193 323 193q227 0 309 -175
q55 -115 58 -353v-70h-578zM420 1538l143 -291h-123l-221 291h201z" />
    <glyph glyph-name="eacute" unicode="&#xe9;" horiz-adv-x="909" 
d="M653 664v59q0 177 -96 244q-37 25 -99 25t-103 -37q-93 -84 -93 -250v-41h391zM256 528q0 -193 24 -265q51 -157 172 -157q122 0 170 96q31 65 31 158h172q0 -131 -71 -238q-100 -151 -300 -151q-200 -1 -289 139t-89 412t68 411q95 193 323 193q227 0 309 -175
q55 -115 58 -353v-70h-578zM545 1538h200l-221 -291h-123z" />
    <glyph glyph-name="ecircumflex" unicode="&#xea;" horiz-adv-x="909" 
d="M653 664v59q0 177 -96 244q-37 25 -99 25t-103 -37q-93 -84 -93 -250v-41h391zM256 528q0 -193 24 -265q51 -157 172 -157q122 0 170 96q31 65 31 158h172q0 -131 -71 -238q-100 -151 -300 -151q-200 -1 -289 139t-89 412t68 411q95 193 323 193q227 0 309 -175
q55 -115 58 -353v-70h-578zM389 1538h158l205 -291h-160l-125 180l-125 -180h-160z" />
    <glyph glyph-name="edieresis" unicode="&#xeb;" horiz-adv-x="909" 
d="M653 664v59q0 177 -96 244q-37 25 -99 25t-103 -37q-93 -84 -93 -250v-41h391zM256 528q0 -193 24 -265q51 -157 172 -157q122 0 170 96q31 65 31 158h172q0 -131 -71 -238q-100 -151 -300 -151q-200 -1 -289 139t-89 412t68 411q95 193 323 193q227 0 309 -175
q55 -115 58 -353v-70h-578zM223 1497h160v-207h-160v207zM555 1497h160v-207h-160v207z" />
    <glyph glyph-name="igrave" unicode="&#xec;" horiz-adv-x="417" 
d="M123 1098h172v-1098h-172v1098zM152 1538l143 -291h-123l-221 291h201z" />
    <glyph glyph-name="iacute" unicode="&#xed;" horiz-adv-x="417" 
d="M123 1098h172v-1098h-172v1098zM266 1538h201l-221 -291h-123z" />
    <glyph glyph-name="icircumflex" unicode="&#xee;" horiz-adv-x="417" 
d="M123 1098h172v-1098h-172v1098zM131 1538h158l205 -291h-160l-125 180l-125 -180h-160z" />
    <glyph glyph-name="idieresis" unicode="&#xef;" horiz-adv-x="417" 
d="M123 1098h172v-1098h-172v1098zM-37 1497h160v-207h-160v207zM295 1497h160v-207h-160v207z" />
    <glyph glyph-name="eth" unicode="&#xf0;" horiz-adv-x="909" 
d="M451 963q-211 0 -211 -414q0 -207 30.5 -289t72.5 -118t109 -36q123 0 170.5 117.5t47.5 310.5t-32 274t-74.5 118t-112.5 37zM454.5 -29q-395.5 0 -395.5 578q0 251 87.5 400t308.5 149q66 0 120 -35h5q-89 137 -185 240l-149 -84l-78 86l145 81q-55 55 -157 138l131 57
q64 -52 147 -125l152 86l78 -86l-144 -82q166 -166 248 -359t82 -466q0 -578 -395.5 -578z" />
    <glyph glyph-name="ntilde" unicode="&#xf1;" 
d="M113 1098h163v-129h5q35 77 111 117t170 40q174 0 238 -125q28 -53 32 -113t4 -110v-778h-172v758q0 93 -20 135q-41 86 -132 86q-92 0 -159 -55q-68 -55 -68 -166v-758h-172v1098zM362 1364q-66 0 -79 -92h-111q0 93 55 160t122 67t136 -39q84 -38 115 -38q31 -1 44 31
t20 60h110q0 -85 -47 -156t-129 -71q-53 0 -110 26q-56 26 -82 40q-26 12 -44 12z" />
    <glyph glyph-name="ograve" unicode="&#xf2;" horiz-adv-x="909" 
d="M629 239q41 98 41 309t-32 291t-75 116t-111 36q-178 0 -204 -273q-8 -81 -8 -170t8 -169q27 -273 204 -273q122 0 177 133zM850 549q0 -578 -395 -578q-221 0 -317 173q-79 142 -79 404q0 263 79 405q96 173 316 173t317 -173q79 -142 79 -404zM387 1538l143 -291h-122
l-222 291h201z" />
    <glyph glyph-name="oacute" unicode="&#xf3;" horiz-adv-x="909" 
d="M629 239q41 98 41 309t-32 291t-75 116t-111 36q-178 0 -204 -273q-8 -81 -8 -170t8 -169q27 -273 204 -273q122 0 177 133zM850 549q0 -578 -395 -578q-221 0 -317 173q-79 142 -79 404q0 263 79 405q96 173 316 173t317 -173q79 -142 79 -404zM530 1538h201l-221 -291
h-123z" />
    <glyph glyph-name="ocircumflex" unicode="&#xf4;" horiz-adv-x="909" 
d="M629 239q41 98 41 309t-32 291t-75 116t-111 36q-178 0 -204 -273q-8 -81 -8 -170t8 -169q27 -273 204 -273q122 0 177 133zM850 549q0 -578 -395 -578q-221 0 -317 173q-79 142 -79 404q0 263 79 405q96 173 316 173t317 -173q79 -142 79 -404zM377 1538h158l204 -291
h-159l-125 180l-125 -180h-160z" />
    <glyph glyph-name="otilde" unicode="&#xf5;" horiz-adv-x="909" 
d="M629 239q41 98 41 309t-32 291t-75 116t-111 36q-178 0 -204 -273q-8 -81 -8 -170t8 -169q27 -273 204 -273q122 0 177 133zM850 549q0 -578 -395 -578q-221 0 -317 173q-79 142 -79 404q0 263 79 405q96 173 316 173t317 -173q79 -142 79 -404zM344 1364q-64 0 -80 -92
h-110q0 93 55 160t135 67q52 0 123 -39q84 -38 114 -38q31 -1 45 31q13 32 19 60h111q0 -82 -33 -133q-61 -94 -143 -94q-52 0 -109 26q-59 26 -85 40q-26 12 -42 12z" />
    <glyph glyph-name="odieresis" unicode="&#xf6;" horiz-adv-x="909" 
d="M629 239q41 98 41 309t-32 291t-75 116t-111 36q-178 0 -204 -273q-8 -81 -8 -170t8 -169q27 -273 204 -273q122 0 177 133zM850 549q0 -578 -395 -578q-221 0 -317 173q-79 142 -79 404q0 263 79 405q96 173 316 173t317 -173q79 -142 79 -404zM209 1497h160v-207h-160
v207zM541 1497h159v-207h-159v207z" />
    <glyph glyph-name="divide" unicode="&#xf7;" horiz-adv-x="1228" 
d="M96 586h1037v-135h-1037v135zM500 950q0 47 33.5 81t81 34t81 -34t33.5 -81t-33.5 -80.5t-81 -33.5t-81 33.5t-33.5 80.5zM500 86q0 47 33.5 81t81 34t81 -34t33.5 -81t-33.5 -81t-81 -34t-81 34t-33.5 81z" />
    <glyph glyph-name="oslash" unicode="&#xf8;" horiz-adv-x="909" 
d="M479 106q96 0 143.5 117.5t47.5 311.5t-35 299l-293 -689q41 -39 137 -39zM452 991q-121 0 -166.5 -116.5t-45.5 -314.5t34 -302l293 690q-49 43 -115 43zM717 1026q133 -147 133 -461q0 -281 -89.5 -437.5t-305.5 -156.5q-102 0 -172 37l-56 -129l-96 39l66 156
q-138 138 -138 475q0 262 87.5 419.5t308.5 157.5q100 0 172 -36l53 124l98 -43z" />
    <glyph glyph-name="ugrave" unicode="&#xf9;" 
d="M836 0h-164v129h-4q-35 -76 -111 -117q-77 -41 -171 -41t-152 36q-110 69 -117 203q-4 60 -4 109v779h172v-758q0 -97 19 -136q41 -86 133 -86q91 1 158 56t69 166v758h172v-1098zM403 1538l144 -291h-123l-221 291h200z" />
    <glyph glyph-name="uacute" unicode="&#xfa;" 
d="M836 0h-164v129h-4q-35 -76 -111 -117q-77 -41 -171 -41t-152 36q-110 69 -117 203q-4 60 -4 109v779h172v-758q0 -97 19 -136q41 -86 133 -86q91 1 158 56t69 166v758h172v-1098zM543 1538h200l-221 -291h-123z" />
    <glyph glyph-name="ucircumflex" unicode="&#xfb;" 
d="M836 0h-164v129h-4q-35 -76 -111 -117q-77 -41 -171 -41t-152 36q-110 69 -117 203q-4 60 -4 109v779h172v-758q0 -97 19 -136q41 -86 133 -86q91 1 158 56t69 166v758h172v-1098zM397 1538h158l205 -291h-160l-125 180l-125 -180h-160z" />
    <glyph glyph-name="udieresis" unicode="&#xfc;" 
d="M836 0h-164v129h-4q-35 -76 -111 -117q-77 -41 -171 -41t-152 36q-110 69 -117 203q-4 60 -4 109v779h172v-758q0 -97 19 -136q41 -86 133 -86q91 1 158 56t69 166v758h172v-1098zM227 1497h160v-207h-160v207zM559 1497h160v-207h-160v207z" />
    <glyph glyph-name="yacute" unicode="&#xfd;" horiz-adv-x="831" 
d="M174 -225q61 1 91 31t46 75l33 96l-324 1121h189l217 -881h4l193 881h188l-317 -1172q-40 -143 -79 -191q-38 -48 -87 -72q-49 -23 -117 -23t-135 6v135q37 -6 98 -6zM504 1538h201l-222 -291h-123z" />
    <glyph glyph-name="thorn" unicode="&#xfe;" 
d="M322 238q48 -119 174 -119q163 0 181.5 172t18.5 270q0 206 -43.5 312t-165.5 106t-167.5 -109.5t-45.5 -310.5q0 -202 48 -321zM113 1462h172v-489h4q29 102 111.5 127.5t117.5 25.5q186 0 272.5 -148t86.5 -393q0 -402 -126.5 -508t-216.5 -106t-153.5 41t-91.5 113h-4
v-485h-172v1822z" />
    <glyph glyph-name="ydieresis" unicode="&#xff;" horiz-adv-x="831" 
d="M174 -225q61 1 91 31t46 75l33 96l-324 1121h189l217 -881h4l193 881h188l-317 -1172q-40 -143 -79 -191q-38 -48 -87 -72q-49 -23 -117 -23t-135 6v135q37 -6 98 -6zM184 1497h160v-207h-160v207zM516 1497h160v-207h-160v207z" />
    <glyph glyph-name="Amacron" unicode="&#x100;" horiz-adv-x="1024" 
d="M406 1462h241l393 -1462h-188l-104 401h-467l-109 -401h-188zM317 549h394l-187 706h-4zM256 1784h541v-111h-541v111z" />
    <glyph glyph-name="amacron" unicode="&#x101;" horiz-adv-x="909" 
d="M446 991q-188 0 -188 -215v-10h-172q0 186 86 273t294 87t280 -114q32 -50 37 -104t5 -97v-612q0 -35 6 -62t39 -27q32 0 50 11v-123q-194 -39 -239 49q-15 29 -17 82h-4q-41 -74 -114 -116t-151 -42q-154 0 -226 86q-72 87 -73 219q1 132 51 208t156 110l232 70
q88 26 106 58q19 32 19 107q0 162 -177 162zM616 315v283q-36 -36 -110 -60t-114 -37q-154 -50 -152 -206q0 -86 34 -137q34 -52 121 -52q88 0 154 62q67 63 67 147zM188 1448h541v-111h-541v111z" />
    <glyph glyph-name="Abreve" unicode="&#x102;" horiz-adv-x="1024" 
d="M406 1462h241l393 -1462h-188l-104 401h-467l-109 -401h-188zM317 549h394l-187 706h-4zM371 1823q0 -85 101 -126q28 -11 71 -11t93 40t50 97h98q0 -90 -40 -146q-40 -57 -90 -86t-127 -29q-136 1 -203 99q-49 69 -52 162h99z" />
    <glyph glyph-name="abreve" unicode="&#x103;" horiz-adv-x="909" 
d="M446 991q-188 0 -188 -215v-10h-172q0 186 86 273t294 87t280 -114q32 -50 37 -104t5 -97v-612q0 -35 6 -62t39 -27q32 0 50 11v-123q-194 -39 -239 49q-15 29 -17 82h-4q-41 -74 -114 -116t-151 -42q-154 0 -226 86q-72 87 -73 219q1 132 51 208t156 110l232 70
q88 26 106 58q19 32 19 107q0 162 -177 162zM616 315v283q-36 -36 -110 -60t-114 -37q-154 -50 -152 -206q0 -86 34 -137q34 -52 121 -52q88 0 154 62q67 63 67 147zM295 1524q0 -85 101 -126q58 -23 115 0t85 72q14 25 14 54h99q0 -88 -52 -162q-71 -100 -205 -99
q-135 1 -204 99q-51 72 -51 162h98z" />
    <glyph glyph-name="Aogonek" unicode="&#x104;" horiz-adv-x="1024" 
d="M317 549h394l-187 706h-4zM600 -270q0 150 252 270l-104 401h-467l-109 -401h-188l422 1462h241l393 -1462h-79q-179 -129 -196 -181t-17 -75q0 -78 81 -78q64 0 136 33l36 -72q-94 -57 -201 -57q-200 0 -200 160z" />
    <glyph glyph-name="aogonek" unicode="&#x105;" horiz-adv-x="909" 
d="M240 288q0 -79 33.5 -130.5t121.5 -51.5t154.5 62.5t66.5 146.5v283q-37 -37 -148.5 -72.5t-147.5 -59.5t-58 -61.5t-22 -116.5zM446 991q-188 0 -188 -215v-10h-172q0 186 86 273t294 87t260 -81.5t57 -136t5 -97.5v-612q0 -35 6 -61.5t40 -26.5t49 10v-123
q-11 -3 -56 -8q-145 -106 -171.5 -157.5t-26.5 -88.5q0 -78 82 -78q63 0 135 33l37 -72q-94 -57 -201 -57q-201 0 -201 160q0 150 236 262q-20 4 -35 12q-52 36 -55 125h-4q-41 -74 -114 -116t-151 -42q-154 0 -226.5 86.5t-72.5 218.5t50.5 208.5t156.5 109.5l232 70
q86 26 105.5 57.5t19.5 107.5q0 162 -177 162z" />
    <glyph glyph-name="Cacute" unicode="&#x106;" horiz-adv-x="1062" 
d="M287 731q0 -300 48 -433q65 -179 234 -179q144 0 208 125q43 84 48 258h189q-21 -369 -243 -487q-83 -44 -221 -44t-230 67q-174 126 -206 415t2 567t210 404q92 67 243 67q223 0 325 -119t107 -336h-188q-10 310 -244 307q-243 0 -273 -373q-9 -112 -9 -239zM651 1874
h201l-221 -291h-123z" />
    <glyph glyph-name="cacute" unicode="&#x107;" horiz-adv-x="872" 
d="M635 764q0 153 -91 207q-34 20 -79 20t-83 -14q-136 -50 -136 -440q0 -181 23 -259t65 -124t110 -48q66 0 101 27q90 69 90 248h172q0 -259 -189 -370q-70 -40 -172 -40q-204 -1 -292 139t-88 412t68 411q95 193 323 193q198 0 287 -134q63 -93 63 -228h-172zM541 1538
h200l-221 -291h-123z" />
    <glyph glyph-name="Ccircumflex" unicode="&#x108;" horiz-adv-x="1062" 
d="M287 731q0 -300 48 -433q65 -179 234 -179q144 0 208 125q43 84 48 258h189q-21 -369 -243 -487q-83 -44 -221 -44t-230 67q-174 126 -206 415t2 567t210 404q92 67 243 67q223 0 325 -119t107 -336h-188q-10 310 -244 307q-243 0 -273 -373q-9 -112 -9 -239zM496 1874
h157l205 -291h-160l-125 180l-124 -180h-160z" />
    <glyph glyph-name="ccircumflex" unicode="&#x109;" horiz-adv-x="872" 
d="M635 764q0 153 -91 207q-34 20 -79 20t-83 -14q-136 -50 -136 -440q0 -181 23 -259t65 -124t110 -48q66 0 101 27q90 69 90 248h172q0 -259 -189 -370q-70 -40 -172 -40q-204 -1 -292 139t-88 412t68 411q95 193 323 193q198 0 287 -134q63 -93 63 -228h-172zM385 1538
h158l205 -291h-160l-125 180l-125 -180h-160z" />
    <glyph glyph-name="Cdotaccent" unicode="&#x10a;" horiz-adv-x="1062" 
d="M287 731q0 -300 48 -433q65 -179 234 -179q144 0 208 125q43 84 48 258h189q-21 -369 -243 -487q-83 -44 -221 -44t-230 67q-174 126 -206 415t2 567t210 404q92 67 243 67q223 0 325 -119t107 -336h-188q-10 310 -244 307q-243 0 -273 -373q-9 -112 -9 -239zM492 1833
h159v-207h-159v207z" />
    <glyph glyph-name="cdotaccent" unicode="&#x10b;" horiz-adv-x="872" 
d="M635 764q0 153 -91 207q-34 20 -79 20t-83 -14q-136 -50 -136 -440q0 -181 23 -259t65 -124t110 -48q66 0 101 27q90 69 90 248h172q0 -259 -189 -370q-70 -40 -172 -40q-204 -1 -292 139t-88 412t68 411q95 193 323 193q198 0 287 -134q63 -93 63 -228h-172zM381 1497
h160v-207h-160v207z" />
    <glyph glyph-name="Ccaron" unicode="&#x10c;" horiz-adv-x="1062" 
d="M287 731q0 -300 48 -433q65 -179 234 -179q144 0 208 125q43 84 48 258h189q-21 -369 -243 -487q-83 -44 -221 -44t-230 67q-174 126 -206 415t2 567t210 404q92 67 243 67q223 0 325 -119t107 -336h-188q-10 310 -244 307q-243 0 -273 -373q-9 -112 -9 -239zM645 1583
h-158l-204 291h159l125 -180l125 180h160z" />
    <glyph glyph-name="ccaron" unicode="&#x10d;" horiz-adv-x="872" 
d="M635 764q0 153 -91 207q-34 20 -79 20t-83 -14q-136 -50 -136 -440q0 -181 23 -259t65 -124t110 -48q66 0 101 27q90 69 90 248h172q0 -259 -189 -370q-70 -40 -172 -40q-204 -1 -292 139t-88 412t68 411q95 193 323 193q198 0 287 -134q63 -93 63 -228h-172zM528 1247
h-157l-205 291h160l125 -180l124 180h160z" />
    <glyph glyph-name="Dcaron" unicode="&#x10e;" horiz-adv-x="1138" 
d="M317 147h189q207 0 290 193q56 131 56 389q0 107 -8 211q-17 226 -146 323q-70 52 -192 52h-189v-1168zM1040 738q0 -737 -493 -738h-410v1462h391q313 0 426 -214q54 -99 70 -232q16 -132 16 -278zM592 1583h-158l-205 291h160l125 -180l125 180h160z" />
    <glyph glyph-name="dcaron" unicode="&#x10f;" horiz-adv-x="1073" 
d="M252 549q0 -98 9 -178q28 -252 192 -252q187 0 213 257q8 79 8 166q0 202 -41 302q-55 135 -180 135q-164 0 -192 -252q-9 -80 -9 -178zM430 -29q-358 -1 -358 577t346 578q74 0 144 -41t97 -112h5v489h172v-1462h-164v135h-4q-17 -65 -85 -114q-68 -48 -153 -50z
M977 1462h178l-121 -291h-110z" />
    <glyph glyph-name="Dcroat" unicode="&#x110;" horiz-adv-x="1138" 
d="M137 696h-119v135h119v631h391q312 0 396 -156.5t100 -289t16 -278.5q0 -737 -493 -738h-410v696zM506 147q208 0 277 163.5t69 418.5q0 106 -18.5 346t-327.5 240h-189v-484h275v-135h-275v-549h189z" />
    <glyph glyph-name="dcroat" unicode="&#x111;" horiz-adv-x="978" 
d="M252 549q0 -214 44 -322t166 -108t167 110t45 310t-33 283t-76 120t-107 37t-103.5 -30.5t-71 -108t-31.5 -291.5zM72 549q0 577 346 577q74 0 143.5 -41t97.5 -112h5v237h-209v101h209v151h172v-151h159v-101h-159v-1210h-164v135h-4q-17 -65 -86.5 -114.5t-159.5 -49.5
q-178 0 -264 152.5t-86 425.5z" />
    <glyph glyph-name="Emacron" unicode="&#x112;" 
d="M119 1462h755v-159h-575v-459h543v-160h-543v-524h600v-160h-780v1462zM236 1784h540v-111h-540v111z" />
    <glyph glyph-name="emacron" unicode="&#x113;" horiz-adv-x="909" 
d="M653 664v59q0 177 -96 244q-37 25 -99 25t-103 -37q-93 -84 -93 -250v-41h391zM256 528q0 -193 24 -265q51 -157 172 -157q122 0 170 96q31 65 31 158h172q0 -131 -71 -238q-100 -151 -300 -151q-200 -1 -289 139t-89 412t68 411q95 193 323 193q227 0 309 -175
q55 -115 58 -353v-70h-578zM199 1448h540v-111h-540v111z" />
    <glyph glyph-name="Ebreve" unicode="&#x114;" 
d="M119 1462h755v-159h-575v-459h543v-160h-543v-524h600v-160h-780v1462zM334 1860q0 -85 101 -126q58 -23 115 0t85 72q14 25 14 54h99q0 -88 -52 -162q-70 -99 -204 -99t-205 99q-51 72 -51 162h98z" />
    <glyph glyph-name="ebreve" unicode="&#x115;" horiz-adv-x="909" 
d="M653 664v59q0 177 -96 244q-37 25 -99 25t-103 -37q-93 -84 -93 -250v-41h391zM256 528q0 -193 24 -265q51 -157 172 -157q122 0 170 96q31 65 31 158h172q0 -131 -71 -238q-100 -151 -300 -151q-200 -1 -289 139t-89 412t68 411q95 193 323 193q227 0 309 -175
q55 -115 58 -353v-70h-578zM313 1524q0 -56 52 -97q81 -63 161 -29q100 38 103 126h98q0 -90 -40 -146q-40 -57 -90 -86q-50 -28 -127 -28q-135 1 -204 98q-51 72 -51 162h98z" />
    <glyph glyph-name="Edotaccent" unicode="&#x116;" 
d="M119 1462h755v-159h-575v-459h543v-160h-543v-524h600v-160h-780v1462zM420 1833h160v-207h-160v207z" />
    <glyph glyph-name="edotaccent" unicode="&#x117;" horiz-adv-x="909" 
d="M653 664v59q0 177 -96 244q-37 25 -99 25t-103 -37q-93 -84 -93 -250v-41h391zM256 528q0 -193 24 -265q51 -157 172 -157q122 0 170 96q31 65 31 158h172q0 -131 -71 -238q-100 -151 -300 -151q-200 -1 -289 139t-89 412t68 411q95 193 323 193q227 0 309 -175
q55 -115 58 -353v-70h-578zM387 1497h160v-207h-160v207z" />
    <glyph glyph-name="Eogonek" unicode="&#x118;" 
d="M498 -270q0 150 252 270h-631v1462h755v-159h-575v-459h543v-160h-543v-524h600v-160h-41q-176 -127 -194.5 -180t-18.5 -76q0 -78 82 -78q63 0 135 33l37 -72q-94 -57 -201 -57q-200 0 -200 160z" />
    <glyph glyph-name="eogonek" unicode="&#x119;" horiz-adv-x="909" 
d="M653 664v59q0 180 -66.5 224t-128.5 44t-129 -59t-67 -227v-41h391zM454 -430q-200 0 -200 160q0 131 190 241q-196 5 -282 141t-86 410t81.5 439t308.5 165q226 0 297 -148t71 -380v-70h-578q0 -192 23.5 -265t66 -115t112.5 -42q117 0 156 80.5t39 173.5h172
q0 -146 -73.5 -240t-149.5 -124q-56 -39 -102 -80q-55 -55 -77 -93t-22 -79q0 -78 82 -78q65 0 135 33l37 -72q-93 -57 -201 -57z" />
    <glyph glyph-name="Ecaron" unicode="&#x11a;" 
d="M119 1462h755v-159h-575v-459h543v-160h-543v-524h600v-160h-780v1462zM575 1583h-157l-205 291h160l125 -180l125 180h159z" />
    <glyph glyph-name="ecaron" unicode="&#x11b;" horiz-adv-x="909" 
d="M653 664v59q0 177 -96 244q-37 25 -99 25t-103 -37q-93 -84 -93 -250v-41h391zM256 528q0 -193 24 -265q51 -157 172 -157q122 0 170 96q31 65 31 158h172q0 -131 -71 -238q-100 -151 -300 -151q-200 -1 -289 139t-89 412t68 411q95 193 323 193q227 0 309 -175
q55 -115 58 -353v-70h-578zM545 1247h-158l-205 291h160l125 -180l125 180h160z" />
    <glyph glyph-name="Gcircumflex" unicode="&#x11c;" horiz-adv-x="1099" 
d="M287 731q0 -127 9 -239t39 -194q65 -179 232 -179t230 174q38 104 41 319h-289v148h452v-760h-135v199h-4q-28 -94 -110 -161t-215 -67q-133 -1 -221 63t-137 170q-79 173 -80 520t83 525q113 242 387 242q187 0 298 -95q134 -117 134 -339h-188q-20 289 -244 286
q-243 0 -273 -373q-9 -112 -9 -239zM498 1874h157l205 -291h-160l-125 180l-124 -180h-160z" />
    <glyph glyph-name="gcircumflex" unicode="&#x11d;" 
d="M458 979q-169 0 -197 -252q-9 -80 -9 -214t28 -212q28 -77 66 -115q39 -38 107 -39q126 0 180 116q41 89 41 285t-33 276q-33 81 -75 118q-44 37 -108 37zM274 -102q11 -140 184 -140q75 0 119 28q78 50 85 147q2 42 2 71v143h-5q-29 -71 -97 -109t-150 -38
q-80 0 -136 31q-204 112 -204 515t185 532q69 48 165 48t162 -50q67 -50 84 -118h4v140h164v-1028q0 -345 -223 -423q-69 -24 -122 -24t-109 4t-114 30q-147 65 -166 241h172zM408 1538h157l205 -291h-160l-125 180l-125 -180h-159z" />
    <glyph glyph-name="Gbreve" unicode="&#x11e;" horiz-adv-x="1099" 
d="M287 731q0 -127 9 -239t39 -194q65 -179 232 -179t230 174q38 104 41 319h-289v148h452v-760h-135v199h-4q-28 -94 -110 -161t-215 -67q-133 -1 -221 63t-137 170q-79 173 -80 520t83 525q113 242 387 242q187 0 298 -95q134 -117 134 -339h-188q-20 289 -244 286
q-243 0 -273 -373q-9 -112 -9 -239zM420 1860q0 -85 101 -126q58 -23 115 0t85 72q14 25 14 54h99q0 -88 -52 -162q-70 -99 -204 -99t-205 99q-51 72 -51 162h98z" />
    <glyph glyph-name="gbreve" unicode="&#x11f;" 
d="M458 979q-169 0 -197 -252q-9 -80 -9 -214t28 -212q28 -77 66 -115q39 -38 107 -39q126 0 180 116q41 89 41 285t-33 276q-33 81 -75 118q-44 37 -108 37zM274 -102q11 -140 184 -140q75 0 119 28q78 50 85 147q2 42 2 71v143h-5q-29 -71 -97 -109t-150 -38
q-80 0 -136 31q-204 112 -204 515t185 532q69 48 165 48t162 -50q67 -50 84 -118h4v140h164v-1028q0 -345 -223 -423q-69 -24 -122 -24t-109 4t-114 30q-147 65 -166 241h172zM340 1524q0 -85 101 -126q58 -23 115 0t85 72q14 25 14 54h99q0 -88 -52 -162q-71 -100 -205 -99
q-135 1 -204 99q-51 72 -51 162h98z" />
    <glyph glyph-name="Gdotaccent" unicode="&#x120;" horiz-adv-x="1099" 
d="M287 731q0 -127 9 -239t39 -194q65 -179 232 -179t230 174q38 104 41 319h-289v148h452v-760h-135v199h-4q-28 -94 -110 -161t-215 -67q-133 -1 -221 63t-137 170q-79 173 -80 520t83 525q113 242 387 242q187 0 298 -95q134 -117 134 -339h-188q-20 289 -244 286
q-243 0 -273 -373q-9 -112 -9 -239zM500 1833h159v-207h-159v207z" />
    <glyph glyph-name="gdotaccent" unicode="&#x121;" 
d="M458 979q-169 0 -197 -252q-9 -80 -9 -214t28 -212q28 -77 66 -115q39 -38 107 -39q126 0 180 116q41 89 41 285t-33 276q-33 81 -75 118q-44 37 -108 37zM274 -102q11 -140 184 -140q75 0 119 28q78 50 85 147q2 42 2 71v143h-5q-29 -71 -97 -109t-150 -38
q-80 0 -136 31q-204 112 -204 515t185 532q69 48 165 48t162 -50q67 -50 84 -118h4v140h164v-1028q0 -345 -223 -423q-69 -24 -122 -24t-109 4t-114 30q-147 65 -166 241h172zM410 1497h159v-207h-159v207z" />
    <glyph glyph-name="Gcommaaccent" unicode="&#x122;" horiz-adv-x="1099" 
d="M287 731q0 -127 9 -239t39 -194q65 -179 232 -179t230 174q38 104 41 319h-289v148h452v-760h-135v199h-4q-28 -94 -110 -161t-215 -67q-133 -1 -221 63t-137 170q-79 173 -80 520t83 525q113 242 387 242q187 0 298 -95q134 -117 134 -339h-188q-20 289 -244 286
q-243 0 -273 -373q-9 -112 -9 -239zM477 -102h170v-164q0 -84 -40 -121t-120 -43v53q27 9 47 23t23 65h-80v187z" />
    <glyph glyph-name="gcommaaccent" unicode="&#x123;" 
d="M458 979q-169 0 -197 -252q-9 -80 -9 -214t28 -212q28 -77 66 -115q39 -38 107 -39q126 0 180 116q41 89 41 285t-33 276q-33 81 -75 118q-44 37 -108 37zM274 -102q11 -140 184 -140q75 0 119 28q78 50 85 147q2 42 2 71v143h-5q-29 -71 -97 -109t-150 -38
q-80 0 -136 31q-204 112 -204 515t185 532q69 48 165 48t162 -50q67 -50 84 -118h4v140h164v-1028q0 -345 -223 -423q-69 -24 -122 -24t-109 4t-114 30q-147 65 -166 241h172zM553 1276h-170v174q0 141 160 154v-54q-27 -8 -46 -22t-24 -66h80v-186z" />
    <glyph glyph-name="Hcircumflex" unicode="&#x124;" horiz-adv-x="1099" 
d="M981 0h-180v705h-502v-705h-180v1462h180v-598h502v598h180v-1462zM475 1874h158l205 -291h-160l-125 180l-125 -180h-160z" />
    <glyph glyph-name="hcircumflex" unicode="&#x125;" 
d="M113 1462h172v-489h4q49 101 187 142q40 11 77 11q186 0 248 -125q27 -53 31 -113t4 -110v-778h-172v758q0 93 -20 135q-41 86 -132 86q-92 0 -159 -55q-68 -55 -68 -166v-758h-172v1462zM397 1874h158l205 -291h-160l-125 180l-125 -180h-160z" />
    <glyph glyph-name="Hbar" unicode="&#x126;" horiz-adv-x="1099" 
d="M801 844v153h-502v-153h502zM981 0h-180v684h-502v-684h-180v1462h180v-364h502v364h180v-1462z" />
    <glyph glyph-name="hbar" unicode="&#x127;" horiz-adv-x="978" 
d="M-6 1311h149v151h172v-151h220v-101h-220v-237h4q31 65 109 109t170 44t149.5 -35.5t84 -89t30.5 -114t4 -109.5v-778h-172v758q0 96 -30.5 158.5t-120.5 62.5t-159 -55.5t-69 -165.5v-758h-172v1210h-149v101z" />
    <glyph glyph-name="Itilde" unicode="&#x128;" horiz-adv-x="417" 
d="M119 1462h180v-1462h-180v1462zM98 1700q-64 0 -80 -92h-110q0 94 55 160q55 67 122 67t136 -39q86 -39 116 -39t43 32t19 60h111q0 -87 -47 -157t-129 -70q-53 0 -136 39t-100 39z" />
    <glyph glyph-name="itilde" unicode="&#x129;" horiz-adv-x="417" 
d="M123 1098h172v-1098h-172v1098zM98 1364q-64 0 -80 -92h-110q0 93 55 160t122 67t136 -39q84 -38 115 -38q31 -1 44 31t19 60h111q0 -85 -47 -156t-129 -71q-53 0 -136 39t-100 39z" />
    <glyph glyph-name="Imacron" unicode="&#x12a;" horiz-adv-x="417" 
d="M119 1462h180v-1462h-180v1462zM-61 1784h540v-111h-540v111z" />
    <glyph glyph-name="imacron" unicode="&#x12b;" horiz-adv-x="417" 
d="M123 1098h172v-1098h-172v1098zM-61 1448h540v-111h-540v111z" />
    <glyph glyph-name="Iogonek" unicode="&#x12e;" horiz-adv-x="417" 
d="M-8 -270q0 150 215 270h-88v1462h180v-1462q-107 -92 -143.5 -147t-36.5 -109q0 -78 69 -78q51 0 115 33l31 -72q-79 -57 -172 -57q-170 0 -170 160z" />
    <glyph glyph-name="iogonek" unicode="&#x12f;" horiz-adv-x="417" 
d="M123 1462h172v-196h-172v196zM-16 -270q0 152 217 270h-78v1098h172v-1098q-154 -128 -169 -180.5t-15 -75.5q0 -78 71 -78q53 0 117 33l31 -72q-83 -57 -174 -57q-172 0 -172 160z" />
    <glyph glyph-name="Idotaccent" unicode="&#x130;" horiz-adv-x="417" 
d="M119 1462h180v-1462h-180v1462zM129 1833h160v-207h-160v207z" />
    <glyph glyph-name="dotlessi" unicode="&#x131;" horiz-adv-x="417" 
d="M123 1098h172v-1098h-172v1098z" />
    <glyph glyph-name="Jcircumflex" unicode="&#x134;" horiz-adv-x="872" 
d="M754 420q0 -216 -71 -322q-86 -127 -296 -127q-173 0 -257 95q-83 95 -85 239v121h172v-107q0 -92 38 -146q39 -54 115 -54t113 19t63 70t27 218v1036h181v-1042zM578 1874h157l205 -291h-160l-125 180l-125 -180h-159z" />
    <glyph glyph-name="jcircumflex" unicode="&#x135;" horiz-adv-x="417" 
d="M-47 -223q48 -6 75 -6t50 14q39 23 43 97q2 34 2 73v1143h172v-1204q-1 -135 -61 -203t-201 -68q-17 0 -80 6v148zM127 1538h158l204 -291h-159l-125 180l-125 -180h-160z" />
    <glyph glyph-name="Kcommaaccent" unicode="&#x136;" horiz-adv-x="1024" 
d="M119 1462h180v-708h4l506 708h201l-443 -610l480 -852h-201l-395 705l-152 -207v-498h-180v1462zM438 -102h170v-164q0 -84 -40 -121t-119 -43v53q27 9 46 23t23 65h-80v187z" />
    <glyph glyph-name="kcommaaccent" unicode="&#x137;" horiz-adv-x="909" 
d="M285 0h-172v1462h172v-870h4l385 506h200l-333 -414l391 -684h-201l-305 543l-141 -172v-371zM393 -102h170v-164q0 -84 -40 -121t-120 -43v53q27 9 47 23t23 65h-80v187z" />
    <glyph glyph-name="Lacute" unicode="&#x139;" horiz-adv-x="909" 
d="M119 1462h180v-1302h594v-160h-774v1462zM287 1874h200l-221 -291h-123z" />
    <glyph glyph-name="lacute" unicode="&#x13a;" horiz-adv-x="417" 
d="M123 1462h172v-1462h-172v1462zM266 1874h201l-221 -291h-123z" />
    <glyph glyph-name="Lcommaaccent" unicode="&#x13b;" horiz-adv-x="909" 
d="M119 1462h180v-1302h594v-160h-774v1462zM406 -102h169v-164q1 -84 -39 -121t-120 -43v53q27 9 46 23t23 65h-79v187z" />
    <glyph glyph-name="lcommaaccent" unicode="&#x13c;" horiz-adv-x="417" 
d="M123 1462h172v-1462h-172v1462zM127 -102h170v-164q0 -84 -40 -121t-120 -43v53q27 9 46 23t24 65h-80v187z" />
    <glyph glyph-name="Lcaron" unicode="&#x13d;" horiz-adv-x="909" 
d="M119 1462h180v-1302h594v-160h-774v1462zM506 1462h178l-121 -291h-110z" />
    <glyph glyph-name="lcaron" unicode="&#x13e;" horiz-adv-x="530" 
d="M123 1462h172v-1462h-172v1462zM434 1462h178l-120 -291h-111z" />
    <glyph glyph-name="Ldot" unicode="&#x13f;" horiz-adv-x="909" 
d="M119 1462h180v-1302h594v-160h-774v1462zM485 1100h160v-207h-160v207z" />
    <glyph glyph-name="ldot" unicode="&#x140;" horiz-adv-x="600" 
d="M123 1462h172v-1462h-172v1462zM410 1100h159v-207h-159v207z" />
    <glyph glyph-name="Lslash" unicode="&#x141;" horiz-adv-x="909" 
d="M119 1462h180v-686l397 285v-148l-397 -284v-469h594v-160h-774v500l-135 -97v148l135 96v815z" />
    <glyph glyph-name="lslash" unicode="&#x142;" horiz-adv-x="417" 
d="M123 1462h172v-555l123 129v-159l-123 -129v-748h-172v565l-123 -131v160l123 131v737z" />
    <glyph glyph-name="Nacute" unicode="&#x143;" horiz-adv-x="1138" 
d="M119 1462h233l484 -1220h4v1220h180v-1462h-248l-469 1184h-4v-1184h-180v1462zM645 1874h201l-221 -291h-123z" />
    <glyph glyph-name="nacute" unicode="&#x144;" 
d="M113 1098h163v-129h5q35 77 111 117t170 40q174 0 238 -125q28 -53 32 -113t4 -110v-778h-172v758q0 93 -20 135q-41 86 -132 86q-92 0 -159 -55q-68 -55 -68 -166v-758h-172v1098zM528 1538h201l-221 -291h-123z" />
    <glyph glyph-name="Ncommaaccent" unicode="&#x145;" horiz-adv-x="1138" 
d="M119 1462h233l484 -1220h4v1220h180v-1462h-248l-469 1184h-4v-1184h-180v1462zM475 -102h170v-164q0 -84 -40 -121t-120 -43v53q27 9 46 23t24 65h-80v187z" />
    <glyph glyph-name="ncommaaccent" unicode="&#x146;" 
d="M113 1098h163v-129h5q35 77 111 117t170 40q174 0 238 -125q28 -53 32 -113t4 -110v-778h-172v758q0 93 -20 135q-41 86 -132 86q-92 0 -159 -55q-68 -55 -68 -166v-758h-172v1098zM389 -102h170v-164q0 -84 -40 -121t-120 -43v53q27 9 46 23t24 65h-80v187z" />
    <glyph glyph-name="Ncaron" unicode="&#x147;" horiz-adv-x="1138" 
d="M119 1462h233l484 -1220h4v1220h180v-1462h-248l-469 1184h-4v-1184h-180v1462zM645 1583h-158l-204 291h159l125 -180l125 180h160z" />
    <glyph glyph-name="ncaron" unicode="&#x148;" 
d="M113 1098h163v-129h5q35 77 111 117t170 40q174 0 238 -125q28 -53 32 -113t4 -110v-778h-172v758q0 93 -20 135q-41 86 -132 86q-92 0 -159 -55q-68 -55 -68 -166v-758h-172v1098zM549 1247h-158l-205 291h160l125 -180l125 180h160z" />
    <glyph glyph-name="Omacron" unicode="&#x14c;" horiz-adv-x="1138" 
d="M956 1249q84 -180 84 -520t-84 -516q-113 -242 -385 -242t-389 242q-82 174 -83 516t83 520q113 242 386 242q274 0 388 -242zM569 1343q-94 0 -149 -48q-105 -92 -124 -325q-9 -112 -9 -239t9 -239t39 -194q65 -179 234 -179q244 0 274 374q9 113 9 239q0 301 -48 432
q-65 179 -235 179zM301 1784h541v-111h-541v111z" />
    <glyph glyph-name="omacron" unicode="&#x14d;" horiz-adv-x="909" 
d="M629 239q41 98 41 309t-32 291t-75 116t-111 36q-178 0 -204 -273q-8 -81 -8 -170t8 -169q27 -273 204 -273q122 0 177 133zM850 549q0 -578 -395 -578q-221 0 -317 173q-79 142 -79 404q0 263 79 405q96 173 316 173t317 -173q79 -142 79 -404zM186 1448h541v-111h-541
v111z" />
    <glyph glyph-name="Obreve" unicode="&#x14e;" horiz-adv-x="1138" 
d="M956 1249q84 -180 84 -520t-84 -516q-113 -242 -385 -242t-389 242q-82 174 -83 516t83 520q113 242 386 242q274 0 388 -242zM569 1343q-94 0 -149 -48q-105 -92 -124 -325q-9 -112 -9 -239t9 -239t39 -194q65 -179 234 -179q244 0 274 374q9 113 9 239q0 301 -48 432
q-65 179 -235 179zM410 1860q0 -85 94 -122q94 -38 170 25q51 40 51 97h98q0 -90 -40 -146q-40 -57 -90 -86t-127 -29t-126 29q-124 73 -129 232h99z" />
    <glyph glyph-name="obreve" unicode="&#x14f;" horiz-adv-x="909" 
d="M629 239q41 98 41 309t-32 291t-75 116t-111 36q-178 0 -204 -273q-8 -81 -8 -170t8 -169q27 -273 204 -273q122 0 177 133zM850 549q0 -578 -395 -578q-221 0 -317 173q-79 142 -79 404q0 263 79 405q96 173 316 173t317 -173q79 -142 79 -404zM295 1524q0 -85 101 -126
q58 -23 115 0t85 72q14 25 14 54h99q0 -88 -52 -162q-71 -100 -205 -99q-135 1 -204 99q-51 72 -51 162h98z" />
    <glyph glyph-name="Ohungarumlaut" unicode="&#x150;" horiz-adv-x="1138" 
d="M956 1249q84 -180 84 -520t-84 -516q-113 -242 -385 -242t-389 242q-82 174 -83 516t83 520q113 242 386 242q274 0 388 -242zM569 1343q-94 0 -149 -48q-105 -92 -124 -325q-9 -112 -9 -239t9 -239t39 -194q65 -179 234 -179q244 0 274 374q9 113 9 239q0 301 -48 432
q-65 179 -235 179zM479 1874h201l-221 -291h-123zM815 1874h201l-221 -291h-123z" />
    <glyph glyph-name="ohungarumlaut" unicode="&#x151;" horiz-adv-x="909" 
d="M629 239q41 98 41 309t-32 291t-75 116t-111 36q-178 0 -204 -273q-8 -81 -8 -170t8 -169q27 -273 204 -273q122 0 177 133zM850 549q0 -578 -395 -578q-221 0 -317 173q-79 142 -79 404q0 263 79 405q96 173 316 173t317 -173q79 -142 79 -404zM362 1538h201l-221 -291
h-123zM698 1538h201l-221 -291h-123z" />
    <glyph glyph-name="OE" unicode="&#x152;" horiz-adv-x="1630" 
d="M1024 160h557v-160h-733v129h-4q-29 -74 -105.5 -116t-169.5 -42q-275 0 -373 203t-98 550t99 557t372 210q138 0 201.5 -53.5t81.5 -87.5h4v112h700v-159h-532v-459h500v-160h-500v-524zM844 948q0 78 -11 236.5t-264 158.5q-251 0 -270.5 -242.5t-19.5 -456.5
t57 -369.5t233 -155.5q229 0 252 142t23 214v473z" />
    <glyph glyph-name="oe" unicode="&#x153;" horiz-adv-x="1478" 
d="M80 710.5q0 415.5 250 415.5t317.5 -45t118.5 -141q39 86 116.5 136t183.5 50t174.5 -49t113.5 -149.5t45 -329.5v-70h-559q0 -190 21.5 -264t60.5 -116t105 -42q113 0 152.5 81.5t39.5 172.5h172q0 -126 -82 -257.5t-265 -131.5q-146 0 -208 65t-82 124
q-39 -88 -115.5 -138.5t-182.5 -50.5q-204 0 -290 162t-86 577.5zM465 991q-205 0 -205 -321.5t31 -404.5t70.5 -121t105.5 -38t107.5 38t65.5 99.5t32 141.5t8 223.5t-47 263t-168 119.5zM846 664h373v59q0 179 -64.5 223.5t-122.5 44.5t-122 -59.5t-64 -226.5v-41z" />
    <glyph glyph-name="Racute" unicode="&#x154;" horiz-adv-x="1062" 
d="M119 1462h473q174 0 274 -96t100 -249t-37 -227q-38 -73 -81 -111t-107 -52v-4q97 -10 149 -80t58 -164l13 -250q5 -161 48 -204q13 -14 29 -25h-217q-36 36 -49 211l-12 227q-10 131 -80 182q-44 31 -137 31h-244v-651h-180v1462zM299 799h178q39 0 91 4q120 9 178 115
q32 58 32 166t-67 169q-68 61 -197 62h-215v-516zM545 1874h200l-221 -291h-123z" />
    <glyph glyph-name="racute" unicode="&#x155;" horiz-adv-x="606" 
d="M285 0h-172v1098h172v-164h4q42 90 80 126q71 66 157 66q51 0 76 -12v-168q-48 8 -87 8q-86 0 -149 -62q-83 -78 -81 -198v-694zM303 1538h201l-221 -291h-123z" />
    <glyph glyph-name="Rcommaaccent" unicode="&#x156;" horiz-adv-x="1062" 
d="M119 1462h473q174 0 274 -96t100 -249t-37 -227q-38 -73 -81 -111t-107 -52v-4q97 -10 149 -80t58 -164l13 -250q5 -161 48 -204q13 -14 29 -25h-217q-36 36 -49 211l-12 227q-10 131 -80 182q-44 31 -137 31h-244v-651h-180v1462zM299 799h178q39 0 91 4q120 9 178 115
q32 58 32 166t-67 169q-68 61 -197 62h-215v-516zM449 -102h169v-164q0 -84 -40 -121t-119 -43v53q27 9 46 23t23 65h-79v187z" />
    <glyph glyph-name="rcommaaccent" unicode="&#x157;" horiz-adv-x="606" 
d="M285 0h-172v1098h172v-164h4q42 90 80 126q71 66 157 66q51 0 76 -12v-168q-48 8 -87 8q-86 0 -149 -62q-83 -78 -81 -198v-694zM119 -102h170v-164q0 -84 -40 -121t-120 -43v53q27 9 46 23t24 65h-80v187z" />
    <glyph glyph-name="Rcaron" unicode="&#x158;" horiz-adv-x="1062" 
d="M119 1462h473q174 0 274 -96t100 -249t-37 -227q-38 -73 -81 -111t-107 -52v-4q97 -10 149 -80t58 -164l13 -250q5 -161 48 -204q13 -14 29 -25h-217q-36 36 -49 211l-12 227q-10 131 -80 182q-44 31 -137 31h-244v-651h-180v1462zM299 799h178q39 0 91 4q120 9 178 115
q32 58 32 166t-67 169q-68 61 -197 62h-215v-516zM571 1579h-157l-205 291h160l125 -180l124 180h160z" />
    <glyph glyph-name="rcaron" unicode="&#x159;" horiz-adv-x="606" 
d="M285 0h-172v1098h172v-164h4q42 90 80 126q71 66 157 66q51 0 76 -12v-168q-48 8 -87 8q-86 0 -149 -62q-83 -78 -81 -198v-694zM416 1247h-158l-205 291h160l125 -180l125 180h160z" />
    <glyph glyph-name="Sacute" unicode="&#x15a;" horiz-adv-x="1024" 
d="M739 1083q0 260 -227 260q-117 0 -179 -60q-63 -59 -63 -169t52 -166t128 -88q78 -32 166 -58t165 -69q179 -100 180 -329t-150 -343q-118 -88 -305 -90q-245 0 -344 121t-99 367h181q0 -160 33 -220q33 -61 88 -91t131 -30q194 1 257 152q19 47 19 116q0 124 -107 201
q-49 33 -111 55q-189 65 -252 94q-220 97 -220 349t205 362q84 44 223 44q211 0 308 -101t102 -307h-181zM586 1886h200l-221 -291h-123z" />
    <glyph glyph-name="sacute" unicode="&#x15b;" horiz-adv-x="833" 
d="M584 776q0 104 -34 160t-138 55q-104 0 -148 -77q-20 -34 -20 -87q0 -122 171 -172q125 -37 185 -61q185 -75 182 -279q0 -167 -97 -255q-97 -89 -247 -89q-252 0 -339 153q-36 62 -42 128t-6 108h172q0 -116 31 -164q74 -117 225 -83q73 14 111 82q20 35 20 92
q0 101 -85 152q-38 24 -133 56t-146 52q-177 70 -174 276q0 145 98 224t235 79q135 0 203 -36t108 -102q40 -65 40 -212h-172zM498 1538h200l-221 -291h-123z" />
    <glyph glyph-name="Scircumflex" unicode="&#x15c;" horiz-adv-x="1024" 
d="M739 1083q0 260 -227 260q-117 0 -179 -60q-63 -59 -63 -169t52 -166t128 -88q78 -32 166 -58t165 -69q179 -100 180 -329t-150 -343q-118 -88 -305 -90q-245 0 -344 121t-99 367h181q0 -160 33 -220q33 -61 88 -91t131 -30q194 1 257 152q19 47 19 116q0 124 -107 201
q-49 33 -111 55q-189 65 -252 94q-220 97 -220 349t205 362q84 44 223 44q211 0 308 -101t102 -307h-181zM442 1874h158l205 -291h-160l-125 180l-125 -180h-159z" />
    <glyph glyph-name="scircumflex" unicode="&#x15d;" horiz-adv-x="833" 
d="M584 776q0 104 -34 160t-138 55q-104 0 -148 -77q-20 -34 -20 -87q0 -122 171 -172q125 -37 185 -61q185 -75 182 -279q0 -167 -97 -255q-97 -89 -247 -89q-252 0 -339 153q-36 62 -42 128t-6 108h172q0 -116 31 -164q74 -117 225 -83q73 14 111 82q20 35 20 92
q0 101 -85 152q-38 24 -133 56t-146 52q-177 70 -174 276q0 145 98 224t235 79q135 0 203 -36t108 -102q40 -65 40 -212h-172zM354 1538h158l205 -291h-160l-125 180l-125 -180h-160z" />
    <glyph glyph-name="Scedilla" unicode="&#x15e;" horiz-adv-x="1024" 
d="M656.5 -142q50.5 -36 50.5 -111q0 -74 -65.5 -125.5t-138.5 -51.5q-136 0 -218 41l30 70q2 0 17.5 -4.5t56.5 -12.5t80 -8q40 0 65 24.5t25 57.5t-29.5 53.5t-66.5 20.5t-82 -15l-31 37l101 139q-259 17 -323.5 162.5t-64.5 323.5h181q0 -161 32.5 -221t88 -89.5
t131.5 -29.5q134 0 205 71.5t71 186.5q0 190 -140 238.5t-256 88.5t-205 121t-89 262q0 253 144.5 328.5t283.5 75.5q211 0 308 -101.5t102 -306.5h-181q0 260 -227 260q-117 0 -179.5 -59.5t-62.5 -169.5t51.5 -165.5t128 -88.5t166 -58.5t166 -68.5t128 -118t51.5 -189
q0 -193 -99.5 -317t-324.5 -138l-60 -82l4 -4q37 9 81 9t94.5 -36z" />
    <glyph glyph-name="scedilla" unicode="&#x15f;" horiz-adv-x="833" 
d="M564 -141.5q50 -35.5 50 -111.5q0 -75 -65 -126t-138 -51q-136 0 -218 41l30 70q2 0 17.5 -4.5t56.5 -12.5t81 -8t64.5 24.5t24.5 57.5t-29.5 53.5t-66.5 20.5t-82 -15l-31 37l102 141q-226 24 -267.5 151.5t-41.5 233.5h172q0 -114 31 -163.5t70.5 -70t81.5 -20.5
q85 0 144.5 41t59.5 141q0 99 -64.5 139t-158.5 70.5t-204.5 74.5t-110.5 251q0 147 98 225t235 78q136 0 203.5 -36.5t107.5 -102.5t40 -211h-172q0 104 -34 159.5t-136 55.5t-136 -54.5t-34 -108.5t23.5 -84.5t61.5 -52t86 -36t98 -30.5q129 -41 199 -102.5t70 -199.5
q0 -263 -213 -329q-54 -19 -125 -23l-59 -82l4 -4q37 9 81 9t94 -35.5z" />
    <glyph glyph-name="Scaron" unicode="&#x160;" horiz-adv-x="1024" 
d="M739 1083q0 260 -227 260q-117 0 -179 -60q-63 -59 -63 -169t52 -166t128 -88q78 -32 166 -58t165 -69q179 -100 180 -329t-150 -343q-118 -88 -305 -90q-245 0 -344 121t-99 367h181q0 -160 33 -220q33 -61 88 -91t131 -30q194 1 257 152q19 47 19 116q0 124 -107 201
q-49 33 -111 55q-189 65 -252 94q-220 97 -220 349t205 362q84 44 223 44q211 0 308 -101t102 -307h-181zM598 1583h-158l-204 291h159l125 -180l125 180h160z" />
    <glyph glyph-name="scaron" unicode="&#x161;" horiz-adv-x="833" 
d="M584 776q0 104 -34 160t-138 55q-104 0 -148 -77q-20 -34 -20 -87q0 -122 171 -172q125 -37 185 -61q185 -75 182 -279q0 -167 -97 -255q-97 -89 -247 -89q-252 0 -339 153q-36 62 -42 128t-6 108h172q0 -116 31 -164q74 -117 225 -83q73 14 111 82q20 35 20 92
q0 101 -85 152q-38 24 -133 56t-146 52q-177 70 -174 276q0 145 98 224t235 79q135 0 203 -36t108 -102q40 -65 40 -212h-172zM498 1247h-158l-205 291h160l125 -180l125 180h160z" />
    <glyph glyph-name="Tcommaaccent" unicode="&#x162;" 
d="M563 0h-180v1303h-367v159h916v-159h-369v-1303zM387 -102h170v-164q0 -84 -40 -121t-120 -43v53q27 9 46 23t24 65h-80v187z" />
    <glyph glyph-name="tcommaaccent" unicode="&#x163;" horiz-adv-x="530" 
d="M396 -12q-143 0 -187 51q-45 51 -45 166v758h-160v135h160v319h172v-319h190v-135h-190v-705q0 -66 22 -94t73 -29q50 0 93 6v-141q-48 -12 -128 -12zM246 -102h170v-164q0 -84 -40 -121t-120 -43v53q27 9 46 23t24 65h-80v187z" />
    <glyph glyph-name="Tcaron" unicode="&#x164;" 
d="M563 0h-180v1303h-367v159h916v-159h-369v-1303zM551 1583h-158l-205 291h160l125 -180l125 180h160z" />
    <glyph glyph-name="tcaron" unicode="&#x165;" horiz-adv-x="659" 
d="M555 1462h178l-121 -291h-110zM396 -12q-143 0 -187 51q-45 51 -45 166v758h-160v135h160v319h172v-319h190v-135h-190v-705q0 -66 22 -94t73 -29q50 0 93 6v-141q-48 -12 -128 -12z" />
    <glyph glyph-name="Tbar" unicode="&#x166;" 
d="M563 0h-180v895h-233v100h233v308h-367v159h916v-159h-369v-308h230v-100h-230v-895z" />
    <glyph glyph-name="tbar" unicode="&#x167;" horiz-adv-x="530" 
d="M396 -12q-143 0 -187.5 51.5t-44.5 165.5v403h-176v101h176v254h-160v135h160v319h172v-319h190v-135h-190v-254h205v-101h-205v-350q0 -66 22.5 -94.5t72.5 -28.5t93 6v-141q-48 -12 -128 -12z" />
    <glyph glyph-name="Utilde" unicode="&#x168;" horiz-adv-x="1062" 
d="M102 1462h181v-1028q0 -162 56 -238t195 -77q139 0 193 81q53 81 53 234v1028h181v-1028q0 -211 -108 -337t-327 -126t-321 117t-103 346v1028zM422 1700q-64 0 -80 -92h-111q0 92 56 160q56 67 135 67q52 0 123 -39q31 -14 59 -26t56 -13q30 0 43 32t20 60h111
q0 -84 -33 -134q-61 -93 -144 -93q-51 0 -108 26q-59 26 -85 40q-26 12 -42 12z" />
    <glyph glyph-name="utilde" unicode="&#x169;" 
d="M836 0h-164v129h-4q-35 -76 -111 -117q-77 -41 -171 -41t-152 36q-110 69 -117 203q-4 60 -4 109v779h172v-758q0 -97 19 -136q41 -86 133 -86q91 1 158 56t69 166v758h172v-1098zM367 1364q-67 0 -80 -92h-111q0 93 55 160t136 67q53 0 122 -39q84 -38 115 -38
q31 -1 44 31t20 60h110q0 -85 -47 -156t-129 -71q-51 0 -108 26q-58 26 -84 40q-26 12 -43 12z" />
    <glyph glyph-name="Umacron" unicode="&#x16a;" horiz-adv-x="1062" 
d="M102 1462h181v-1028q0 -162 56 -238t195 -77q139 0 193 81q53 81 53 234v1028h181v-1028q0 -211 -108 -337t-327 -126t-321 117t-103 346v1028zM262 1784h541v-111h-541v111z" />
    <glyph glyph-name="umacron" unicode="&#x16b;" 
d="M836 0h-164v129h-4q-35 -76 -111 -117q-77 -41 -171 -41t-152 36q-110 69 -117 203q-4 60 -4 109v779h172v-758q0 -97 19 -136q41 -86 133 -86q91 1 158 56t69 166v758h172v-1098zM207 1448h541v-111h-541v111z" />
    <glyph glyph-name="Ubreve" unicode="&#x16c;" horiz-adv-x="1062" 
d="M102 1462h181v-1028q0 -162 56 -238t195 -77q139 0 193 81q53 81 53 234v1028h181v-1028q0 -211 -108 -337t-327 -126t-321 117t-103 346v1028zM375 1860q0 -85 94 -122q94 -38 170 25q51 40 51 97h98q0 -90 -40 -146q-40 -57 -90 -86t-127 -29q-133 0 -203 99
q-49 69 -52 162h99z" />
    <glyph glyph-name="ubreve" unicode="&#x16d;" 
d="M836 0h-164v129h-4q-35 -76 -111 -117q-77 -41 -171 -41t-152 36q-110 69 -117 203q-4 60 -4 109v779h172v-758q0 -97 19 -136q41 -86 133 -86q91 1 158 56t69 166v758h172v-1098zM317 1524q0 -56 52 -97q81 -63 161 -29q100 38 103 126h98q0 -90 -40 -146
q-40 -57 -90 -86q-50 -28 -127 -28q-135 1 -204 98q-51 72 -51 162h98z" />
    <glyph glyph-name="Uring" unicode="&#x16e;" horiz-adv-x="1062" 
d="M102 1462h181v-1028q0 -162 56 -238t195 -77q139 0 193 81q53 81 53 234v1028h181v-1028q0 -211 -108 -337t-327 -126t-321 117t-103 346v1028zM330 1714q0 86 58 144t144 59q86 0 144 -58q58 -59 59 -145q0 -86 -58 -144q-59 -58 -145 -58t-144 58t-58 144zM416 1714
q0 -47 35 -82t81 -35t82 35q35 35 35 82t-35 82t-82 35q-48 0 -82 -35t-34 -82z" />
    <glyph glyph-name="uring" unicode="&#x16f;" 
d="M836 0h-164v129h-4q-35 -76 -111 -117q-77 -41 -171 -41t-152 36q-110 69 -117 203q-4 60 -4 109v779h172v-758q0 -97 19 -136q41 -86 133 -86q91 1 158 56t69 166v758h172v-1098zM272 1413q0 87 58 145t145 58t145 -58t58 -144t-58 -145t-144 -59t-146 58
q-58 58 -58 145zM358 1413q0 -47 35 -82t82 -35t82 35t35 82t-35 82t-82 35t-82 -35t-35 -82z" />
    <glyph glyph-name="Uhungarumlaut" unicode="&#x170;" horiz-adv-x="1062" 
d="M102 1462h181v-1028q0 -162 56 -238t195 -77q139 0 193 81q53 81 53 234v1028h181v-1028q0 -211 -108 -337t-327 -126t-321 117t-103 346v1028zM442 1874h201l-221 -291h-123zM778 1874h201l-221 -291h-123z" />
    <glyph glyph-name="uhungarumlaut" unicode="&#x171;" 
d="M836 0h-164v129h-4q-35 -76 -111 -117q-77 -41 -171 -41t-152 36q-110 69 -117 203q-4 60 -4 109v779h172v-758q0 -97 19 -136q41 -86 133 -86q91 1 158 56t69 166v758h172v-1098zM383 1538h201l-222 -291h-122zM719 1538h201l-222 -291h-123z" />
    <glyph glyph-name="Uogonek" unicode="&#x172;" horiz-adv-x="1062" 
d="M102 1462h181v-1028q0 -162 56 -238.5t195 -76.5t192.5 81t53.5 234v1028h181v-1028q0 -211 -109 -338q-70 -82 -195 -110q-45 -33 -98 -82q-92 -84 -92 -161t82 -77q63 0 135 33l37 -72q-94 -57 -201 -57q-201 0 -201 160q0 133 195 241q-410 4 -412 463v1028z" />
    <glyph glyph-name="uogonek" unicode="&#x173;" 
d="M642 -430q-97 0 -137 43t-40 113t48 132t159 142v129h-4q-35 -76 -111.5 -117t-170.5 -41t-152 36t-85.5 89.5t-31.5 113.5t-4 109v779h172v-758q0 -97 19.5 -136.5t51 -62t78.5 -22.5q94 0 162 56t68 165v758h172v-1098h-66q-60 -48 -106 -108q-45 -60 -56.5 -90.5
t-11.5 -61.5q0 -74 74 -74q63 0 123 33l32 -72q-86 -57 -183 -57z" />
    <glyph glyph-name="Wcircumflex" unicode="&#x174;" horiz-adv-x="1478" 
d="M16 1462h181l223 -1196h4l207 1196h217l207 -1196h4l223 1196h180l-301 -1462h-219l-201 1184h-4l-211 -1184h-219zM664 1874h157l205 -291h-160l-125 180l-125 -180h-159z" />
    <glyph glyph-name="wcircumflex" unicode="&#x175;" horiz-adv-x="1327" 
d="M20 1098h181l176 -897h4l186 897h203l182 -897h4l170 897h181l-260 -1098h-189l-192 897h-4l-185 -897h-201zM594 1538h158l204 -291h-159l-125 180l-125 -180h-160z" />
    <glyph glyph-name="Ycircumflex" unicode="&#x176;" horiz-adv-x="946" 
d="M563 0h-180v573l-387 889h199l278 -684l289 684h188l-387 -889v-573zM395 1874h158l205 -291h-160l-125 180l-125 -180h-160z" />
    <glyph glyph-name="ycircumflex" unicode="&#x177;" horiz-adv-x="831" 
d="M174 -225q61 1 91 31t46 75l33 96l-324 1121h189l217 -881h4l193 881h188l-317 -1172q-40 -143 -79 -191q-38 -48 -87 -72q-49 -23 -117 -23t-135 6v135q37 -6 98 -6zM350 1538h158l205 -291h-160l-125 180l-125 -180h-160z" />
    <glyph glyph-name="Ydieresis" unicode="&#x178;" horiz-adv-x="946" 
d="M563 0h-180v573l-387 889h199l278 -684l289 684h188l-387 -889v-573zM225 1833h160v-207h-160v207zM557 1833h160v-207h-160v207z" />
    <glyph glyph-name="Zacute" unicode="&#x179;" 
d="M84 1303v159h809v-166l-657 -1136h665v-160h-854v152l658 1151h-621zM557 1874h201l-221 -291h-123z" />
    <glyph glyph-name="zacute" unicode="&#x17a;" horiz-adv-x="796" 
d="M80 1098h661v-144l-491 -807h487v-147h-682v135l498 815h-473v148zM475 1538h201l-221 -291h-123z" />
    <glyph glyph-name="Zdotaccent" unicode="&#x17b;" 
d="M84 1303v159h809v-166l-657 -1136h665v-160h-854v152l658 1151h-621zM397 1833h160v-207h-160v207z" />
    <glyph glyph-name="zdotaccent" unicode="&#x17c;" horiz-adv-x="796" 
d="M80 1098h661v-144l-491 -807h487v-147h-682v135l498 815h-473v148zM326 1497h159v-207h-159v207z" />
    <glyph glyph-name="Zcaron" unicode="&#x17d;" 
d="M84 1303v159h809v-166l-657 -1136h665v-160h-854v152l658 1151h-621zM557 1583h-158l-204 291h159l125 -180l125 180h160z" />
    <glyph glyph-name="zcaron" unicode="&#x17e;" horiz-adv-x="796" 
d="M80 1098h661v-144l-491 -807h487v-147h-682v135l498 815h-473v148zM483 1247h-157l-205 291h160l125 -180l124 180h160z" />
    <glyph glyph-name="florin" unicode="&#x192;" horiz-adv-x="983" 
d="M74 -225q56 0 81 8t53.5 41t47.5 135l162 819h-213l22 123h213l68 320q29 137 116 189t224 52q68 0 98 -8l-28 -135q-20 8 -74 8q-101 0 -136.5 -58t-64.5 -208l-31 -160h224l-23 -123h-223l-164 -841q-29 -147 -109.5 -222t-234.5 -75q-59 0 -117 8l29 135q24 -8 80 -8z
" />
    <glyph glyph-name="Scommaaccent" unicode="&#x218;" horiz-adv-x="1024" 
d="M739 1083q0 260 -227 260q-117 0 -179 -60q-63 -59 -63 -169t52 -166t128 -88q78 -32 166 -58t165 -69q179 -100 180 -329t-150 -343q-118 -88 -305 -90q-245 0 -344 121t-99 367h181q0 -160 33 -220q33 -61 88 -91t131 -30q194 1 257 152q19 47 19 116q0 124 -107 201
q-49 33 -111 55q-189 65 -252 94q-220 97 -220 349t205 362q84 44 223 44q211 0 308 -101t102 -307h-181zM424 -102h170v-164q0 -84 -40 -121t-120 -43v53q27 9 46 23t24 65h-80v187z" />
    <glyph glyph-name="scommaaccent" unicode="&#x219;" horiz-adv-x="833" 
d="M584 776q0 104 -34 160t-138 55q-104 0 -148 -77q-20 -34 -20 -87q0 -122 171 -172q125 -37 185 -61q185 -75 182 -279q0 -167 -97 -255q-97 -89 -247 -89q-252 0 -339 153q-36 62 -42 128t-6 108h172q0 -116 31 -164q74 -117 225 -83q73 14 111 82q20 35 20 92
q0 101 -85 152q-38 24 -133 56t-146 52q-177 70 -174 276q0 145 98 224t235 79q135 0 203 -36t108 -102q40 -65 40 -212h-172zM334 -102h170v-164q0 -84 -40 -121t-120 -43v53q27 9 46 23t24 65h-80v187z" />
    <glyph glyph-name="uni021A" unicode="&#x21a;" 
d="M563 0h-180v1303h-367v159h916v-159h-369v-1303zM387 -102h170v-164q0 -84 -40 -121t-120 -43v53q27 9 46 23t24 65h-80v187z" />
    <glyph glyph-name="uni021B" unicode="&#x21b;" horiz-adv-x="530" 
d="M396 -12q-143 0 -187 51q-45 51 -45 166v758h-160v135h160v319h172v-319h190v-135h-190v-705q0 -66 22 -94t73 -29q50 0 93 6v-141q-48 -12 -128 -12zM246 -102h170v-164q0 -84 -40 -121t-120 -43v53q27 9 46 23t24 65h-80v187z" />
    <glyph glyph-name="circumflex" unicode="&#x2c6;" horiz-adv-x="417" 
d="M131 1538h158l205 -291h-160l-125 180l-125 -180h-160z" />
    <glyph glyph-name="caron" unicode="&#x2c7;" horiz-adv-x="417" 
d="M287 1247h-158l-205 291h160l125 -180l125 180h160z" />
    <glyph glyph-name="uni02C9" unicode="&#x2c9;" horiz-adv-x="417" 
d="M-61 1448h540v-111h-540v111z" />
    <glyph glyph-name="breve" unicode="&#x2d8;" horiz-adv-x="417" 
d="M51 1524q0 -54 51 -96t92 -42q71 0 122 42t51 96h98q0 -88 -60 -174t-196 -86t-196 85t-60 175h98z" />
    <glyph glyph-name="dotaccent" unicode="&#x2d9;" horiz-adv-x="417" 
d="M129 1497h160v-207h-160v207z" />
    <glyph glyph-name="ring" unicode="&#x2da;" horiz-adv-x="417" 
d="M6 1413q0 86 58.5 144.5t144.5 58.5t144.5 -58.5t58.5 -144.5t-58.5 -144.5t-144.5 -58.5t-144.5 58.5t-58.5 144.5zM92 1413q0 -47 35 -82t82 -35t82 35t35 82t-35 82t-82 35t-82 -35t-35 -82z" />
    <glyph glyph-name="ogonek" unicode="&#x2db;" horiz-adv-x="417" 
d="M8 -270q0 150 252 270h109q-179 -129 -196 -181t-17 -75q0 -78 82 -78q63 0 135 33l37 -72q-94 -57 -201 -57q-201 0 -201 160z" />
    <glyph glyph-name="tilde" unicode="&#x2dc;" horiz-adv-x="417" 
d="M98 1364q-64 0 -80 -92h-110q0 91 55 159t135 68q52 0 123 -39q31 -14 58.5 -26.5t57.5 -12.5t43 32t19 60h111q0 -83 -47 -155t-129 -72q-47 0 -106.5 26.5t-86 39t-43.5 12.5z" />
    <glyph glyph-name="hungarumlaut" unicode="&#x2dd;" horiz-adv-x="417" 
d="M41 1538h201l-222 -291h-122zM377 1538h201l-222 -291h-123z" />
    <glyph glyph-name="uni0394" unicode="&#x394;" horiz-adv-x="1380" 
d="M27 0l571 1458h170l588 -1458h-1329zM682 1286l-436 -1139h880z" />
    <glyph glyph-name="uni03A9" unicode="&#x3a9;" horiz-adv-x="1531" 
d="M885 0v375q178 35 269 161t91 320t-139.5 333.5t-351.5 139.5t-353 -140.5t-141 -334.5t94.5 -323t268.5 -156v-375h-527v137h396v148q-185 52 -290.5 205t-105.5 356q0 137 52.5 254t142.5 199.5t208.5 130t254 47.5t254 -46.5t208 -129t141.5 -198t52 -233.5
q0 -221 -103 -377.5t-290 -207.5v-148h393v-137h-524z" />
    <glyph glyph-name="uni03BC" unicode="&#x3bc;" 
d="M403 -29q-78 0 -118 29v-360h-172v1458h172v-758q0 -97 19.5 -136.5t51 -62t78.5 -22.5q94 0 162 56t68 165v758h172v-1098h-164v129h-4q-35 -76 -111 -117t-154 -41z" />
    <glyph glyph-name="pi" unicode="&#x3c0;" horiz-adv-x="1167" 
d="M981 -12q-114 0 -146 60.5t-32 184.5v607h-504v-840h-154v840h-141v141h1108v-141h-156v-613q0 -45 12.5 -76.5t60.5 -31.5t91 20v-116q-76 -35 -139 -35z" />
    <glyph glyph-name="endash" unicode="&#x2013;" horiz-adv-x="1024" 
d="M0 655h1024v-147h-1024v147z" />
    <glyph glyph-name="emdash" unicode="&#x2014;" horiz-adv-x="2048" 
d="M0 655h2048v-147h-2048v147z" />
    <glyph glyph-name="quoteleft" unicode="&#x2018;" horiz-adv-x="491" 
d="M340 942h-188v178q0 142 23.5 199t61 91t103.5 52v-96q-53 -27 -71.5 -61.5t-18.5 -96.5v-49h90v-217z" />
    <glyph glyph-name="quoteright" unicode="&#x2019;" horiz-adv-x="491" 
d="M152 1462h188v-178q0 -142 -23.5 -199t-61.5 -90.5t-103 -52.5v96q53 27 71.5 62t18.5 96v49h-90v217z" />
    <glyph glyph-name="quotesinglbase" unicode="&#x201a;" horiz-adv-x="491" 
d="M152 217h188v-178q0 -142 -23.5 -199t-61.5 -91t-103 -52v96q53 27 71.5 61.5t18.5 96.5v49h-90v217z" />
    <glyph glyph-name="quotedblleft" unicode="&#x201c;" horiz-adv-x="833" 
d="M672 942h-189v178q0 138 23.5 197t61.5 93t104 52v-96q-53 -27 -71.5 -61.5t-18.5 -96.5v-49h90v-217zM350 942h-188v178q0 142 23.5 199t61.5 91t103 52v-96q-53 -27 -71.5 -61.5t-18.5 -96.5v-49h90v-217z" />
    <glyph glyph-name="quotedblright" unicode="&#x201d;" horiz-adv-x="833" 
d="M672 1284q0 -142 -23.5 -199t-61.5 -90.5t-104 -52.5v96q53 27 71.5 62t18.5 96v49h-90v217h189v-178zM350 1284q0 -142 -23.5 -199t-61.5 -90.5t-103 -52.5v96q53 27 71.5 62t18.5 96v49h-90v217h188v-178z" />
    <glyph glyph-name="quotedblbase" unicode="&#x201e;" horiz-adv-x="833" 
d="M672 39q0 -142 -23.5 -199t-61.5 -91t-104 -52v96q53 27 71.5 61.5t18.5 96.5v49h-90v217h189v-178zM350 39q0 -142 -23.5 -199t-61.5 -91t-103 -52v96q53 27 71.5 61.5t18.5 96.5v49h-90v217h188v-178z" />
    <glyph glyph-name="dagger" unicode="&#x2020;" horiz-adv-x="987" 
d="M408 1462h172v-422h352v-147h-352v-1180h-172v1180h-353v147h353v422z" />
    <glyph glyph-name="daggerdbl" unicode="&#x2021;" horiz-adv-x="987" 
d="M408 1462h172v-395h352v-147h-352v-650h352v-147h-352v-410h-172v410h-353v147h353v650h-353v147h353v395z" />
    <glyph glyph-name="bullet" unicode="&#x2022;" horiz-adv-x="1024" 
d="M147 731q0 76 29 142.5t78 115.5t115.5 78t142.5 29t142.5 -29t115.5 -78t78 -115.5t29 -142.5t-29 -142.5t-78 -115.5t-115.5 -77.5t-142.5 -28.5t-142.5 28.5t-115.5 77.5t-78 115.5t-29 142.5z" />
    <glyph glyph-name="ellipsis" unicode="&#x2026;" horiz-adv-x="2048" 
d="M248 217h188v-217h-188v217zM930 217h188v-217h-188v217zM1612 217h188v-217h-188v217z" />
    <glyph glyph-name="perthousand" unicode="&#x2030;" horiz-adv-x="2123" 
d="M1761 82q43 0 67.5 20.5t36 57.5t14.5 89t3 115.5t-3 115.5t-14.5 89t-36 57.5t-67.5 20.5t-67.5 -20.5t-35.5 -57.5t-14.5 -89t-3.5 -115.5t3.5 -115.5t14.5 -89t35.5 -57.5t67.5 -20.5zM981 1450h143l-635 -1479h-143zM362.5 774q43.5 0 68 20.5t35.5 57.5t14 89
t3 115.5t-3 116t-14 89t-35.5 57t-68 20.5t-68 -20.5t-35.5 -57t-14 -89t-3 -116t3 -115.5t14 -89t35.5 -57.5t68 -20.5zM1725 -29q-128 0 -180 100.5t-52 292.5t35 260t88 101t181.5 33t180.5 -102t52 -292t-35 -258.5t-88.5 -101.5t-181.5 -33zM326 664q-129 0 -180.5 102
t-51.5 291t35 258t88 102t181.5 33t180.5 -101.5t52 -291.5q0 -189 -35 -258.5t-88 -102t-182 -32.5zM1128 82q43 0 68 20.5t36 57.5t14 89t3 115.5t-3 115.5t-14 89t-36 57.5t-68 20.5t-67.5 -20.5t-35.5 -57.5t-14 -89t-3 -115.5t3 -115.5t14 -89t35.5 -57.5t67.5 -20.5z
M1092.5 -29q-128.5 0 -180.5 100.5t-52 292.5t35 260t88 101t181.5 33t180.5 -102t52 -292t-35 -258.5t-88 -101.5t-181.5 -33z" />
    <glyph glyph-name="guilsinglleft" unicode="&#x2039;" horiz-adv-x="491" 
d="M100 662l291 292v-180l-192 -192l192 -193v-180l-291 293v160z" />
    <glyph glyph-name="guilsinglright" unicode="&#x203a;" horiz-adv-x="491" 
d="M391 502l-291 -293v180l193 193l-193 192v180l291 -292v-160z" />
    <glyph glyph-name="fraction" unicode="&#x2044;" horiz-adv-x="342" 
d="M555 1485h123l-891 -1548h-123z" />
    <glyph glyph-name="Euro" unicode="&#x20ac;" horiz-adv-x="983" 
d="M639 1456q157 0 313 -102l-65 -146q-55 47 -110.5 77t-135.5 30q-147 0 -204.5 -104t-76.5 -287h465l-43 -123h-430l-2 -113h400l-43 -123h-355q5 -190 43.5 -278t94 -132t145.5 -44t160.5 36.5t136.5 90.5v-179q-139 -88 -291 -88q-153 0 -240.5 50.5t-155 162.5
t-81.5 381h-125l43 123h80l2 113h-127l43 123h90q50 532 469 532z" />
    <glyph glyph-name="afii61289" unicode="&#x2113;" horiz-adv-x="1024" 
d="M696 1200q0 78 -30.5 125t-76.5 47t-84 -55t-38 -176v-447q229 266 229 506zM467 260q0 -176 165 -176q75 0 167 80h4l53 -78q-127 -115 -258 -115t-206 65.5t-75 199.5v223l-118 -125h-4l-56 82l178 172v528q0 168 77.5 264.5t188.5 96.5t174.5 -71t63.5 -196
q0 -295 -354 -649v-301z" />
    <glyph glyph-name="trademark" unicode="&#x2122;" horiz-adv-x="2027" 
d="M379 1339h-273v123h674v-123h-266v-721h-135v721zM1737 1315h-4l-285 -697h-80l-285 697h-4v-697h-135v844h201l266 -647l260 647h201v-844h-135v697z" />
    <glyph glyph-name="Omega" unicode="&#x2126;" horiz-adv-x="1531" 
d="M885 0v375q178 35 269 161t91 320t-139.5 333.5t-351.5 139.5t-353 -140.5t-141 -334.5t94.5 -323t268.5 -156v-375h-527v137h396v148q-185 52 -290.5 205t-105.5 356q0 137 52.5 254t142.5 199.5t208.5 130t254 47.5t254 -46.5t208 -129t141.5 -198t52 -233.5
q0 -221 -103 -377.5t-290 -207.5v-148h393v-137h-524z" />
    <glyph glyph-name="estimated" unicode="&#x212e;" horiz-adv-x="1228" 
d="M918 604v297q-129 123 -301.5 123t-294.5 -123v-297h596zM322 530v-370q121 -121 296 -121q129 0 223.5 58.5t172.5 187.5l71 -43q-96 -151 -202 -214t-246 -63t-237 44t-166.5 121t-106.5 179.5t-37 284t146.5 342t382.5 160.5q235 0 382.5 -159t147.5 -407h-827z" />
    <glyph glyph-name="partialdiff" unicode="&#x2202;" horiz-adv-x="1046" 
d="M435 1477q283 0 404.5 -219t121.5 -517q0 -590 -187.5 -678t-285.5 -88q-189 0 -304.5 133.5t-115.5 324.5t111 316t302 125t324 -155l2 92q0 202 -58.5 316t-127 167.5t-153.5 53.5t-140.5 -28t-108.5 -69l-86 103q141 123 302 123zM506 748q-142 0 -214.5 -93.5
t-72.5 -224.5t71.5 -231.5t198.5 -100.5q155 0 231.5 154t76.5 321q-53 72 -132 123.5t-159 51.5z" />
    <glyph glyph-name="Delta" unicode="&#x2206;" horiz-adv-x="1380" 
d="M27 0l571 1458h170l588 -1458h-1329zM682 1286l-436 -1139h880z" />
    <glyph glyph-name="product" unicode="&#x220f;" horiz-adv-x="1472" 
d="M1171 -438v1900h-872v-1900h-160v2048h1192v-2048h-160z" />
    <glyph glyph-name="summation" unicode="&#x2211;" horiz-adv-x="1259" 
d="M51 -438v131l660 901l-631 885v131h1102v-148h-895l616 -868l-653 -885h956v-147h-1155z" />
    <glyph glyph-name="minus" unicode="&#x2212;" horiz-adv-x="1228" 
d="M96 586h1037v-135h-1037v135z" />
    <glyph glyph-name="uni2215" unicode="&#x2215;" horiz-adv-x="342" 
d="M555 1485h123l-891 -1548h-123z" />
    <glyph glyph-name="uni2219" unicode="&#x2219;" horiz-adv-x="491" 
d="M131 670q0 47 34 80.5t81 33.5t80.5 -33.5t33.5 -80.5t-33.5 -81t-80.5 -34t-81 34t-34 81z" />
    <glyph glyph-name="radical" unicode="&#x221a;" horiz-adv-x="1032" 
d="M621 -438h-154l-332 684l-96 -45l-57 123l229 106l309 -649l377 1829h156z" />
    <glyph glyph-name="infinity" unicode="&#x221e;" horiz-adv-x="1554" 
d="M1387.5 293q-80.5 -92 -227.5 -92t-245 91t-137 132q-43 -39 -143 -130t-242 -91t-224.5 88.5t-82.5 224.5t81.5 228t224.5 92t244 -96.5t142 -137.5l90 90q89 89 162.5 118.5t139.5 29.5t121 -24.5t116 -91t61 -203t-80.5 -228.5zM1335 518q0 76 -43 129t-134 53
t-177 -79.5t-115 -106.5q91 -85 159 -129.5t147 -44.5q80 0 121.5 51t41.5 127zM219 513q0 -75 45 -124t125 -49q127 0 301 174q-198 184 -307 184q-78 0 -121 -55t-43 -130z" />
    <glyph glyph-name="integral" unicode="&#x222b;" horiz-adv-x="1134" 
d="M383 -342q63 0 60 149.5t-3 159.5v1059q0 49 -2 111.5t5 173.5t63 205t192 94q104 0 133 -42t29 -76t-25.5 -54.5t-55.5 -20.5t-46 13.5t-28.5 31t-22.5 30.5t-23 13q-73 0 -67 -138t6 -150l2 -80v-1047q0 -72 -2 -162t-41.5 -227t-214.5 -137q-89 0 -115 39t-26 67.5
t23.5 51t49.5 22.5t42 -13.5t27 -29.5t20.5 -29.5t19.5 -13.5z" />
    <glyph glyph-name="approxequal" unicode="&#x2248;" horiz-adv-x="1214" 
d="M893 696q122 0 154 154h102q-21 -201 -111 -250t-156 -49t-142 22.5t-150 50t-143 50t-127 22.5t-98 -49t-50 -108h-104q22 202 110 252.5t153.5 50.5t139.5 -22.5t147.5 -50.5t143 -50.5t131.5 -22.5zM882.5 182q-65.5 0 -141 22.5t-151.5 50.5t-145 51.5t-127 23.5
t-98 -50.5t-48 -109.5h-106q30 206 114 254.5t151 48.5t139.5 -22.5t146 -50t143 -50t135.5 -22.5t101.5 45t47.5 106h103q-22 -204 -110.5 -250.5t-154 -46.5z" />
    <glyph glyph-name="notequal" unicode="&#x2260;" horiz-adv-x="1214" 
d="M88 233v148h365l137 260h-502v145h580l157 304l127 -66l-125 -238h299v-145h-374l-138 -260h512v-148h-587l-156 -299l-127 66l121 233h-289z" />
    <glyph glyph-name="lessequal" unicode="&#x2264;" horiz-adv-x="1214" 
d="M88 545v153l1038 383v-159l-835 -299l835 -297v-158zM88 -61v147h1038v-147h-1038z" />
    <glyph glyph-name="greaterequal" unicode="&#x2265;" horiz-adv-x="1214" 
d="M88 168v158l836 297l-836 299v159l1038 -383v-153zM88 -61v147h1038v-147h-1038z" />
    <glyph glyph-name="lozenge" unicode="&#x25ca;" horiz-adv-x="1214" 
d="M680 -72h-148l-350 801l350 801h148l352 -801zM606 1374l-268 -645l268 -645l271 645z" />
    <glyph glyph-name="uniF8FF" unicode="&#xf8ff;" horiz-adv-x="1048" 
d="M1049 1470v-1470h-1049v1470h1049zM946 102v1264h-844v-1264h844zM680 988q0 56 -46 106.5t-109.5 50.5t-109.5 -45t-59 -150l-102 17q14 145 90 212.5t186 67.5t182 -73.5t72 -194.5q0 -66 -25.5 -120t-102.5 -124t-89 -108.5t-12 -147.5h-94l-4 35q0 113 26.5 165.5
t93.5 118.5t85 100t18 90zM455 240v137h114v-137h-114z" />
    <glyph glyph-name="commaaccent" horiz-adv-x="491" 
d="M160 -102h170v-164q0 -84 -40 -121t-120 -43v53q27 8 46.5 22.5t23.5 65.5h-80v187z" />
    <glyph glyph-name="dotlessj" horiz-adv-x="417" 
d="M28 -229q61 0 78 43.5t17 140.5v1143h172v-1204q0 -135 -60.5 -203t-201.5 -68q-20 0 -40 2l-40 4v148q48 -6 75 -6z" />
    <glyph glyph-name="breve.cap" horiz-adv-x="417" 
d="M51 1823q0 -54 50.5 -95.5t92.5 -41.5q72 0 122.5 41.5t50.5 95.5h98q0 -88 -60 -174t-196 -86t-196 85t-60 175h98z" />
    <glyph glyph-name="caron.cap" horiz-adv-x="417" 
d="M287 1583h-158l-205 291h160l125 -180l125 180h160z" />
    <glyph glyph-name="hungarumlaut.cap" horiz-adv-x="417" 
d="M41 1874h201l-222 -291h-122zM377 1874h201l-222 -291h-123z" />
    <glyph glyph-name="dieresis.cap" horiz-adv-x="417" 
d="M-37 1833h160v-207h-160v207zM295 1833h160v-207h-160v207z" />
    <glyph glyph-name="dotaccent.cap" horiz-adv-x="417" 
d="M129 1833h160v-207h-160v207z" />
    <glyph glyph-name="grave.cap" horiz-adv-x="417" 
d="M168 1874l143 -291h-123l-221 291h201z" />
    <glyph glyph-name="macron.cap" horiz-adv-x="417" 
d="M-61 1784h540v-111h-540v111z" />
    <glyph glyph-name="acute.cap" horiz-adv-x="417" 
d="M250 1874h201l-222 -291h-123z" />
    <glyph glyph-name="circumflex.cap" horiz-adv-x="417" 
d="M131 1874h158l205 -291h-160l-125 180l-125 -180h-160z" />
    <glyph glyph-name="tilde.cap" horiz-adv-x="417" 
d="M98 1700q-64 0 -80 -92h-110q0 91 55 159t135 68q47 0 126 -39q78 -39 111 -39q32 0 45 32t19 60h111q0 -83 -47 -155t-129 -72q-47 0 -106.5 26.5t-86 39t-43.5 12.5z" />
    <glyph glyph-name="caron.alt" horiz-adv-x="417" 
d="M160 1462h178l-121 -291h-111z" />
    <glyph glyph-name="ring.cap" horiz-adv-x="417" 
d="M6 1728.5q0 86.5 58.5 144.5t144.5 58t144.5 -58t58.5 -144.5t-58.5 -144.5t-144.5 -58t-144.5 58t-58.5 144.5zM92 1728.5q0 -47.5 35 -82t82 -34.5t82 34.5t35 82t-35 82t-82 34.5t-82 -34.5t-35 -82z" />
    <glyph glyph-name="commaaccent.alt" horiz-adv-x="491" 
d="M332 1276h-170v174q0 141 160 154v-54q-27 -8 -46.5 -22.5t-23.5 -65.5h80v-186z" />
    </font>
</defs>
</svg>
