<?xml version="1.0" standalone="no"?>
<!DOCTYPE svg PUBLIC "-//W3C//DTD SVG 1.1//EN" "http://www.w3.org/Graphics/SVG/1.1/DTD/svg11.dtd" >
<svg xmlns="http://www.w3.org/2000/svg">
<metadata>
Created by FontPrep 20130207 at Tue Sep 16 16:59:59 2014
 By Jefry
Part of the digitally encoded machine readable outline data for producing the Typefaces provided is copyrighted (c) 2006 Linotype GmbH, www.linotype.com. All rights reserved. This software is the property of Linotype GmbH, and may not be reproduced, used, displayed, modified, disclosed or transferred without the express written approval of Linotype GmbH.  Copyright (c) 1988, 1990, 1993 Adobe Systems Incorporated. All Rights Reserved. Helvetica is a trademark of Heidelberger Druckmaschinen AG, exclusively licensed through Linotype GmbH, and may be registered in certain jurisdictions. This typeface is original artwork of Linotype Design Studio. The design may be protected in certain jurisdictions.
</metadata>
<defs>
<font id="340aef951c579f72d818e90bfd9eb6d2" horiz-adv-x='1024' >
  <font-face 
    font-family="HelveticaNeueLTCom-Th"
    font-weight="250"
    font-stretch="normal"
    units-per-em="2048"
    panose-1="2 11 4 3 2 2 2 2 2 4"
    ascent="1462"
    descent="-586"
    x-height="1053"
    cap-height="1462"
    bbox="-346 -444 2132 1944"
    underline-thickness="102"
    underline-position="-102"
    unicode-range="U+000D-FB02"
  />
<missing-glyph horiz-adv-x="1048" 
d="M1049 1470v-1470h-1049v1470h1049zM946 102v1264h-844v-1264h844zM680 988q0 56 -46 106.5t-109.5 50.5t-109.5 -45t-59 -150l-102 17q14 145 90 212.5t186 67.5t182 -73.5t72 -194.5q0 -66 -25.5 -120t-102.5 -124t-89 -108.5t-12 -147.5h-94l-4 35q0 113 26.5 165.5
t93.5 118.5t85 100t18 90zM455 240v137h114v-137h-114z" />
    <glyph glyph-name="IJ" unicode="IJ" horiz-adv-x="1394" 
d="M129 1462h90v-1462h-90v1462zM1141 188q29 62 31 142t4 155v977h90v-1007q0 -141 -12 -199t-36 -110q-82 -180 -376 -181q-124 0 -209 47q-84 47 -124 121t-49 162t-9 170h90q-14 -192 43 -292q74 -130 283 -130q210 0 274 145z" />
    <glyph glyph-name="ij" unicode="ij" horiz-adv-x="706" 
d="M133 0v1053h78v-1053h-78zM133 1251v211h78v-211h-78zM349 -311q36 0 65 9q57 18 73 96q8 40 9 100v1159h77v-1166q1 -124 -31 -172q-59 -92 -158 -92h-58q-16 0 -33 2v68q20 -4 56 -4zM496 1251v211h77v-211h-77z" />
    <glyph glyph-name="napostrophe" unicode="&#x22;n" horiz-adv-x="1097" 
d="M150 1053h77v-226h4q38 113 142 182q104 68 215 68q193 0 289 -88t104 -261q2 -44 2 -77v-651h-78v666q0 134 -36 200q-79 144 -259 144t-281 -122q-102 -122 -102 -319v-569h-77v1053zM72 1462v191h116v-164q0 -127 -129 -135v41q55 12 64 67h-51z" />
    <glyph glyph-name="fi" unicode="fi" horiz-adv-x="796" 
d="M0 1053h188v217q0 154 92.5 181.5t136.5 27.5t95 -11v-67q-50 10 -104 10t-98 -29.5t-44 -117.5v-211h219v-68h-219v-985h-78v985h-188v68zM586 1462h78v-211h-78v211zM586 1053h78v-1053h-78v1053z" />
    <glyph glyph-name="fl" unicode="fl" horiz-adv-x="796" 
d="M0 1053h188v217q0 154 92.5 181.5t136.5 27.5t95 -11v-67q-50 10 -104 10t-98 -29.5t-44 -117.5v-211h219v-68h-219v-985h-78v985h-188v68zM586 1462h78v-1462h-78v1462z" />
    <glyph glyph-name=".notdef" horiz-adv-x="1048" 
d="M1049 1470v-1470h-1049v1470h1049zM946 102v1264h-844v-1264h844zM680 988q0 56 -46 106.5t-109.5 50.5t-109.5 -45t-59 -150l-102 17q14 145 90 212.5t186 67.5t182 -73.5t72 -194.5q0 -66 -25.5 -120t-102.5 -124t-89 -108.5t-12 -147.5h-94l-4 35q0 113 26.5 165.5
t93.5 118.5t85 100t18 90zM455 240v137h114v-137h-114z" />
    <glyph glyph-name=".null" horiz-adv-x="1024" 
 />
    <glyph glyph-name=".null" horiz-adv-x="1024" 
 />
    <glyph glyph-name="nonmarkingreturn" unicode="&#xd;" horiz-adv-x="0" 
 />
    <glyph glyph-name="space" unicode=" " horiz-adv-x="569" 
 />
    <glyph glyph-name="exclam" unicode="!" horiz-adv-x="530" 
d="M315 1462v-493l-24 -594h-49l-25 594v493h98zM213 0v211h104v-211h-104z" />
    <glyph glyph-name="quotedbl" unicode="&#x22;" horiz-adv-x="645" 
d="M164 1462h78v-469h-78v469zM403 1462h78v-469h-78v469z" />
    <glyph glyph-name="numbersign" unicode="#" horiz-adv-x="1138" 
d="M1077 963v-68h-235l-49 -354h227v-68h-238l-65 -473h-68l66 473h-346l-66 -473h-67l65 473h-240v68h250l49 354h-241v68h252l63 450h68l-64 -450h346l64 450h67l-63 -450h225zM379 541h346l49 354h-346z" />
    <glyph glyph-name="dollar" unicode="$" horiz-adv-x="1138" 
d="M594 43q298 0 365 122.5t67 224.5q0 212 -307 290l-125 31v-668zM265 877q118 -39 179 -54l84 -18v614q-193 -7 -287 -90t-94 -216q0 -197 118 -236zM25 481h77q0 -193 106.5 -309.5t319.5 -128.5v682l-96 23q-158 33 -260 111t-102 249q0 277 175 331t283 58v100h66
v-100q334 -6 402.5 -170t72.5 -280h-78q-12 201 -116.5 285.5t-280.5 88.5v-635l160 -38q280 -70 315 -190t35 -208t-81.5 -233t-428.5 -152v-180h-66v180q-243 22 -373 144t-130 372z" />
    <glyph glyph-name="percent" unicode="%" horiz-adv-x="1593" 
d="M1235 1462h82l-952 -1511h-82zM831 338q0 155 93.5 261t250 106t246.5 -102.5t90 -260.5t-96 -262.5t-244.5 -104.5t-244 104t-95.5 259zM1434 338q0 200 -99.5 249.5t-192.5 49.5t-163 -87t-70 -208q0 -120 72.5 -209.5t188.5 -89.5q119 0 191.5 89.5t72.5 205.5z
M176.5 812q-94.5 103 -94.5 259t93 261.5t250 105.5t247 -102.5t90 -260.5t-95.5 -262t-245.5 -104t-244.5 103zM612.5 865.5q71.5 89.5 71.5 205.5q0 201 -99.5 250t-192.5 49t-162.5 -87.5t-69.5 -207.5t71.5 -209.5t190.5 -89.5t190.5 89.5z" />
    <glyph glyph-name="ampersand" unicode="&#x26;" horiz-adv-x="1214" 
d="M807 1174q0 52 -20.5 86t-52.5 58.5t-72.5 38t-107 13.5t-136.5 -53.5t-70 -118.5t20.5 -111.5t49 -88.5t61.5 -79.5t58 -74.5q122 79 170.5 128.5t74 99.5t25.5 102zM273.5 126q107.5 -83 254.5 -83t231.5 79t106 116.5t21.5 42.5l-377 469q-57 -37 -117.5 -75
t-143.5 -115t-83 -214t107.5 -220zM542 -25q-210 0 -332 97t-122 263q0 234 159 332.5t222 139.5q-35 43 -69.5 85t-63.5 88t-47.5 97t-18.5 134t94 155t217 72t213.5 -67.5t90.5 -184.5q0 -185 -125 -273t-178 -127l348 -428q49 121 49 244h78q-8 -155 -74 -309l238 -293
h-105l-178 217q-68 -113 -176 -177.5t-220 -64.5z" />
    <glyph glyph-name="quotesingle" unicode="'" horiz-adv-x="417" 
d="M170 1462h78v-469h-78v469z" />
    <glyph glyph-name="parenleft" unicode="(" horiz-adv-x="493" 
d="M133 550q0 494 268 947h72q-262 -441 -262 -948t256 -926h-70q-264 433 -264 927z" />
    <glyph glyph-name="parenright" unicode=")" horiz-adv-x="493" 
d="M360 570q0 -494 -268 -947h-72q263 442 263 949q0 506 -256 925h69q264 -433 264 -927z" />
    <glyph glyph-name="asterisk" unicode="*" horiz-adv-x="720" 
d="M389 1462v-266l250 84l20 -57l-251 -84l155 -209l-45 -41l-158 217l-163 -217l-50 41l166 209l-254 84l19 57l252 -84v266h59z" />
    <glyph glyph-name="plus" unicode="+" horiz-adv-x="1228" 
d="M575 1032h78v-477h477v-78h-477v-477h-78v477h-477v78h477v477z" />
    <glyph glyph-name="comma" unicode="," horiz-adv-x="569" 
d="M274 0h-43v211h105v-211q0 -208 -131 -258v68q69 30 69 190z" />
    <glyph glyph-name="hyphen" unicode="-" horiz-adv-x="720" 
d="M141 518v78h439v-78h-439z" />
    <glyph glyph-name="period" unicode="." horiz-adv-x="569" 
d="M231 0v211h105v-211h-105z" />
    <glyph glyph-name="slash" unicode="/" horiz-adv-x="681" 
d="M-27 -35l652 1532h84l-652 -1532h-84z" />
    <glyph glyph-name="zero" unicode="0" horiz-adv-x="1138" 
d="M569.5 -25q-153.5 0 -252 67t-157 172t-81 235.5t-22.5 257.5t22.5 257t81 235.5t157 172t252 66.5t252 -66.5t156.5 -172t80.5 -235.5t22.5 -257t-22.5 -257.5t-80.5 -235.5t-156.5 -172t-252 -67zM569 43q133 0 217 63.5t132.5 162t67 215t18.5 223t-18.5 223.5
t-67 215t-132.5 161.5t-217 63.5t-217 -63.5t-132 -161.5t-66.5 -215t-18.5 -223.5t18.5 -223t66.5 -215t132 -162t217 -63.5z" />
    <glyph glyph-name="one" unicode="1" horiz-adv-x="1138" 
d="M678 0h-78v1262q-150 -157 -379 -181v68q123 18 223.5 87t163.5 177h70v-1413z" />
    <glyph glyph-name="two" unicode="2" horiz-adv-x="1138" 
d="M575 1438q192 0 315.5 -100.5t123.5 -286.5q0 -240 -166 -368t-310.5 -224.5t-239 -179t-105.5 -201.5h843v-78h-942q15 244 185.5 370t246.5 177t243 168.5t167 337.5q0 139 -103 228t-245 89q-186 0 -283.5 -121t-97.5 -313h-78q24 502 446 502z" />
    <glyph glyph-name="three" unicode="3" horiz-adv-x="1138" 
d="M969 391q0 190 -138.5 264.5t-336.5 61.5v67q176 -9 309 59t133 238q0 142 -115.5 215.5t-257.5 73.5q-179 0 -274 -110.5t-103 -292.5h-77q0 213 125 342t321 129t327.5 -90.5t131.5 -266.5q0 -129 -76.5 -218t-200.5 -105v-4q142 -16 226 -117t84 -246
q0 -198 -137.5 -307t-359.5 -109q-223 0 -355.5 130.5t-120.5 361.5h78q-8 -195 103 -309.5t298 -114.5q177 0 296.5 93t119.5 255z" />
    <glyph glyph-name="four" unicode="4" horiz-adv-x="1138" 
d="M825 1413v-985h238v-68h-238v-360h-77v360h-689v78l689 975h77zM748 1307h-5l-606 -879h611v879z" />
    <glyph glyph-name="five" unicode="5" horiz-adv-x="1138" 
d="M981 1413v-67h-653l-121 -564l4 -4q121 170 340 170q220 0 354.5 -134.5t134.5 -347t-133.5 -352t-343.5 -139.5t-354.5 124.5t-132.5 332.5h78q-4 -171 113.5 -280t293.5 -109q175 0 288.5 122t113.5 300.5t-116.5 297t-285.5 118.5q-226 0 -362 -199h-80l147 731h715z
" />
    <glyph glyph-name="six" unicode="6" horiz-adv-x="1138" 
d="M985 450q0 170 -112.5 293t-284.5 123q-171 0 -284.5 -121t-113.5 -294t114.5 -290.5t286.5 -117.5q164 0 279 118.5t115 288.5zM570 934q226 0 359.5 -137.5t133.5 -343.5t-134 -342t-339 -136q-272 0 -388 183.5t-116 478.5q0 623 206 712t314 89q178 0 295 -96.5
t137 -276.5h-77q-24 137 -121 221t-238 84t-229 -75.5t-148.5 -223t-60.5 -436.5l4 -4q46 135 162 219t240 84z" />
    <glyph glyph-name="seven" unicode="7" horiz-adv-x="1138" 
d="M115 1413h911v-78q-106 -119 -326.5 -394.5t-281.5 -940.5h-90q28 359 156 670.5t464 675.5h-833v67z" />
    <glyph glyph-name="eight" unicode="8" horiz-adv-x="1138" 
d="M864.5 653.5q-116.5 81.5 -294.5 81.5q-179 0 -295.5 -81t-116.5 -255q0 -173 117.5 -264.5t292.5 -91.5t294 91.5t119 264.5t-116.5 254.5zM133 1074q0 110 37 177.5t98.5 108.5t140 59.5t211.5 18.5t259.5 -84t126.5 -271q0 -119 -66 -201.5t-195 -107.5v-4
q145 -16 229.5 -114.5t84.5 -229.5q0 -230 -136.5 -340.5t-353.5 -110.5q-335 0 -412 159.5t-77 291.5t84 230t229 114v4q-129 25 -194.5 107.5t-65.5 192.5zM928 1085q0 78 -30 133.5t-80 89t-114.5 48t-176.5 14.5t-214 -67.5t-102 -214.5t104.5 -216t299 -69t254 102
t59.5 180z" />
    <glyph glyph-name="nine" unicode="9" horiz-adv-x="1138" 
d="M857.5 668q113.5 121 113.5 292t-114 290.5t-284 119.5t-285.5 -119.5t-115.5 -289.5t115.5 -292t286.5 -122q170 0 283.5 121zM983 766q-112 -287 -424 -287q-94 0 -182 36t-185.5 136.5t-97.5 309.5q0 208 134.5 342.5t342.5 134.5q387 0 440.5 -260t53.5 -374t-8 -207
t-43 -237.5t-151 -264.5t-306 -120t-307 96.5t-137 276.5h77q38 -213 161.5 -259t206.5 -46t153.5 36t139.5 117t102.5 243t33.5 323z" />
    <glyph glyph-name="colon" unicode=":" horiz-adv-x="569" 
d="M336 1053v-211h-105v211h105zM231 0v211h105v-211h-105z" />
    <glyph glyph-name="semicolon" unicode=";" horiz-adv-x="569" 
d="M274 0h-43v211h105v-211q0 -208 -131 -258v68q69 30 69 190zM336 1053v-211h-105v211h105z" />
    <glyph glyph-name="less" unicode="&#x3c;" horiz-adv-x="1228" 
d="M1135 967l-973 -447l973 -450v-86l-1041 483v106l1041 480v-86z" />
    <glyph glyph-name="equal" unicode="=" horiz-adv-x="1228" 
d="M1130 678h-1032v78h1032v-78zM1130 281h-1032v77h1032v-77z" />
    <glyph glyph-name="greater" unicode="&#x3e;" horiz-adv-x="1228" 
d="M94 70l973 446l-973 451v86l1041 -484v-106l-1041 -479v86z" />
    <glyph glyph-name="question" unicode="?" 
d="M88 1010q0 222 118 354.5t337 132.5q172 0 286.5 -93t114.5 -262t-73.5 -248t-108.5 -111t-118 -109t-83 -303h-78q0 210 72 297.5t139.5 151t119.5 138.5t52 162q0 153 -95 226t-234 73q-181 0 -276 -114.5t-95 -294.5h-78zM473 211h105v-211h-105v211z" />
    <glyph glyph-name="at" unicode="@" horiz-adv-x="1638" 
d="M858 1120q-74 0 -146.5 -53t-124.5 -133t-81 -173t-29 -191t60.5 -165t150.5 -67q59 0 124 46t104 102q69 99 106 207t37 161q0 54 -5 94.5t-24.5 79.5t-58.5 65.5t-113 26.5zM662 270q-116 0 -189.5 90.5t-73.5 207.5q0 235 141 427.5t343 192.5q139 0 181 -75t48 -112
h4l47 146h84l-196 -606q-10 -33 -21.5 -67t-11.5 -60t23.5 -46t56.5 -20q70 0 136 48t149 170.5t83 299.5q0 245 -185.5 404.5t-440.5 159.5q-127 0 -251 -56.5t-216 -154t-146.5 -225.5t-54.5 -276t59.5 -274.5t155.5 -217.5t219.5 -142t229.5 -51q189 0 340 83.5
t245 227.5h90q-92 -172 -272 -275.5t-363 -103.5q-182 0 -321 60.5t-241.5 165t-161 246t-58.5 299.5t60.5 296.5t164 242t240.5 163t287 59.5q300 0 499 -181t199 -456q0 -117 -43 -223.5t-111.5 -187t-152 -130t-149.5 -49.5t-106 36t-42 110h-4q-99 -146 -274 -146z" />
    <glyph glyph-name="A" unicode="A" horiz-adv-x="1214" 
d="M662 1462l577 -1462h-96l-185 469h-700l-186 -469h-97l588 1462h99zM930 547l-314 827h-4l-325 -827h643z" />
    <glyph glyph-name="B" unicode="B" horiz-adv-x="1290" 
d="M219 78h496q195 0 307.5 84t112.5 251t-123 237.5t-297 70.5h-496v-643zM129 1462h586q243 0 352 -110t109 -269q0 -121 -81 -208t-204 -103l4 -4q14 2 67.5 -12.5t112 -54t104.5 -110.5t46 -176q0 -199 -137 -307t-373 -108h-586v1462zM219 799h496q184 0 277 83t93 224
t-102.5 209.5t-267.5 68.5h-496v-585z" />
    <glyph glyph-name="C" unicode="C" horiz-adv-x="1441" 
d="M744 1419q-118 0 -230.5 -55t-190 -148.5t-118.5 -218.5t-41 -266t41 -266t118.5 -218t191 -148.5t237.5 -55.5q227 0 377.5 157t162.5 369h90q-24 -260 -196 -432t-416 -172q-322 0 -509 217.5t-187 548.5t187 548.5t509 217.5q231 0 362.5 -102t178.5 -216t47 -153h-90
q-27 179 -169 286t-355 107z" />
    <glyph glyph-name="D" unicode="D" horiz-adv-x="1366" 
d="M1194 733q0 651 -600 651h-375v-1306h393q239 0 410.5 153t171.5 502zM129 1462h479q363 0 519.5 -204.5t156.5 -530.5q0 -325 -172.5 -526t-507.5 -201h-475v1462z" />
    <glyph glyph-name="E" unicode="E" horiz-adv-x="1146" 
d="M1122 78v-78h-993v1462h983v-78h-893v-585h840v-78h-840v-643h903z" />
    <glyph glyph-name="F" unicode="F" horiz-adv-x="1052" 
d="M219 721v-721h-90v1462h918v-78h-828v-585h746v-78h-746z" />
    <glyph glyph-name="G" unicode="G" horiz-adv-x="1517" 
d="M1399 717v-717h-78v311h-4q-82 -243 -269.5 -294.5t-283.5 -51.5q-320 0 -504 214.5t-184 541.5t185.5 551.5t504.5 224.5q234 0 403.5 -133t204.5 -354h-86q-51 190 -185 299.5t-335 109.5q-284 0 -443 -203.5t-159 -494.5t156.5 -484.5t431.5 -193.5q274 0 426.5 164
t140.5 432h-539v78h617z" />
    <glyph glyph-name="H" unicode="H" horiz-adv-x="1372" 
d="M219 721v-721h-90v1462h90v-663h934v663h90v-1462h-90v721h-934z" />
    <glyph glyph-name="I" unicode="I" horiz-adv-x="348" 
d="M129 1462h90v-1462h-90v1462z" />
    <glyph glyph-name="J" unicode="J" horiz-adv-x="985" 
d="M766 485v977h90v-1007q0 -141 -37 -315.5t-346 -174.5q-165 0 -249.5 47t-124.5 121t-49 162t-9 170h90q-14 -192 51.5 -307t271.5 -115q211 0 258.5 104.5t50.5 183.5t3 154z" />
    <glyph glyph-name="K" unicode="K" horiz-adv-x="1255" 
d="M129 1462h90v-841l920 841h116l-667 -608l708 -854h-112l-662 793l-303 -277v-516h-90v1462z" />
    <glyph glyph-name="L" unicode="L" horiz-adv-x="1024" 
d="M129 1462h90v-1384h830v-78h-920v1462z" />
    <glyph glyph-name="M" unicode="M" horiz-adv-x="1656" 
d="M129 1462h129l571 -1362h5l565 1362h129v-1462h-90v1352h-4l-557 -1352h-91l-563 1352h-4v-1352h-90v1462z" />
    <glyph glyph-name="N" unicode="N" horiz-adv-x="1388" 
d="M129 1462h113l923 -1341h4v1341h91v-1462h-107l-930 1352h-4v-1352h-90v1462z" />
    <glyph glyph-name="O" unicode="O" horiz-adv-x="1517" 
d="M1454 731q0 -160 -47 -300t-136 -243.5t-218 -163t-293 -59.5t-294 59.5t-219 163t-136.5 243.5t-47.5 300t47.5 300t136.5 243.5t219 163t294 59.5t293 -59.5t218 -163t136 -243.5t47 -300zM154 731q0 -141 41 -266t118.5 -218t190 -148.5t256 -55.5t255 55.5
t189.5 148.5t119 218t41 266t-41 266t-119 218.5t-189.5 148.5t-255 55t-256 -55t-190 -148.5t-118.5 -218.5t-41 -266z" />
    <glyph glyph-name="P" unicode="P" horiz-adv-x="1210" 
d="M219 729h514q185 0 269.5 98t84.5 228q0 206 -115.5 267.5t-226.5 61.5h-526v-655zM129 1462h623q278 0 352 -139t74 -270q0 -193 -120 -297.5t-339 -104.5h-500v-651h-90v1462z" />
    <glyph glyph-name="Q" unicode="Q" horiz-adv-x="1517" 
d="M1364 722q0 150 -41 275t-119 218.5t-189.5 148.5t-255 55t-256 -55t-190 -148.5t-118.5 -218.5t-41 -342t165 -414.5t441 -197.5q201 0 342 109l-221 157l47 64l235 -170q98 96 149.5 232.5t51.5 286.5zM63 731q0 330 187.5 548t508.5 218t508 -217.5t187 -567.5
q0 -349 -219 -560l227 -164l-47 -64l-241 174q-169 -133 -414 -133q-322 0 -509.5 218t-187.5 548z" />
    <glyph glyph-name="R" unicode="R" horiz-adv-x="1290" 
d="M739 743q262 0 317.5 124t55.5 209q0 158 -104.5 233t-268.5 75h-520v-641h520zM129 1462h610q327 0 395 -135t68 -262t-83 -228.5t-230 -125.5v-4q216 -26 253.5 -165t37.5 -230t3.5 -178.5t39.5 -133.5h-101q-30 55 -32.5 149.5t-1 150.5t-9 141t-85.5 155t-255 70
h-520v-666h-90v1462z" />
    <glyph glyph-name="S" unicode="S" horiz-adv-x="1290" 
d="M634 1419q-175 0 -298 -73t-123 -234t112.5 -215.5t202.5 -75.5t184 -39q234 -46 366 -128.5t132 -282.5t-156 -303t-358 -103q-434 0 -526 188.5t-90 329.5h90q-11 -224 137.5 -332t388.5 -108q162 0 293 81.5t131 250.5q0 168 -126 231.5t-295 96.5
q-170 34 -260.5 58.5t-160 66.5t-112.5 109t-43 217.5t147.5 246.5t343.5 96q379 0 466 -166t94 -287h-91q-8 183 -103 255.5t-180 96t-166 23.5z" />
    <glyph glyph-name="T" unicode="T" 
d="M-29 1384v78h1121v-78h-517v-1384h-90v1384h-514z" />
    <glyph glyph-name="U" unicode="U" horiz-adv-x="1376" 
d="M678 -35q-549 0 -549 621v876h90v-876q0 -413 176 -478t297 -65q465 0 465 543v876h90v-876q0 -621 -569 -621z" />
    <glyph glyph-name="V" unicode="V" horiz-adv-x="1138" 
d="M567 78h4l506 1384h90l-546 -1462h-105l-545 1462h95z" />
    <glyph glyph-name="W" unicode="W" horiz-adv-x="1820" 
d="M-12 1462h92l381 -1366h4l387 1366h113l393 -1366h4l375 1366h96l-420 -1462h-102l-402 1384h-4l-395 -1384h-100z" />
    <glyph glyph-name="X" unicode="X" horiz-adv-x="1138" 
d="M2 1462h104l463 -643l473 643h103l-516 -710l545 -752h-109l-496 684l-497 -684h-107l549 752z" />
    <glyph glyph-name="Y" unicode="Y" horiz-adv-x="1175" 
d="M631 0h-90v612l-584 850h102l529 -774l530 774h101l-588 -850v-612z" />
    <glyph glyph-name="Z" unicode="Z" horiz-adv-x="1099" 
d="M57 1462h1026v-78l-991 -1306h1010v-78h-1104v78l987 1306h-928v78z" />
    <glyph glyph-name="bracketleft" unicode="[" horiz-adv-x="493" 
d="M270 1430v-1739h203v-68h-280v1874h280v-67h-203z" />
    <glyph glyph-name="backslash" unicode="\" horiz-adv-x="681" 
d="M625 -35l-652 1532h84l652 -1532h-84z" />
    <glyph glyph-name="bracketright" unicode="]" horiz-adv-x="493" 
d="M223 -309v1739h-203v67h281v-1874h-281v68h203z" />
    <glyph glyph-name="asciicircum" unicode="^" horiz-adv-x="1228" 
d="M1063 485l-447 861l-450 -861h-86l483 928h107l479 -928h-86z" />
    <glyph glyph-name="underscore" unicode="_" horiz-adv-x="1024" 
d="M0 -256v102h1024v-102h-1024z" />
    <glyph glyph-name="grave" unicode="`" horiz-adv-x="342" 
d="M213 1208l-274 287h104l246 -287h-76z" />
    <glyph glyph-name="a" unicode="a" horiz-adv-x="1024" 
d="M143 284q0 -108 69 -174.5t205 -66.5t214 48t119 110.5t52 121t11 78.5v197q-38 -45 -123.5 -55.5t-233 -21t-230.5 -70t-83 -167.5zM66 272q0 166 108 231t279 81q131 8 203.5 19t107.5 35t43 61.5t8 79.5q0 84 -68 157.5t-217 73.5t-236 -72t-95 -209h-78
q8 174 111.5 261t289.5 87q253 0 311 -96t58 -178v-608q0 -62 10.5 -94.5t59.5 -32.5q20 0 57 6v-66q-32 -8 -72 -8q-77 0 -105 40t-28 114v55h-4q-37 -98 -140.5 -166t-250.5 -68q-352 0 -352 297z" />
    <glyph glyph-name="b" unicode="b" horiz-adv-x="1138" 
d="M900.5 194.5q92.5 151.5 92.5 348.5t-100.5 332t-288.5 135t-289.5 -127t-101.5 -337t100.5 -356.5t298.5 -146.5q196 0 288.5 151.5zM133 1462h78v-633h4q45 119 153 183.5t236 64.5q231 0 349 -146.5t118 -357.5q0 -210 -87 -404t-370 -194q-178 0 -277.5 92.5
t-121.5 168.5h-4v-236h-78v1462z" />
    <glyph glyph-name="c" unicode="c" 
d="M538 1010q-85 0 -161 -40t-154 -141.5t-78 -307.5t104.5 -342t301.5 -136q144 0 244 89.5t123 238.5h77q-23 -183 -147.5 -289.5t-296.5 -106.5q-241 0 -362 160.5t-121 397t129 390.5t354 154q177 0 298 -89t136 -261h-78q-12 136 -110.5 209.5t-258.5 73.5z" />
    <glyph glyph-name="d" unicode="d" horiz-adv-x="1138" 
d="M926 524q0 199 -99.5 342.5t-292.5 143.5t-292 -137.5t-99 -343.5t100.5 -346t292.5 -140q187 0 288.5 141t101.5 340zM520 -25q-225 0 -339.5 157.5t-114.5 391.5q0 382 175 467.5t266 85.5q158 0 266.5 -68t150.5 -192h4v645h78v-1462h-78v225h-4q-132 -250 -404 -250z
" />
    <glyph glyph-name="e" unicode="e" 
d="M532 -25q-223 0 -345.5 153t-118.5 380q-4 235 118 402t353 167q230 0 349.5 -160.5t106.5 -400.5h-850q-4 -199 99.5 -336t287.5 -137q150 0 249.5 83t127.5 230h78q-31 -186 -148.5 -283.5t-306.5 -97.5zM263.5 882.5q-103.5 -127.5 -118.5 -298.5h773
q-4 175 -109 300.5t-274 125.5q-168 0 -271.5 -127.5z" />
    <glyph glyph-name="f" unicode="f" horiz-adv-x="493" 
d="M0 985v68h188v217q0 154 92.5 181.5t136.5 27.5t95 -11v-67q-50 10 -104 10t-98 -29.5t-44 -117.5v-211h219v-68h-219v-985h-78v985h-188z" />
    <glyph glyph-name="g" unicode="g" horiz-adv-x="1099" 
d="M243.5 874.5q-98.5 -135.5 -98.5 -323.5t100 -316.5t281 -128.5q180 0 279.5 131.5t99.5 321.5t-100 320.5t-281.5 130.5t-280 -135.5zM522 39q-222 0 -338 145t-116 370q0 226 121.5 374.5t332.5 148.5q125 0 231.5 -64.5t149.5 -178.5h4v219h78v-998
q0 -344 -171.5 -402.5t-269.5 -56.5q-200 5 -308.5 81t-116.5 249h78q11 -133 104 -196.5t208 -63.5t179 22.5t141.5 89t77.5 259.5v242h-4q-113 -240 -381 -240z" />
    <glyph glyph-name="h" unicode="h" 
d="M193 1462v-635h4q39 115 143 182.5t214 67.5q111 0 176 -22.5t123 -75t76.5 -139.5t18.5 -189v-651h-78v666q0 135 -35.5 200.5t-96 104.5t-158.5 39q-183 0 -285 -122t-102 -319v-569h-78v1462h78z" />
    <glyph glyph-name="i" unicode="i" horiz-adv-x="344" 
d="M133 0v1053h78v-1053h-78zM133 1251v211h78v-211h-78z" />
    <glyph glyph-name="j" unicode="j" horiz-adv-x="344" 
d="M-14 -311q79 0 113 42.5t34 162.5v1159h78v-1166q0 -125 -46.5 -194.5t-142.5 -69.5h-38q-37 0 -54 2v68q20 -4 56 -4zM133 1251v211h78v-211h-78z" />
    <glyph glyph-name="k" unicode="k" horiz-adv-x="948" 
d="M119 1462h78v-968l649 559h112l-460 -394l493 -659h-106l-449 600l-239 -203v-397h-78v1462z" />
    <glyph glyph-name="l" unicode="l" horiz-adv-x="344" 
d="M211 1462v-1462h-78v1462h78z" />
    <glyph glyph-name="m" unicode="m" horiz-adv-x="1630" 
d="M117 1053h78v-215h4q25 101 118 170t221 69t209 -65t99 -158h4q47 109 126 166t208 57q232 0 280.5 -133t48.5 -225v-719h-77v721q0 171 -83.5 230t-162.5 59q-156 0 -246 -101.5t-90 -285.5v-623h-78v721q0 173 -81.5 231t-151.5 58q-143 0 -245.5 -99.5t-102.5 -287.5
v-623h-78v1053z" />
    <glyph glyph-name="n" unicode="n" 
d="M115 1053h78v-226h4q39 115 143 182.5t214 67.5q111 0 176 -22.5t123 -75t76.5 -139.5t18.5 -189v-651h-78v666q0 135 -35.5 200.5t-96 104.5t-158.5 39q-183 0 -285 -122t-102 -319v-569h-78v1053z" />
    <glyph glyph-name="o" unicode="o" horiz-adv-x="1099" 
d="M66 526.5q0 112.5 31.5 212t93 175t151.5 119.5t207 44t207 -44t151.5 -119.5t93 -175t31.5 -212t-31.5 -213t-93 -175.5t-151.5 -119t-207 -44t-207 44t-151.5 119t-93 175.5t-31.5 213zM143 526.5q0 -94.5 27 -181.5t78 -154.5t127 -107.5t174 -40t174 40t127 107.5
t77.5 154.5t26.5 181.5t-26.5 181.5t-77.5 154.5t-127 107.5t-174 40t-174 -40t-127 -107.5t-78 -154.5t-27 -181.5z" />
    <glyph glyph-name="p" unicode="p" horiz-adv-x="1138" 
d="M594 43q199 0 299 136.5t100 339.5t-98 347t-296 144q-197 0 -291.5 -138.5t-94.5 -410t137.5 -345t243.5 -73.5zM211 811h4q31 99 128.5 182.5t236.5 83.5q247 0 369 -157.5t122 -395.5q0 -387 -176 -468t-302 -81t-228.5 57.5t-149.5 186.5h-4v-596h-78v1430h78v-242z
" />
    <glyph glyph-name="q" unicode="q" horiz-adv-x="1138" 
d="M533 43q194 0 293.5 143.5t99.5 342.5t-101.5 340t-290.5 141t-290 -140t-101 -342q0 -329 144 -407t246 -78zM520 1077q272 0 404 -250h4v226h78v-1430h-78v613h-4q-40 -123 -149 -192t-234 -69q-233 0 -354 153t-121 394t114.5 398t339.5 157z" />
    <glyph glyph-name="r" unicode="r" horiz-adv-x="569" 
d="M193 819h6q28 103 143 173.5t260 66.5v-78q-61 8 -140 -12.5t-151 -89.5q-62 -66 -88 -129t-30 -175v-575h-78v1053h78v-234z" />
    <glyph glyph-name="s" unicode="s" horiz-adv-x="985" 
d="M834 266.5q0 67.5 -31 108.5t-82 65.5t-115.5 39t-186.5 40t-215 83.5t-93 203q0 144 112 207.5t269 63.5q273 0 331 -123t58 -213h-78q0 136 -85.5 202.5t-225.5 66.5q-198 0 -251 -74t-53 -133t31 -98t81 -63t112.5 -38t133.5 -28q184 -38 274.5 -98.5t90.5 -212.5
q0 -151 -121.5 -220.5t-298.5 -69.5t-295 98.5t-122 276.5h78q8 -140 104 -223.5t234 -83.5q142 0 210 34t101 78t33 111.5z" />
    <glyph glyph-name="t" unicode="t" horiz-adv-x="530" 
d="M502 985h-230v-735q0 -119 54 -152.5t174 -29.5v-68q-145 -10 -229.5 40t-75.5 210v735h-195v68h195v327h77v-327h230v-68z" />
    <glyph glyph-name="u" unicode="u" 
d="M948 0h-78v225h-4q-38 -113 -142 -181.5t-216 -68.5t-176 22.5t-122 75t-76.5 140t-18.5 188.5v652h78v-666q0 -136 35.5 -201t95.5 -104t158 -39q184 0 286 121t102 319v570h78v-1053z" />
    <glyph glyph-name="v" unicode="v" horiz-adv-x="909" 
d="M516 0h-96l-424 1053h90l381 -963h4l356 963h86z" />
    <glyph glyph-name="w" unicode="w" horiz-adv-x="1441" 
d="M377 90h4l287 963h104l289 -963h4l295 963h86l-338 -1053h-96l-289 954h-4l-291 -954h-98l-334 1053h84z" />
    <glyph glyph-name="x" unicode="x" horiz-adv-x="909" 
d="M401 553l-385 500h109l330 -441l331 441h101l-381 -500l416 -553h-107l-360 494l-369 -494h-98z" />
    <glyph glyph-name="y" unicode="y" horiz-adv-x="909" 
d="M100 -377v68q84 0 131 13t79 45t56.5 92.5t61.5 164.5l-440 1047h92l391 -961l360 961h89l-451 -1166q-33 -78 -60.5 -134t-65.5 -86t-95.5 -37t-147.5 -7z" />
    <glyph glyph-name="z" unicode="z" horiz-adv-x="872" 
d="M854 68v-68h-836v74l707 911h-651v68h747v-74l-708 -911h741z" />
    <glyph glyph-name="braceleft" unicode="{" horiz-adv-x="681" 
d="M317 930v325q0 139 47.5 190.5t133.5 51.5h102v-67h-98q-63 0 -85 -47.5t-22 -163.5v-322q0 -173 -43 -236t-66.5 -76.5t-33.5 -19.5q10 -10 33.5 -25.5t66.5 -79.5t43 -237v-321q0 -117 21.5 -164t85.5 -47h98v-68h-102q-86 0 -133.5 51.5t-47.5 190.5v323
q0 325 -147 332v78q147 7 147 332z" />
    <glyph glyph-name="bar" unicode="|" horiz-adv-x="454" 
d="M188 1610h78v-2048h-78v2048z" />
    <glyph glyph-name="braceright" unicode="}" horiz-adv-x="681" 
d="M365 188v-323q0 -139 -47.5 -190.5t-133.5 -51.5h-102v68h98q63 0 85 47t22 164v321q0 173 43 237t66.5 79.5t33.5 25.5q-10 6 -33.5 19.5t-66.5 76.5t-43 236v322q0 117 -21.5 164t-85.5 47h-98v67h102q86 0 133.5 -51t47.5 -191v-325q0 -325 147 -332v-78
q-147 -7 -147 -332z" />
    <glyph glyph-name="asciitilde" unicode="~" horiz-adv-x="1228" 
d="M828 408q-51 0 -104.5 21.5t-96.5 42.5q-84 41 -130.5 58t-87.5 17q-81 0 -129 -48t-71 -106l-59 62q47 78 100.5 124t131.5 46t127 -17.5t105 -43.5t106 -52.5t98 -26.5t76 14.5t67 52t63 87.5l57 -57q-80 -124 -141 -149t-112 -25z" />
    <glyph glyph-name="uni00A0" unicode="&#xa0;" horiz-adv-x="569" 
 />
    <glyph glyph-name="exclamdown" unicode="&#xa1;" horiz-adv-x="530" 
d="M215 -377v494l25 594h49l24 -594v-494h-98zM317 1096v-211h-104v211h104z" />
    <glyph glyph-name="cent" unicode="&#xa2;" horiz-adv-x="1138" 
d="M277.5 189.5q95.5 -134.5 279.5 -146.5v967q-172 -11 -273.5 -150t-101.5 -337q0 -199 95.5 -333.5zM224.5 911q120.5 154 332.5 166v183h66v-183q262 -13 326.5 -139.5t72.5 -210.5h-78q-10 131 -99 201.5t-222 81.5v-967q133 12 222 101t109 227h78
q-23 -175 -132.5 -278t-276.5 -118v-217h-66v217q-225 11 -339 169.5t-114 385.5t120.5 381z" />
    <glyph glyph-name="sterling" unicode="&#xa3;" horiz-adv-x="1138" 
d="M971 991q-5 428 -387 428q-196 0 -300 -83t-104 -216t57.5 -235.5t75.5 -141.5h328v-67h-289q47 -73 47 -228t-81.5 -253.5t-120.5 -131.5l4 -4q107 74 195 74q87 0 210 -47q126 -43 202 -43q75 0 139.5 43t121.5 96l45 -67q-59 -63 -139.5 -106.5t-156.5 -43.5
t-129.5 14.5t-103.5 30.5t-98.5 30.5t-112.5 14.5t-116.5 -25.5t-116.5 -64.5l-51 70q109 104 170.5 204t61.5 223t-60 214h-160v67h123q-47 84 -85 173.5t-38 186.5q0 187 136 290.5t329 103.5q240 0 364 -126t118 -380h-78z" />
    <glyph glyph-name="currency" unicode="&#xa4;" horiz-adv-x="1138" 
d="M1077 704.5q0 -188.5 -125 -325.5l111 -111l-55 -55l-109 111q-143 -125 -331.5 -125t-327.5 125l-113 -115l-55 55l114 113q-121 143 -125 330q0 188 125 329l-116 115l55 55l115 -114q144 118 327 122q190 0 332 -124l111 112l55 -55l-113 -111q125 -143 125 -331.5z
M862.5 402q124.5 126 124.5 304q0 177 -124.5 304t-293 127t-293 -126.5t-124.5 -304.5q0 -177 124.5 -303.5t293 -126.5t293 126z" />
    <glyph glyph-name="yen" unicode="&#xa5;" horiz-adv-x="1138" 
d="M854 700v-67h-246v-160h246v-67h-246v-406h-78v406h-245v67h245v160h-245v67h188l-487 762h98l487 -766l490 766h92l-487 -762h188z" />
    <glyph glyph-name="brokenbar" unicode="&#xa6;" horiz-adv-x="454" 
d="M188 330h78v-512h-78v512zM188 1354h78v-512h-78v512z" />
    <glyph glyph-name="section" unicode="&#xa7;" horiz-adv-x="1138" 
d="M184 685q0 -88 59 -148.5t186 -135.5q127 -76 314 -194q30 -7 138 69q71 66 71 160q0 132 -107.5 203.5t-150.5 95.5l-311 185q-79 -30 -121.5 -72.5t-60 -78.5t-17.5 -84zM573 -309q269 0 269 215q0 165 -150.5 248.5t-223.5 123.5q-185 103 -277 190.5t-85 221.5
q0 140 91.5 199t136.5 76q-94 67 -104.5 149t-6.5 100q0 124 103 205.5t237 77.5q178 0 266.5 -108.5t90.5 -290.5h-78q4 134 -73 233t-206 99q-91 4 -176.5 -57.5t-85.5 -158.5q0 -171 147.5 -252t270 -144.5t217 -148t94.5 -218.5t-64.5 -200.5t-162.5 -92.5
q61 -57 89 -110.5t28 -136.5q0 -150 -96.5 -219t-258.5 -69t-262 108.5t-100 286.5h78q7 -228 113 -277.5t179 -49.5z" />
    <glyph glyph-name="dieresis" unicode="&#xa8;" horiz-adv-x="342" 
d="M-37 1235v211h90v-211h-90zM287 1235v211h90v-211h-90z" />
    <glyph glyph-name="copyright" unicode="&#xa9;" horiz-adv-x="1638" 
d="M821.5 1430q-147.5 0 -274.5 -53.5t-271.5 -201t-144.5 -442.5q0 -145 53.5 -273t145.5 -223.5t218 -149.5t345.5 -54t416.5 204.5t197 495.5q0 147 -52 274.5t-143 220.5t-217 147.5t-273.5 54.5zM852 1147q-191 0 -293 -114.5t-102 -295.5q0 -180 106 -302t279 -122
q125 0 201.5 73t105.5 189h78q-20 -150 -128.5 -239.5t-256.5 -89.5q-210 0 -336.5 138t-126.5 351.5t124.5 346t332.5 132.5q239 0 310 -120.5t81 -196.5h-78q-23 117 -108 183.5t-189 66.5zM819 1497q160 0 299 -60.5t242.5 -164t164 -242.5t60.5 -299t-60.5 -299
t-164 -242.5t-242.5 -164t-299 -60.5t-299 60.5t-242.5 164t-164 242.5t-60.5 299t60.5 299t164 242.5t242.5 164t299 60.5z" />
    <glyph glyph-name="ordfeminine" unicode="&#xaa;" horiz-adv-x="634" 
d="M92 950q0 -62 43 -103.5t125 -41.5q142 0 197 75t55 140v115q-24 -28 -78.5 -34.5t-91 -8.5t-96.5 -10t-107 -39t-47 -93zM591 768q-73 0 -73 92v29h-4q-18 -55 -83.5 -97t-142.5 -42t-120 9t-75 31.5t-49 60.5t-17 153t235 135q182 15 212 32t35 40.5t5 69.5t-53 73.5
t-137 27.5t-138.5 -42t-60.5 -119h-66q25 217 272 217t247 -174v-365q0 -29 4 -52.5t32 -23.5h15q10 0 22 4v-55q-20 -4 -60 -4z" />
    <glyph glyph-name="guillemotleft" unicode="&#xab;" horiz-adv-x="796" 
d="M137 516v82l234 268v-104l-174 -205l174 -209v-100zM399 516v82l234 268v-104l-174 -205l174 -209v-100z" />
    <glyph glyph-name="logicalnot" unicode="&#xac;" horiz-adv-x="1228" 
d="M1053 678h-955v78h1032v-535h-77v457z" />
    <glyph glyph-name="uni00AD" unicode="&#xad;" horiz-adv-x="720" 
d="M141 518v78h439v-78h-439z" />
    <glyph glyph-name="registered" unicode="&#xae;" horiz-adv-x="1638" 
d="M881 1184q295 0 295 -250q0 -111 -69 -168t-165 -72l270 -415h-86l-272 417h-236v-417h-77v905h340zM618 764h193q131 0 183.5 22.5t78 56.5t25.5 89q0 98 -66 141t-164 43h-250v-352zM821.5 1430q-147.5 0 -274.5 -53.5t-219 -147.5t-144.5 -222.5t-52.5 -274.5
t53.5 -273t145.5 -222.5t218 -149.5t345.5 -54t416.5 204.5t197 495.5q0 147 -52 274.5t-143 220.5t-217 147.5t-273.5 54.5zM819 1497q160 0 299 -60.5t242.5 -164t164 -242.5t60.5 -299t-60.5 -299t-164 -242.5t-242.5 -164t-299 -60.5t-299 60.5t-242.5 164t-164 242.5
t-60.5 299t60.5 299t164 242.5t242.5 164t299 60.5z" />
    <glyph glyph-name="macron" unicode="&#xaf;" horiz-adv-x="342" 
d="M-76 1307v67h496v-67h-496z" />
    <glyph glyph-name="degree" unicode="&#xb0;" horiz-adv-x="819" 
d="M257.5 1304q-62.5 -66 -62.5 -160t61 -159t154 -65t154 66t61 158t-62.5 159t-152.5 67t-152.5 -66zM409.5 852q-61.5 0 -114.5 22.5t-93 62.5t-62.5 93t-22.5 114.5t22.5 115t62.5 93.5t93 62.5t114.5 22.5t115 -22.5t93 -62.5t62 -93.5t22.5 -115t-22.5 -114.5t-62 -93
t-93 -62.5t-115 -22.5z" />
    <glyph glyph-name="plusminus" unicode="&#xb1;" horiz-adv-x="1228" 
d="M575 1032h78v-387h477v-78h-477v-387h-78v387h-477v78h477v387zM98 78h1032v-78h-1032v78z" />
    <glyph glyph-name="twosuperior" unicode="&#xb2;" horiz-adv-x="681" 
d="M647 618v-55h-614q5 159 119.5 237.5t208.5 137.5t154 115t60 145q0 122 -83.5 153t-143.5 31q-123 0 -175 -68.5t-58 -185.5h-66q13 226 116 268t173 42q138 0 220.5 -60.5t82.5 -186.5t-109 -206t-198.5 -135t-150 -104t-85.5 -128h549z" />
    <glyph glyph-name="threesuperior" unicode="&#xb3;" horiz-adv-x="681" 
d="M604 1209q0 84 -72.5 128.5t-177.5 44.5q-106 0 -165.5 -66.5t-63.5 -170.5h-66q2 135 83 214t218 79t223.5 -54.5t86.5 -169.5q0 -76 -49.5 -130t-131.5 -64v-4q94 -10 147.5 -69.5t53.5 -135.5q0 -136 -87.5 -201t-240.5 -65t-242 76.5t-83 228.5h65q-4 -117 68 -183.5
t185 -66.5t191.5 54t78.5 152q0 99 -89 143.5t-219 35.5v55q192 -8 239.5 56.5t47.5 112.5z" />
    <glyph glyph-name="acute" unicode="&#xb4;" horiz-adv-x="342" 
d="M299 1495h104l-274 -287h-76z" />
    <glyph glyph-name="mu" unicode="&#xb5;" 
d="M489 -25q-202 0 -292 115h-4v-467h-78v1430h78v-666q0 -136 35.5 -201t95.5 -104t158 -39q184 0 286 121t102 319v570h78v-1053h-78v225h-4q-38 -113 -142 -181.5t-235 -68.5z" />
    <glyph glyph-name="paragraph" unicode="&#xb6;" horiz-adv-x="1228" 
d="M559 664q-181 0 -302.5 118t-121.5 279q0 199 120 300t337 101h444v-1761h-78v1694h-321v-1694h-78v963z" />
    <glyph glyph-name="periodcentered" unicode="&#xb7;" horiz-adv-x="569" 
d="M174 649q0 43 34 77t77 34t77.5 -33t34.5 -78t-33.5 -78.5t-78.5 -33.5t-78 34.5t-33 77.5z" />
    <glyph glyph-name="cedilla" unicode="&#xb8;" horiz-adv-x="342" 
d="M373 -243.5q0 -71.5 -49.5 -114.5t-155.5 -43t-184 51l22 49q35 -16 73 -30.5t89 -14.5t89 23.5t38 70.5t-30.5 71.5t-76.5 24.5q-45 0 -100 -24l-33 26l115 154h70l-99 -115l4 -4q103 44 165.5 -4.5t62.5 -120z" />
    <glyph glyph-name="onesuperior" unicode="&#xb9;" horiz-adv-x="681" 
d="M426 563h-66v760q-94 -96 -239 -109v56q76 10 140.5 50t105.5 99h59v-856z" />
    <glyph glyph-name="ordmasculine" unicode="&#xba;" horiz-adv-x="684" 
d="M342 750q-78 0 -138.5 25.5t-101.5 71.5t-62.5 109.5t-21.5 137t21.5 136t62.5 108.5t101.5 73t138.5 27t138.5 -27t101.5 -73t62.5 -108.5t21.5 -136t-21.5 -137t-62.5 -109.5t-101.5 -71.5t-138.5 -25.5zM342 805q68 0 116 23.5t79.5 63.5t47 92t15.5 109.5
t-15.5 109.5t-47 92t-79.5 63.5t-116 23.5t-116 -23.5t-79.5 -63.5t-47 -92t-15.5 -109.5t15.5 -109.5t47 -92t79.5 -63.5t116 -23.5z" />
    <glyph glyph-name="guillemotright" unicode="&#xbb;" horiz-adv-x="796" 
d="M164 348l174 209l-174 205v104l233 -268v-82l-233 -268v100zM426 348l174 209l-174 205v104l233 -268v-82l-233 -268v100z" />
    <glyph glyph-name="onequarter" unicode="&#xbc;" horiz-adv-x="1708" 
d="M1262 1462h81l-952 -1511h-82zM498 1419v-856h-66v760q-94 -96 -239 -109v56q156 20 245 149h60zM1378 848v-580h146v-55h-146v-213h-65v213h-441v55l410 580h96zM1313 780h-4l-363 -512h367v512z" />
    <glyph glyph-name="onehalf" unicode="&#xbd;" horiz-adv-x="1708" 
d="M1200 1462h82l-952 -1511h-82zM436 563h-65v760q-94 -96 -240 -109v56q76 10 140.5 50t105.5 99h59v-856zM1604 55v-55h-615q5 160 116.5 235.5t160.5 106.5t157.5 100t108.5 191t-84 154t-143 32q-123 0 -175.5 -68.5t-58.5 -185.5h-65q13 225 116.5 267t173.5 42
q141 0 221 -61t80 -186t-104 -202t-197 -134.5t-152.5 -105t-84.5 -130.5h545z" />
    <glyph glyph-name="threequarters" unicode="&#xbe;" horiz-adv-x="1708" 
d="M635 1209q0 85 -73 129t-179 44q-105 0 -164 -66.5t-63 -170.5h-66q2 135 83 214t218 79t223 -54.5t86 -169.5q0 -76 -49 -130t-131 -64v-4q94 -10 147.5 -69.5t53.5 -135.5q0 -136 -87.5 -201t-240.5 -65t-242.5 76.5t-82.5 228.5h65q-4 -117 67.5 -183.5t185.5 -66.5
t191.5 54t77.5 153t-88.5 143t-218.5 35v55q192 -8 239.5 56.5t47.5 112.5zM1358 1462h82l-953 -1511h-81zM1440 848v-580h145v-55h-145v-213h-66v213h-440v55l409 580h97zM1374 780h-4l-362 -512h366v512z" />
    <glyph glyph-name="questiondown" unicode="&#xbf;" 
d="M973 86q0 -221 -117.5 -354t-337.5 -133q-172 0 -286.5 93t-114.5 263t73.5 247.5t108.5 109.5t118 110.5t83 302.5h78q0 -210 -72 -297.5t-139 -151t-119.5 -137.5t-52.5 -162q0 -153 94.5 -227t234.5 -74q180 0 275.5 114t95.5 296h78zM588 885h-105v211h105v-211z" />
    <glyph glyph-name="Agrave" unicode="&#xc0;" horiz-adv-x="1214" 
d="M662 1462l577 -1462h-96l-185 469h-700l-186 -469h-97l588 1462h99zM930 547l-314 827h-4l-325 -827h643zM586 1597l-275 287h105l246 -287h-76z" />
    <glyph glyph-name="Aacute" unicode="&#xc1;" horiz-adv-x="1214" 
d="M662 1462l577 -1462h-96l-185 469h-700l-186 -469h-97l588 1462h99zM930 547l-314 827h-4l-325 -827h643zM809 1884h104l-274 -287h-76z" />
    <glyph glyph-name="Acircumflex" unicode="&#xc2;" horiz-adv-x="1214" 
d="M662 1462l577 -1462h-96l-185 469h-700l-186 -469h-97l588 1462h99zM930 547l-314 827h-4l-325 -827h643zM653 1884l238 -287h-78l-201 236l-198 -236h-78l235 287h82z" />
    <glyph glyph-name="Atilde" unicode="&#xc3;" horiz-adv-x="1214" 
d="M662 1462l577 -1462h-96l-185 469h-700l-186 -469h-97l588 1462h99zM930 547l-314 827h-4l-325 -827h643zM766 1704q38 0 60 38t26 79h59q-9 -83 -35 -116q-51 -67 -110 -68q-58 -1 -136 49q-79 50 -103 58q-25 9 -59 9t-58 -35t-31 -82h-60q4 73 47 128q42 55 105 56
q63 0 125 -38t98 -58t72 -20z" />
    <glyph glyph-name="Adieresis" unicode="&#xc4;" horiz-adv-x="1214" 
d="M662 1462l577 -1462h-96l-185 469h-700l-186 -469h-97l588 1462h99zM930 547l-314 827h-4l-325 -827h643zM408 1624v211h90v-211h-90zM731 1624v211h90v-211h-90z" />
    <glyph glyph-name="Aring" unicode="&#xc5;" horiz-adv-x="1214" 
d="M662 1462l577 -1462h-96l-185 469h-700l-186 -469h-97l588 1462h99zM930 547l-314 827h-4l-325 -827h643zM410 1741q0 86 58 144q58 59 144 59t144 -58t59 -145q0 -87 -58 -145q-59 -58 -145 -58t-144 58t-58 145zM465 1741q0 -61 43 -105t104 -43q61 0 105 43
q43 42 43 104t-43 105t-105 43t-104 -43q-43 -43 -43 -104z" />
    <glyph glyph-name="AE" unicode="&#xc6;" horiz-adv-x="1781" 
d="M1749 1462v-78h-776v-585h717v-78h-717v-643h778v-78h-868v520h-549l-271 -520h-81l763 1462h1004zM883 1384h-97l-411 -786h508v786z" />
    <glyph glyph-name="Ccedilla" unicode="&#xc7;" horiz-adv-x="1441" 
d="M736 -156q-34 0 -89 -24l-33 26l91 121q-277 22 -454 227.5t-177 536.5t187 548.5t509 217.5q231 0 362.5 -102t178.5 -216t47 -153h-90q-27 179 -168.5 286t-329.5 107q-278 0 -442 -198t-164 -490.5t118.5 -434.5t232 -197.5t237.5 -55.5q227 0 377.5 157t162.5 369h90
q-24 -260 -196 -432t-416 -172h-2l-68 -80l5 -4q102 44 164.5 -4.5t62.5 -120t-49 -114.5t-155 -43t-185 51l22 49q35 -16 73 -30.5t89 -14.5t89 23.5t38 71.5t-24.5 66.5t-42 23.5t-51.5 5z" />
    <glyph glyph-name="Egrave" unicode="&#xc8;" horiz-adv-x="1146" 
d="M1122 78v-78h-993v1462h983v-78h-893v-585h840v-78h-840v-643h903zM627 1597l-275 287h105l245 -287h-75z" />
    <glyph glyph-name="Eacute" unicode="&#xc9;" horiz-adv-x="1146" 
d="M1122 78v-78h-993v1462h983v-78h-893v-585h840v-78h-840v-643h903zM825 1884h105l-275 -287h-75z" />
    <glyph glyph-name="Ecircumflex" unicode="&#xca;" horiz-adv-x="1146" 
d="M1122 78v-78h-993v1462h983v-78h-893v-585h840v-78h-840v-643h903zM649 1884l238 -287h-78l-201 236l-198 -236h-78l235 287h82z" />
    <glyph glyph-name="Edieresis" unicode="&#xcb;" horiz-adv-x="1146" 
d="M1122 78v-78h-993v1462h983v-78h-893v-585h840v-78h-840v-643h903zM416 1624v211h90v-211h-90zM739 1624v211h90v-211h-90z" />
    <glyph glyph-name="Igrave" unicode="&#xcc;" horiz-adv-x="348" 
d="M129 1462h90v-1462h-90v1462zM147 1597l-274 287h104l246 -287h-76z" />
    <glyph glyph-name="Iacute" unicode="&#xcd;" horiz-adv-x="348" 
d="M129 1462h90v-1462h-90v1462zM377 1884h104l-274 -287h-76z" />
    <glyph glyph-name="Icircumflex" unicode="&#xce;" horiz-adv-x="348" 
d="M129 1462h90v-1462h-90v1462zM215 1884l238 -287h-78l-201 236l-199 -236h-77l235 287h82z" />
    <glyph glyph-name="Idieresis" unicode="&#xcf;" horiz-adv-x="348" 
d="M129 1462h90v-1462h-90v1462zM-33 1624v211h90v-211h-90zM291 1624v211h90v-211h-90z" />
    <glyph glyph-name="Eth" unicode="&#xd0;" horiz-adv-x="1366" 
d="M129 1462h479q363 0 519.5 -204.5t156.5 -530.5q0 -325 -172.5 -526t-507.5 -201h-475v743h-139v68h139v651zM1194 733q0 651 -600 651h-375v-573h541v-68h-541v-665h393q239 0 410.5 153t171.5 502z" />
    <glyph glyph-name="Ntilde" unicode="&#xd1;" horiz-adv-x="1388" 
d="M129 1462h113l923 -1341h4v1341h91v-1462h-107l-930 1352h-4v-1352h-90v1462zM868 1704q36 0 60 38q23 38 26 79h60q-9 -80 -35 -115q-51 -68 -111 -69t-137 49t-101 58q-24 9 -58 9t-59 -35q-24 -35 -32 -82h-59q4 74 46 129q42 54 105 55q63 0 125 -38t98 -58t72 -20z
" />
    <glyph glyph-name="Ograve" unicode="&#xd2;" horiz-adv-x="1517" 
d="M760 1497q321 0 508 -217q186 -217 186 -548t-187 -548t-507 -219q-164 -1 -294 59q-259 119 -355 407q-47 140 -48 300q0 160 48 300q97 288 355 407q130 59 294 59zM1364 731q0 293 -166 491q-166 197 -440 197q-275 0 -440 -197q-164 -197 -164 -490t165 -491
t441 -198t444 204q160 191 160 484zM745 1597l-274 287h104l246 -287h-76z" />
    <glyph glyph-name="Oacute" unicode="&#xd3;" horiz-adv-x="1517" 
d="M760 1497q321 0 508 -217q186 -217 186 -548t-187 -548t-507 -219q-164 -1 -294 59q-259 119 -355 407q-47 140 -48 300q0 160 48 300q97 288 355 407q130 59 294 59zM1364 731q0 293 -166 491q-166 197 -440 197q-275 0 -440 -197q-164 -197 -164 -490t165 -491
t441 -198t444 204q160 191 160 484zM936 1884h104l-274 -287h-76z" />
    <glyph glyph-name="Ocircumflex" unicode="&#xd4;" horiz-adv-x="1517" 
d="M760 1497q321 0 508 -217q186 -217 186 -548t-187 -548t-507 -219q-164 -1 -294 59q-259 119 -355 407q-47 140 -48 300q0 160 48 300q97 288 355 407q130 59 294 59zM1364 731q0 293 -166 491q-166 197 -440 197q-275 0 -440 -197q-164 -197 -164 -490t165 -491
t441 -198t444 204q160 191 160 484zM803 1884l237 -287h-77l-201 236l-199 -236h-78l236 287h82z" />
    <glyph glyph-name="Otilde" unicode="&#xd5;" horiz-adv-x="1517" 
d="M760 1497q321 0 508 -217q186 -217 186 -548t-187 -548t-507 -219q-164 -1 -294 59q-259 119 -355 407q-47 140 -48 300q0 160 48 300q97 288 355 407q130 59 294 59zM1364 731q0 293 -166 491q-166 197 -440 197q-275 0 -440 -197q-164 -197 -164 -490t165 -491
t441 -198t444 204q160 191 160 484zM912 1704q36 0 59 38t26 79h60q-9 -80 -35 -115q-51 -68 -111 -69t-137 49t-101 58q-25 9 -59 9t-58 -35t-32 -82h-59q4 74 46 129q42 54 105 55q63 0 125 -38t98 -58q37 -20 73 -20z" />
    <glyph glyph-name="Odieresis" unicode="&#xd6;" horiz-adv-x="1517" 
d="M760 1497q321 0 508 -217q186 -217 186 -548t-187 -548t-507 -219q-164 -1 -294 59q-259 119 -355 407q-47 140 -48 300q0 160 48 300q97 288 355 407q130 59 294 59zM1364 731q0 293 -166 491q-166 197 -440 197q-275 0 -440 -197q-164 -197 -164 -490t165 -491
t441 -198t444 204q160 191 160 484zM557 1624v211h90v-211h-90zM881 1624v211h90v-211h-90z" />
    <glyph glyph-name="multiply" unicode="&#xd7;" horiz-adv-x="1228" 
d="M559 516l-397 399l53 56l399 -400l398 400l55 -56l-397 -399l397 -397l-55 -56l-398 400l-399 -400l-53 56z" />
    <glyph glyph-name="Oslash" unicode="&#xd8;" horiz-adv-x="1517" 
d="M338 221q165 -178 430 -178t430.5 197.5t165.5 478.5q0 282 -139 473zM1178 1247q-168 172 -432 172t-428 -198t-164 -480t139 -467zM231 209q-168 209 -168 530t187.5 539.5t493.5 218.5q305 0 491 -186l139 151l53 -49l-143 -156q170 -206 170 -532q0 -325 -187 -542.5
t-497 -217.5t-491 191l-156 -172l-53 49z" />
    <glyph glyph-name="Ugrave" unicode="&#xd9;" horiz-adv-x="1376" 
d="M678 -35q-549 0 -549 621v876h90v-876q0 -415 278 -515q75 -28 195 -28q469 0 465 543v876h90v-876q0 -621 -569 -621zM678 1597l-275 287h105l246 -287h-76z" />
    <glyph glyph-name="Uacute" unicode="&#xda;" horiz-adv-x="1376" 
d="M678 -35q-549 0 -549 621v876h90v-876q0 -415 278 -515q75 -28 195 -28q469 0 465 543v876h90v-876q0 -621 -569 -621zM844 1884h104l-274 -287h-76z" />
    <glyph glyph-name="Ucircumflex" unicode="&#xdb;" horiz-adv-x="1376" 
d="M678 -35q-549 0 -549 621v876h90v-876q0 -415 278 -515q75 -28 195 -28q469 0 465 543v876h90v-876q0 -621 -569 -621zM725 1884l238 -287h-78l-201 236l-199 -236h-77l235 287h82z" />
    <glyph glyph-name="Udieresis" unicode="&#xdc;" horiz-adv-x="1376" 
d="M678 -35q-549 0 -549 621v876h90v-876q0 -415 278 -515q75 -28 195 -28q469 0 465 543v876h90v-876q0 -621 -569 -621zM487 1624v211h91v-211h-91zM811 1624v211h90v-211h-90z" />
    <glyph glyph-name="Yacute" unicode="&#xdd;" horiz-adv-x="1175" 
d="M631 0h-90v612l-584 850h102l529 -774l530 774h101l-588 -850v-612zM786 1884h105l-275 -287h-75z" />
    <glyph glyph-name="Thorn" unicode="&#xde;" horiz-adv-x="1214" 
d="M129 1462h90v-245h533q277 0 351.5 -138.5t74.5 -269.5q0 -195 -120 -299t-339 -104h-500v-406h-90v1462zM219 483h514q184 0 269 97.5t85 230.5q0 203 -115.5 265.5t-226.5 62.5h-526v-656z" />
    <glyph glyph-name="germandbls" unicode="&#xdf;" horiz-adv-x="1024" 
d="M877 1147q0 -266 -244 -322v-4q160 -18 237.5 -120.5t77.5 -257.5q0 -263 -130.5 -353t-280.5 -90h-113v68h78q139 0 253.5 75t114.5 278q0 204 -115.5 279.5t-330.5 75.5v68q256 0 315.5 110.5t59.5 185.5q0 138 -88.5 208.5t-218.5 70.5q-295 0 -295 -319v-1100h-78
v1100q0 387 373 387q265 0 325 -127t60 -213z" />
    <glyph glyph-name="agrave" unicode="&#xe0;" horiz-adv-x="1024" 
d="M143 284q0 -108 69 -174t205 -67q230 0 333 159q41 62 52 120t11 79v197q-39 -46 -157 -59q-52 -6 -109 -11q-239 -17 -321 -77q-83 -59 -83 -167zM946 0q-109 0 -128 93q-5 28 -5 61v55h-4q-37 -98 -139 -165t-252 -69q-250 0 -326 157q-26 56 -26 144q1 163 128 239
q83 50 259 69q131 8 203 19q134 20 151 96q8 38 8 80q0 141 -145 205q-57 26 -148 26q-141 0 -228 -72t-95 -209h-78q8 174 111 261t290 87q253 0 337 -139q32 -53 32 -135v-608q0 -62 7 -83q15 -44 63 -44q20 0 57 6v-66q-32 -8 -72 -8zM510 1208l-274 287h104l246 -287
h-76z" />
    <glyph glyph-name="aacute" unicode="&#xe1;" horiz-adv-x="1024" 
d="M143 284q0 -108 69 -174t205 -67q230 0 333 159q41 62 52 120t11 79v197q-39 -46 -157 -59q-52 -6 -109 -11q-239 -17 -321 -77q-83 -59 -83 -167zM946 0q-109 0 -128 93q-5 28 -5 61v55h-4q-37 -98 -139 -165t-252 -69q-250 0 -326 157q-26 56 -26 144q1 163 128 239
q83 50 259 69q131 8 203 19q134 20 151 96q8 38 8 80q0 141 -145 205q-57 26 -148 26q-141 0 -228 -72t-95 -209h-78q8 174 111 261t290 87q253 0 337 -139q32 -53 32 -135v-608q0 -62 7 -83q15 -44 63 -44q20 0 57 6v-66q-32 -8 -72 -8zM694 1495h105l-275 -287h-75z" />
    <glyph glyph-name="acircumflex" unicode="&#xe2;" horiz-adv-x="1024" 
d="M143 284q0 -108 69 -174t205 -67q230 0 333 159q41 62 52 120t11 79v197q-39 -46 -157 -59q-52 -6 -109 -11q-239 -17 -321 -77q-83 -59 -83 -167zM946 0q-109 0 -128 93q-5 28 -5 61v55h-4q-37 -98 -139 -165t-252 -69q-250 0 -326 157q-26 56 -26 144q1 163 128 239
q83 50 259 69q131 8 203 19q134 20 151 96q8 38 8 80q0 141 -145 205q-57 26 -148 26q-141 0 -228 -72t-95 -209h-78q8 174 111 261t290 87q253 0 337 -139q32 -53 32 -135v-608q0 -62 7 -83q15 -44 63 -44q20 0 57 6v-66q-32 -8 -72 -8zM565 1495l238 -287h-78l-201 236
l-198 -236h-78l235 287h82z" />
    <glyph glyph-name="atilde" unicode="&#xe3;" horiz-adv-x="1024" 
d="M143 284q0 -108 69 -174t205 -67q230 0 333 159q41 62 52 120t11 79v197q-39 -46 -157 -59q-52 -6 -109 -11q-239 -17 -321 -77q-83 -59 -83 -167zM946 0q-109 0 -128 93q-5 28 -5 61v55h-4q-37 -98 -139 -165t-252 -69q-250 0 -326 157q-26 56 -26 144q1 163 128 239
q83 50 259 69q131 8 203 19q134 20 151 96q8 38 8 80q0 141 -145 205q-57 26 -148 26q-141 0 -228 -72t-95 -209h-78q8 174 111 261t290 87q253 0 337 -139q32 -53 32 -135v-608q0 -62 7 -83q15 -44 63 -44q20 0 57 6v-66q-32 -8 -72 -8zM676 1315q38 0 60 38t26 79h59
q-9 -83 -35 -116q-51 -67 -110 -68q-58 -2 -136 48q-79 50 -103 59q-25 9 -59 9t-58 -35t-31 -82h-60q4 71 46 127t106 57t149 -53q37 -23 73 -43t73 -20z" />
    <glyph glyph-name="adieresis" unicode="&#xe4;" horiz-adv-x="1024" 
d="M143 284q0 -108 69 -174t205 -67q230 0 333 159q41 62 52 120t11 79v197q-39 -46 -157 -59q-52 -6 -109 -11q-239 -17 -321 -77q-83 -59 -83 -167zM946 0q-109 0 -128 93q-5 28 -5 61v55h-4q-37 -98 -139 -165t-252 -69q-250 0 -326 157q-26 56 -26 144q1 163 128 239
q83 50 259 69q131 8 203 19q134 20 151 96q8 38 8 80q0 141 -145 205q-57 26 -148 26q-141 0 -228 -72t-95 -209h-78q8 174 111 261t290 87q253 0 337 -139q32 -53 32 -135v-608q0 -62 7 -83q15 -44 63 -44q20 0 57 6v-66q-32 -8 -72 -8zM317 1235v211h91v-211h-91z
M641 1235v211h90v-211h-90z" />
    <glyph glyph-name="aring" unicode="&#xe5;" horiz-adv-x="1024" 
d="M143 284q0 -108 69 -174t205 -67q230 0 333 159q41 62 52 120t11 79v197q-39 -46 -157 -59q-52 -6 -109 -11q-239 -17 -321 -77q-83 -59 -83 -167zM946 0q-109 0 -128 93q-5 28 -5 61v55h-4q-37 -98 -139 -165t-252 -69q-250 0 -326 157q-26 56 -26 144q1 163 128 239
q83 50 259 69q131 8 203 19q134 20 151 96q8 38 8 80q0 141 -145 205q-57 26 -148 26q-141 0 -228 -72t-95 -209h-78q8 174 111 261t290 87q253 0 337 -139q32 -53 32 -135v-608q0 -62 7 -83q15 -44 63 -44q20 0 57 6v-66q-32 -8 -72 -8zM322 1372q0 86 58 144t144 59
q86 0 144 -58q58 -59 59 -145q0 -86 -58 -144q-59 -58 -145 -58t-144 58t-58 144zM377 1372q0 -61 43 -104t104 -43t105 43q43 43 43 104q0 60 -43 104t-105 44t-104 -44q-43 -44 -43 -104z" />
    <glyph glyph-name="ae" unicode="&#xe6;" horiz-adv-x="1820" 
d="M1019.5 888.5q-97.5 -121.5 -110.5 -304.5h766q4 176 -101 301t-281 125t-273.5 -121.5zM831 592h-4q-28 -54 -227.5 -63.5t-263.5 -26.5t-128.5 -62t-64.5 -164q0 -120 88.5 -176.5t187.5 -56.5q175 0 291.5 105.5t120.5 263.5v180zM1296 1077q231 0 354.5 -162.5
t102.5 -398.5h-842q-13 -201 88.5 -337t296.5 -136q150 0 247 79t120 228h78q-29 -176 -146 -275.5t-287 -99.5t-283.5 77t-150.5 229h-4q-51 -141 -163.5 -223.5t-264.5 -82.5q-257 0 -316.5 107.5t-59.5 193.5q0 164 114.5 231.5t268.5 72.5q68 8 138 9t126.5 15t90.5 49
t27 111q0 127 -75.5 186.5t-223.5 59.5t-240.5 -68t-103.5 -219h-77q12 182 124.5 268t288.5 86q349 0 369 -268h4q96 268 399 268z" />
    <glyph glyph-name="ccedilla" unicode="&#xe7;" 
d="M538 -156q-35 0 -87 -24l-33 26l96 131q-213 8 -329.5 163.5t-116.5 392t129 390.5t354 154q177 0 298 -89t136 -261h-78q-12 136 -110.5 209.5t-245.5 73.5q-189 0 -297.5 -141.5t-108.5 -347.5t104.5 -342t301.5 -136q144 0 244 89.5t123 238.5h77
q-23 -183 -139.5 -282.5t-273.5 -111.5l-78 -92l4 -4q103 44 165 -4.5t62 -120t-49 -114.5t-154 -43t-186 51l23 49q35 -16 72.5 -30.5t88.5 -14.5t89 23.5t38 71.5t-24.5 66.5t-42 23.5t-52.5 5z" />
    <glyph glyph-name="egrave" unicode="&#xe8;" 
d="M68 508q-4 234 117 401q121 168 352 168q230 0 351 -162t107 -399h-850q-4 -196 98 -335q103 -138 289 -138q150 0 249 83t128 230h78q-31 -186 -149 -283t-323 -97q-206 0 -329 154q-124 154 -118 378zM145 584h773q-4 175 -110 300q-105 126 -273 126t-272 -128
q-105 -128 -118 -298zM520 1208l-274 287h104l246 -287h-76z" />
    <glyph glyph-name="eacute" unicode="&#xe9;" 
d="M68 508q-4 234 117 401q121 168 352 168q230 0 351 -162t107 -399h-850q-4 -196 98 -335q103 -138 289 -138q150 0 249 83t128 230h78q-31 -186 -149 -283t-323 -97q-206 0 -329 154q-124 154 -118 378zM145 584h773q-4 175 -110 300q-105 126 -273 126t-272 -128
q-105 -128 -118 -298zM733 1495h105l-275 -287h-76z" />
    <glyph glyph-name="ecircumflex" unicode="&#xea;" 
d="M68 508q-4 234 117 401q121 168 352 168q230 0 351 -162t107 -399h-850q-4 -196 98 -335q103 -138 289 -138q150 0 249 83t128 230h78q-31 -186 -149 -283t-323 -97q-206 0 -329 154q-124 154 -118 378zM145 584h773q-4 175 -110 300q-105 126 -273 126t-272 -128
q-105 -128 -118 -298zM571 1495l238 -287h-78l-201 236l-198 -236h-78l235 287h82z" />
    <glyph glyph-name="edieresis" unicode="&#xeb;" 
d="M68 508q-4 234 117 401q121 168 352 168q230 0 351 -162t107 -399h-850q-4 -196 98 -335q103 -138 289 -138q150 0 249 83t128 230h78q-31 -186 -149 -283t-323 -97q-206 0 -329 154q-124 154 -118 378zM145 584h773q-4 175 -110 300q-105 126 -273 126t-272 -128
q-105 -128 -118 -298zM324 1235v211h90v-211h-90zM647 1235v211h90v-211h-90z" />
    <glyph glyph-name="igrave" unicode="&#xec;" horiz-adv-x="344" 
d="M133 0v1053h78v-1053h-78zM139 1208l-274 287h104l246 -287h-76z" />
    <glyph glyph-name="iacute" unicode="&#xed;" horiz-adv-x="344" 
d="M133 0v1053h78v-1053h-78zM377 1495h104l-274 -287h-76z" />
    <glyph glyph-name="icircumflex" unicode="&#xee;" horiz-adv-x="344" 
d="M133 0v1053h78v-1053h-78zM213 1495l238 -287h-78l-201 236l-199 -236h-77l235 287h82z" />
    <glyph glyph-name="idieresis" unicode="&#xef;" horiz-adv-x="344" 
d="M133 0v1053h78v-1053h-78zM-35 1235v211h90v-211h-90zM289 1235v211h90v-211h-90z" />
    <glyph glyph-name="eth" unicode="&#xf0;" horiz-adv-x="1099" 
d="M143 504q0 -191 107 -326t304 -135t298.5 133.5t101.5 327.5t-105 329.5t-297.5 135.5t-300.5 -137t-108 -328zM641 1313q391 -313 391 -792q0 -245 -125 -395.5t-360 -150.5q-236 0 -358.5 150t-122.5 380q0 229 130 380t355 151q92 0 176 -30.5t158 -120.5l4 4
q-89 206 -318 385l-229 -127l-43 45l221 123q-108 82 -211 133l58 49q123 -66 221 -145l235 131l41 -45z" />
    <glyph glyph-name="ntilde" unicode="&#xf1;" 
d="M115 1053h78v-226h4q39 114 142 182t214 68q112 -1 177 -23q204 -71 216 -326q2 -44 2 -77v-651h-78v666q0 134 -36 200t-96 105t-158 39t-168 -33q-142 -67 -194 -231q-26 -81 -25 -177v-569h-78v1053zM688 1315q37 0 60 38t26 79h60q-9 -80 -35 -115q-51 -68 -111 -69
q-60 -2 -137 48t-101 59t-59 9t-59 -35t-31 -82h-59q4 74 46 129q42 54 105 55t125 -37t98 -59q36 -20 72 -20z" />
    <glyph glyph-name="ograve" unicode="&#xf2;" horiz-adv-x="1099" 
d="M66 524q0 234 128 394q128 159 354 159q227 0 356 -160q128 -160 128 -393t-129 -391t-353 -158q-225 0 -355 158q-129 157 -129 391zM143 526q0 -94 27 -181q58 -187 205 -262q76 -40 174 -40q189 0 298 144t108 341t-109 340q-108 142 -297 142q-190 0 -298 -144
t-108 -340zM545 1208l-275 287h105l246 -287h-76z" />
    <glyph glyph-name="oacute" unicode="&#xf3;" horiz-adv-x="1099" 
d="M66 524q0 234 128 394q128 159 354 159q227 0 356 -160q128 -160 128 -393t-129 -391t-353 -158q-225 0 -355 158q-129 157 -129 391zM143 526q0 -94 27 -181q58 -187 205 -262q76 -40 174 -40q189 0 298 144t108 341t-109 340q-108 142 -297 142q-190 0 -298 -144
t-108 -340zM748 1495h104l-274 -287h-76z" />
    <glyph glyph-name="ocircumflex" unicode="&#xf4;" horiz-adv-x="1099" 
d="M66 524q0 234 128 394q128 159 354 159q227 0 356 -160q128 -160 128 -393t-129 -391t-353 -158q-225 0 -355 158q-129 157 -129 391zM143 526q0 -94 27 -181q58 -187 205 -262q76 -40 174 -40q189 0 298 144t108 341t-109 340q-108 142 -297 142q-190 0 -298 -144
t-108 -340zM590 1495l237 -287h-77l-201 236l-199 -236h-78l236 287h82z" />
    <glyph glyph-name="otilde" unicode="&#xf5;" horiz-adv-x="1099" 
d="M66 524q0 234 128 394q128 159 354 159q227 0 356 -160q128 -160 128 -393t-129 -391t-353 -158q-225 0 -355 158q-129 157 -129 391zM143 526q0 -94 27 -181q58 -187 205 -262q76 -40 174 -40q189 0 298 144t108 341t-109 340q-108 142 -297 142q-190 0 -298 -144
t-108 -340zM700 1315q36 0 60 38q23 38 26 79h60q-9 -80 -35 -115q-51 -68 -111 -69q-60 -2 -137 48t-101 59t-58 9t-59 -35q-24 -35 -32 -82h-59q4 74 46 129q42 54 105 55t125 -37t98 -59q36 -20 72 -20z" />
    <glyph glyph-name="odieresis" unicode="&#xf6;" horiz-adv-x="1099" 
d="M66 524q0 234 128 394q128 159 354 159q227 0 356 -160q128 -160 128 -393t-129 -391t-353 -158q-225 0 -355 158q-129 157 -129 391zM143 526q0 -94 27 -181q58 -187 205 -262q76 -40 174 -40q189 0 298 144t108 341t-109 340q-108 142 -297 142q-190 0 -298 -144
t-108 -340zM342 1235v211h90v-211h-90zM666 1235v211h90v-211h-90z" />
    <glyph glyph-name="divide" unicode="&#xf7;" horiz-adv-x="1228" 
d="M98 477v78h1032v-78h-1032zM512 927q0 44 30.5 74.5t73.5 30.5t75 -30.5t32 -74.5t-32 -75t-75 -31t-73.5 31t-30.5 75zM512 105q0 44 30.5 75t73.5 31t75 -30.5t32 -74.5t-32 -75t-75 -31t-73.5 30.5t-30.5 74.5z" />
    <glyph glyph-name="oslash" unicode="&#xf8;" horiz-adv-x="1099" 
d="M836 877q-106 133 -291 133t-293.5 -143t-108.5 -330t80 -308zM264 172q112 -129 293 -129q182 0 289.5 142.5t107.5 328.5t-77 305zM932 877q100 -147 100 -367t-129 -377.5t-347 -157.5t-345 142l-111 -117l-49 47l117 125q-102 144 -102 366t129 380.5t346 158.5
q218 0 348 -145l112 119l50 -47z" />
    <glyph glyph-name="ugrave" unicode="&#xf9;" 
d="M948 0h-78v225h-4q-38 -113 -140 -180t-216 -69q-264 -3 -347 164q-41 79 -45 154q-3 75 -3 107v652h78v-666q-1 -134 35 -200t96 -105t158 -39q184 0 287 122t101 318v570h78v-1053zM532 1208l-274 287h104l246 -287h-76z" />
    <glyph glyph-name="uacute" unicode="&#xfa;" 
d="M948 0h-78v225h-4q-38 -113 -140 -180t-216 -69q-264 -3 -347 164q-41 79 -45 154q-3 75 -3 107v652h78v-666q-1 -134 35 -200t96 -105t158 -39q184 0 287 122t101 318v570h78v-1053zM723 1495h104l-274 -287h-76z" />
    <glyph glyph-name="ucircumflex" unicode="&#xfb;" 
d="M948 0h-78v225h-4q-38 -113 -140 -180t-216 -69q-264 -3 -347 164q-41 79 -45 154q-3 75 -3 107v652h78v-666q-1 -134 35 -200t96 -105t158 -39q184 0 287 122t101 318v570h78v-1053zM561 1495l238 -287h-78l-201 236l-198 -236h-78l235 287h82z" />
    <glyph glyph-name="udieresis" unicode="&#xfc;" 
d="M948 0h-78v225h-4q-38 -113 -140 -180t-216 -69q-264 -3 -347 164q-41 79 -45 154q-3 75 -3 107v652h78v-666q-1 -134 35 -200t96 -105t158 -39q184 0 287 122t101 318v570h78v-1053zM315 1235v211h91v-211h-91zM639 1235v211h90v-211h-90z" />
    <glyph glyph-name="yacute" unicode="&#xfd;" horiz-adv-x="909" 
d="M100 -377v68q84 0 131 13t79 45t57 92t61 165l-440 1047h92l391 -961l360 961h89l-451 -1166q-33 -78 -61 -134t-65 -86q-38 -30 -95 -37t-148 -7zM670 1495h104l-274 -287h-76z" />
    <glyph glyph-name="thorn" unicode="&#xfe;" horiz-adv-x="1138" 
d="M594 43q199 0 299 136.5t100 339.5t-98 347t-296 144q-197 0 -291.5 -138.5t-94.5 -410t137.5 -345t243.5 -73.5zM133 1462h78v-651h4q31 99 128.5 182.5t236.5 83.5q247 0 369 -157.5t122 -395.5q0 -387 -176 -468t-302 -81t-228.5 57.5t-149.5 186.5h-4v-596h-78v1839z
" />
    <glyph glyph-name="ydieresis" unicode="&#xff;" horiz-adv-x="909" 
d="M100 -377v68q84 0 131 13t79 45t57 92t61 165l-440 1047h92l391 -961l360 961h89l-451 -1166q-33 -78 -61 -134t-65 -86q-38 -30 -95 -37t-148 -7zM262 1235v211h90v-211h-90zM586 1235v211h90v-211h-90z" />
    <glyph glyph-name="Amacron" unicode="&#x100;" horiz-adv-x="1214" 
d="M662 1462l577 -1462h-96l-185 469h-700l-186 -469h-97l588 1462h99zM930 547l-314 827h-4l-325 -827h643zM365 1696v67h495v-67h-495z" />
    <glyph glyph-name="amacron" unicode="&#x101;" horiz-adv-x="1024" 
d="M143 284q0 -108 69 -174t205 -67q230 0 333 159q41 62 52 120t11 79v197q-39 -46 -157 -59q-52 -6 -109 -11q-239 -17 -321 -77q-83 -59 -83 -167zM946 0q-109 0 -128 93q-5 28 -5 61v55h-4q-37 -98 -139 -165t-252 -69q-250 0 -326 157q-26 56 -26 144q1 163 128 239
q83 50 259 69q131 8 203 19q134 20 151 96q8 38 8 80q0 141 -145 205q-57 26 -148 26q-141 0 -228 -72t-95 -209h-78q8 174 111 261t290 87q253 0 337 -139q32 -53 32 -135v-608q0 -62 7 -83q15 -44 63 -44q20 0 57 6v-66q-32 -8 -72 -8zM285 1307v67h495v-67h-495z" />
    <glyph glyph-name="Abreve" unicode="&#x102;" horiz-adv-x="1214" 
d="M662 1462l577 -1462h-96l-185 469h-700l-186 -469h-97l588 1462h99zM930 547l-314 827h-4l-325 -827h643zM620 1686q80 0 135 49q54 49 68 129h68q-12 -101 -89 -173q-77 -73 -187 -73q-109 0 -187 64t-92 182h67q22 -94 92 -145q45 -33 125 -33z" />
    <glyph glyph-name="abreve" unicode="&#x103;" horiz-adv-x="1024" 
d="M143 284q0 -108 69 -174t205 -67q230 0 333 159q41 62 52 120t11 79v197q-39 -46 -157 -59q-52 -6 -109 -11q-239 -17 -321 -77q-83 -59 -83 -167zM946 0q-109 0 -128 93q-5 28 -5 61v55h-4q-37 -98 -139 -165t-252 -69q-250 0 -326 157q-26 56 -26 144q1 163 128 239
q83 50 259 69q131 8 203 19q134 20 151 96q8 38 8 80q0 141 -145 205q-57 26 -148 26q-141 0 -228 -72t-95 -209h-78q8 174 111 261t290 87q253 0 337 -139q32 -53 32 -135v-608q0 -62 7 -83q15 -44 63 -44q20 0 57 6v-66q-32 -8 -72 -8zM512 1229q-108 1 -186 65t-93 181
h68q22 -92 91 -145q43 -31 124 -33q82 -1 136 49t69 129h67q-13 -103 -89 -174q-78 -72 -187 -72z" />
    <glyph glyph-name="Aogonek" unicode="&#x104;" horiz-adv-x="1214" 
d="M930 547l-314 827h-4l-325 -827h643zM1024 -248q0 -41 26.5 -63.5t63.5 -22.5t62.5 15.5t54.5 56.5l47 -17q-54 -122 -168 -122q-115 0 -145.5 47t-30.5 82q0 65 41.5 126t167.5 146l-185 469h-700l-186 -469h-97l588 1462h99l577 -1462h-47q-168 -148 -168 -248z" />
    <glyph glyph-name="aogonek" unicode="&#x105;" horiz-adv-x="1024" 
d="M143 284q0 -108 69 -174.5t205 -66.5t214 48t119 110.5t52 121t11 78.5v197q-38 -45 -123.5 -55.5t-233 -21t-230.5 -70t-83 -167.5zM66 272q0 166 108 231t279 81q131 8 203.5 19t107.5 35t43 61.5t8 79.5q0 84 -68 157.5t-217 73.5t-236 -72t-95 -209h-78
q8 174 111.5 261t289.5 87q253 0 311 -96t58 -178v-608q0 -62 10.5 -94.5t59.5 -32.5q20 0 57 6v-66q-32 -8 -64 -8h-20q-168 -148 -168 -248q0 -41 26.5 -63.5t63.5 -22.5t62.5 15.5t54.5 56.5l47 -17q-54 -122 -168 -122q-115 0 -145.5 47t-30.5 82q0 100 83 174
q60 53 134 104q-80 20 -80 148v55h-4q-37 -98 -140.5 -166t-250.5 -68q-352 0 -352 297z" />
    <glyph glyph-name="Cacute" unicode="&#x106;" horiz-adv-x="1441" 
d="M164 731q0 -141 41 -266q83 -254 309 -367q114 -55 238 -55t218 44q190 89 274 285q42 95 48 197h90q-24 -260 -196 -432t-416 -172q-164 -1 -294 59q-259 119 -355 407q-47 140 -47 300q0 330 183 544q89 103 219 163t276 59q146 0 241 -34q236 -85 327 -305
q38 -90 38 -132h-90q-27 179 -170 287t-328 106q-279 0 -446 -204q-160 -191 -160 -484zM967 1884h104l-274 -287h-76z" />
    <glyph glyph-name="cacute" unicode="&#x107;" 
d="M145 529q0 -99 25 -189q52 -189 203 -260q76 -37 164 -37q154 0 261 92q100 89 120 236h77q-23 -183 -147 -289q-124 -107 -297 -107q-240 0 -370 170q-115 155 -114 388t129 389q128 155 355 155q178 0 298 -89t136 -261h-78q-12 135 -109 208t-221 74t-200 -39
t-127 -107t-78 -151t-27 -183zM748 1495h104l-274 -287h-76z" />
    <glyph glyph-name="Ccircumflex" unicode="&#x108;" horiz-adv-x="1441" 
d="M164 731q0 -141 41 -266q83 -254 309 -367q114 -55 238 -55t218 44q190 89 274 285q42 95 48 197h90q-24 -260 -196 -432t-416 -172q-164 -1 -294 59q-259 119 -355 407q-47 140 -47 300q0 330 183 544q89 103 219 163t276 59q146 0 241 -34q236 -85 327 -305
q38 -90 38 -132h-90q-27 179 -170 287t-328 106q-279 0 -446 -204q-160 -191 -160 -484zM799 1884l237 -287h-78l-200 236l-199 -236h-78l236 287h82z" />
    <glyph glyph-name="ccircumflex" unicode="&#x109;" 
d="M145 529q0 -99 25 -189q52 -189 203 -260q76 -37 164 -37q154 0 261 92q100 89 120 236h77q-23 -183 -147 -289q-124 -107 -297 -107q-240 0 -370 170q-115 155 -114 388t129 389q128 155 355 155q178 0 298 -89t136 -261h-78q-12 135 -109 208t-221 74t-200 -39
t-127 -107t-78 -151t-27 -183zM594 1495l237 -287h-77l-201 236l-199 -236h-78l236 287h82z" />
    <glyph glyph-name="Cdotaccent" unicode="&#x10a;" horiz-adv-x="1441" 
d="M164 731q0 -141 41 -266q83 -254 309 -367q114 -55 238 -55t218 44q190 89 274 285q42 95 48 197h90q-24 -260 -196 -432t-416 -172q-164 -1 -294 59q-259 119 -355 407q-47 140 -47 300q0 330 183 544q89 103 219 163t276 59q146 0 241 -34q236 -85 327 -305
q38 -90 38 -132h-90q-27 179 -170 287t-328 106q-279 0 -446 -204q-160 -191 -160 -484zM721 1624v211h90v-211h-90z" />
    <glyph glyph-name="cdotaccent" unicode="&#x10b;" 
d="M145 529q0 -99 25 -189q52 -189 203 -260q76 -37 164 -37q154 0 261 92q100 89 120 236h77q-23 -183 -147 -289q-124 -107 -297 -107q-240 0 -370 170q-115 155 -114 388t129 389q128 155 355 155q178 0 298 -89t136 -261h-78q-12 135 -109 208t-221 74t-200 -39
t-127 -107t-78 -151t-27 -183zM504 1235v211h90v-211h-90z" />
    <glyph glyph-name="Ccaron" unicode="&#x10c;" horiz-adv-x="1441" 
d="M164 731q0 -141 41 -266q83 -254 309 -367q114 -55 238 -55t218 44q190 89 274 285q42 95 48 197h90q-24 -260 -196 -432t-416 -172q-164 -1 -294 59q-259 119 -355 407q-47 140 -47 300q0 330 183 544q89 103 219 163t276 59q146 0 241 -34q236 -85 327 -305
q38 -90 38 -132h-90q-27 179 -170 287t-328 106q-279 0 -446 -204q-160 -191 -160 -484zM717 1597l-236 287h78l199 -235l200 235h78l-237 -287h-82z" />
    <glyph glyph-name="ccaron" unicode="&#x10d;" 
d="M145 529q0 -99 25 -189q52 -189 203 -260q76 -37 164 -37q154 0 261 92q100 89 120 236h77q-23 -183 -147 -289q-124 -107 -297 -107q-240 0 -370 170q-115 155 -114 388t129 389q128 155 355 155q178 0 298 -89t136 -261h-78q-12 135 -109 208t-221 74t-200 -39
t-127 -107t-78 -151t-27 -183zM500 1208l-236 287h78l199 -235l200 235h78l-237 -287h-82z" />
    <glyph glyph-name="Dcaron" unicode="&#x10e;" horiz-adv-x="1366" 
d="M219 78h393q235 0 394 138q188 168 188 517q0 496 -347 615q-105 36 -253 36h-375v-1306zM129 1462h479q365 0 535 -225q141 -184 141 -504q0 -510 -376 -677q-128 -56 -304 -56h-475v1462zM553 1597l-236 287h78l199 -235l201 235h77l-237 -287h-82z" />
    <glyph glyph-name="dcaron" unicode="&#x10f;" horiz-adv-x="1259" 
d="M830 193q96 136 96 331t-99 341q-99 145 -294 145t-299 -148q-91 -129 -91 -332q0 -204 96 -340q104 -147 296 -147q191 0 295 150zM535 1077q130 0 239 -68q108 -68 150 -192h4v645h78v-1462h-78v225h-4q-131 -248 -404 -250q-226 0 -341 159t-114 397t121 392t349 154z
M1249 1462h105l-178 -286h-60z" />
    <glyph glyph-name="Dcroat" unicode="&#x110;" horiz-adv-x="1366" 
d="M129 1462h479q363 0 519.5 -204.5t156.5 -530.5q0 -325 -172.5 -526t-507.5 -201h-475v743h-139v68h139v651zM1194 733q0 651 -600 651h-375v-573h541v-68h-541v-665h393q239 0 410.5 153t171.5 502z" />
    <glyph glyph-name="dcroat" unicode="&#x111;" horiz-adv-x="1159" 
d="M926 524q0 199 -99.5 342.5t-292.5 143.5t-292 -137.5t-99 -343.5t100.5 -346t292.5 -140q187 0 288.5 141t101.5 340zM520 -25q-225 0 -339.5 157.5t-114.5 391.5q0 382 175 467.5t266 85.5q158 0 266.5 -68t150.5 -192h4v418h-305v68h305v159h78v-159h153v-68h-153
v-1235h-78v225h-4q-132 -250 -404 -250z" />
    <glyph glyph-name="Emacron" unicode="&#x112;" horiz-adv-x="1146" 
d="M1122 78v-78h-993v1462h983v-78h-893v-585h840v-78h-840v-643h903zM375 1696v67h495v-67h-495z" />
    <glyph glyph-name="emacron" unicode="&#x113;" 
d="M68 508q-4 234 117 401q121 168 352 168q230 0 351 -162t107 -399h-850q-4 -196 98 -335q103 -138 289 -138q150 0 249 83t128 230h78q-31 -186 -149 -283t-323 -97q-206 0 -329 154q-124 154 -118 378zM145 584h773q-4 175 -110 300q-105 126 -273 126t-272 -128
q-105 -128 -118 -298zM297 1307v67h496v-67h-496z" />
    <glyph glyph-name="Ebreve" unicode="&#x114;" horiz-adv-x="1146" 
d="M1122 78v-78h-993v1462h983v-78h-893v-585h840v-78h-840v-643h903zM618 1686q80 0 135 49q54 49 68 129h68q-12 -101 -89 -173q-77 -73 -187 -73q-109 0 -187 64t-92 182h67q22 -94 92 -145q45 -33 125 -33z" />
    <glyph glyph-name="ebreve" unicode="&#x115;" 
d="M68 508q-4 234 117 401q121 168 352 168q230 0 351 -162t107 -399h-850q-4 -196 98 -335q103 -138 289 -138q150 0 249 83t128 230h78q-31 -186 -149 -283t-323 -97q-206 0 -329 154q-124 154 -118 378zM145 584h773q-4 175 -110 300q-105 126 -273 126t-272 -128
q-105 -128 -118 -298zM551 1229q-109 1 -187 65t-92 181h68q22 -92 91 -145q43 -31 124 -33q82 -1 136 49t69 129h67q-13 -103 -89 -174q-78 -72 -187 -72z" />
    <glyph glyph-name="Edotaccent" unicode="&#x116;" horiz-adv-x="1146" 
d="M1122 78v-78h-993v1462h983v-78h-893v-585h840v-78h-840v-643h903zM578 1624v211h90v-211h-90z" />
    <glyph glyph-name="edotaccent" unicode="&#x117;" 
d="M68 508q-4 234 117 401q121 168 352 168q230 0 351 -162t107 -399h-850q-4 -196 98 -335q103 -138 289 -138q150 0 249 83t128 230h78q-31 -186 -149 -283t-323 -97q-206 0 -329 154q-124 154 -118 378zM145 584h773q-4 175 -110 300q-105 126 -273 126t-272 -128
q-105 -128 -118 -298zM489 1235v211h91v-211h-91z" />
    <glyph glyph-name="Eogonek" unicode="&#x118;" horiz-adv-x="1146" 
d="M870 -248q0 -41 27 -63.5t63 -22.5t62.5 15.5t54.5 56.5l47 -17q-54 -122 -168 -122q-115 0 -145.5 47t-30.5 82q0 64 41.5 125t167.5 147h-860v1462h983v-78h-893v-585h840v-78h-840v-643h903v-78h-84q-168 -148 -168 -248z" />
    <glyph glyph-name="eogonek" unicode="&#x119;" 
d="M263.5 882.5q-103.5 -127.5 -118.5 -298.5h773q-4 175 -109 300.5t-274 125.5q-168 0 -271.5 -127.5zM358 -262q0 110 172 237q-221 0 -343.5 153t-118.5 380q-4 235 118 402t353 167q230 0 349.5 -160.5t106.5 -400.5h-850q-4 -199 99.5 -336t287.5 -137q150 0 249.5 83
t127.5 230h78q-31 -186 -139 -275t-258 -104q-141 -132 -141 -225q0 -41 26.5 -63.5t63.5 -22.5t62.5 15.5t53.5 56.5l47 -17q-54 -122 -168 -122q-115 0 -145.5 47t-30.5 92z" />
    <glyph glyph-name="Ecaron" unicode="&#x11a;" horiz-adv-x="1146" 
d="M1122 78v-78h-993v1462h983v-78h-893v-585h840v-78h-840v-643h903zM571 1597l-235 287h78l198 -235l201 235h78l-238 -287h-82z" />
    <glyph glyph-name="ecaron" unicode="&#x11b;" 
d="M68 508q-4 234 117 401q121 168 352 168q230 0 351 -162t107 -399h-850q-4 -196 98 -335q103 -138 289 -138q150 0 249 83t128 230h78q-31 -186 -149 -283t-323 -97q-206 0 -329 154q-124 154 -118 378zM145 584h773q-4 175 -110 300q-105 126 -273 126t-272 -128
q-105 -128 -118 -298zM494 1208l-236 287h78l199 -235l200 235h78l-238 -287h-81z" />
    <glyph glyph-name="Gcircumflex" unicode="&#x11c;" horiz-adv-x="1517" 
d="M1399 717v-717h-78v311h-4q-82 -244 -368 -321q-89 -25 -185 -25q-319 0 -504 214q-184 214 -184 541t186 552t504 225q232 0 401 -132t207 -355h-86q-51 190 -185 300t-335 109q-284 0 -449 -211q-153 -193 -153 -485t157 -486t431 -194t426 163q153 163 141 433h-539
v78h617zM817 1884l238 -287h-78l-201 236l-198 -236h-78l235 287h82z" />
    <glyph glyph-name="gcircumflex" unicode="&#x11d;" horiz-adv-x="1099" 
d="M239 868q-94 -129 -94 -317q0 -189 101 -317t280 -128q180 0 281 133q100 133 99 322t-102 319t-283 130t-282 -142zM522 39q-221 0 -338 147q-118 147 -117 369q1 223 121 373q120 149 327 149t327 -139q39 -45 61 -104h4v219h78v-998q0 -344 -263 -434
q-80 -27 -178 -25t-172 20q-150 35 -215 156q-34 62 -38 154h78q11 -133 102 -196q91 -62 208 -63q268 -2 351 159q42 79 46 136q3 57 3 75v242h-4q-113 -240 -381 -240zM606 1495l238 -287h-78l-201 236l-198 -236h-78l235 287h82z" />
    <glyph glyph-name="Gbreve" unicode="&#x11e;" horiz-adv-x="1517" 
d="M1399 717v-717h-78v311h-4q-82 -244 -368 -321q-89 -25 -185 -25q-319 0 -504 214q-184 214 -184 541t186 552t504 225q232 0 401 -132t207 -355h-86q-51 190 -185 300t-335 109q-284 0 -449 -211q-153 -193 -153 -485t157 -486t431 -194t426 163q153 163 141 433h-539
v78h617zM768 1618q-108 0 -186 64t-93 182h68q22 -92 91 -145q45 -33 125 -33q81 0 135 49t69 129h67q-13 -103 -89 -174q-78 -72 -187 -72z" />
    <glyph glyph-name="gbreve" unicode="&#x11f;" horiz-adv-x="1099" 
d="M239 868q-94 -129 -94 -317q0 -189 101 -317t280 -128q180 0 281 133q100 133 99 322t-102 319t-283 130t-282 -142zM522 39q-221 0 -338 147q-118 147 -117 369q1 223 121 373q120 149 327 149t327 -139q39 -45 61 -104h4v219h78v-998q0 -344 -263 -434
q-80 -27 -178 -25t-172 20q-150 35 -215 156q-34 62 -38 154h78q11 -133 102 -196q91 -62 208 -63q268 -2 351 159q42 79 46 136q3 57 3 75v242h-4q-113 -240 -381 -240zM549 1229q-109 1 -187 65t-92 181h68q22 -92 91 -145q43 -31 124 -33q82 -1 136 49t69 129h67
q-13 -103 -89 -174q-78 -72 -187 -72z" />
    <glyph glyph-name="Gdotaccent" unicode="&#x120;" horiz-adv-x="1517" 
d="M1399 717v-717h-78v311h-4q-82 -244 -368 -321q-89 -25 -185 -25q-319 0 -504 214q-184 214 -184 541t186 552t504 225q232 0 401 -132t207 -355h-86q-51 190 -185 300t-335 109q-284 0 -449 -211q-153 -193 -153 -485t157 -486t431 -194t426 163q153 163 141 433h-539
v78h617zM711 1624v211h90v-211h-90z" />
    <glyph glyph-name="gdotaccent" unicode="&#x121;" horiz-adv-x="1099" 
d="M239 868q-94 -129 -94 -317q0 -189 101 -317t280 -128q180 0 281 133q100 133 99 322t-102 319t-283 130t-282 -142zM522 39q-221 0 -338 147q-118 147 -117 369q1 223 121 373q120 149 327 149t327 -139q39 -45 61 -104h4v219h78v-998q0 -344 -263 -434
q-80 -27 -178 -25t-172 20q-150 35 -215 156q-34 62 -38 154h78q11 -133 102 -196q91 -62 208 -63q268 -2 351 159q42 79 46 136q3 57 3 75v242h-4q-113 -240 -381 -240zM508 1235v211h90v-211h-90z" />
    <glyph glyph-name="Gcommaaccent" unicode="&#x122;" horiz-adv-x="1517" 
d="M1399 717v-717h-78v311h-4q-82 -244 -368 -321q-89 -25 -185 -25q-319 0 -504 214q-184 214 -184 541t186 552t504 225q232 0 401 -132t207 -355h-86q-51 190 -185 300t-335 109q-284 0 -449 -211q-153 -193 -153 -485t157 -486t431 -194t426 163q153 163 141 433h-539
v78h617zM698 -293v191h117v-164q0 -129 -129 -135v41q55 12 64 67h-52z" />
    <glyph glyph-name="gcommaaccent" unicode="&#x123;" horiz-adv-x="1099" 
d="M239 868q-94 -129 -94 -317q0 -189 101 -317t280 -128q180 0 281 133q100 133 99 322t-102 319t-283 130t-282 -142zM522 39q-221 0 -338 147q-118 147 -117 369q1 223 121 373q120 149 327 149t327 -139q39 -45 61 -104h4v219h78v-998q0 -344 -263 -434
q-80 -27 -178 -25t-172 20q-150 35 -215 156q-34 62 -38 154h78q11 -133 102 -196q91 -62 208 -63q268 -2 351 159q42 79 46 136q3 57 3 75v242h-4q-113 -240 -381 -240zM600 1462v-190h-117v164q0 127 129 135v-41q-56 -12 -63 -68h51z" />
    <glyph glyph-name="Hcircumflex" unicode="&#x124;" horiz-adv-x="1372" 
d="M219 721v-721h-90v1462h90v-663h934v663h90v-1462h-90v721h-934zM729 1884l238 -287h-78l-201 236l-199 -236h-77l235 287h82z" />
    <glyph glyph-name="hcircumflex" unicode="&#x125;" 
d="M193 1462v-635h4q39 114 142 182t214 68q112 -1 177 -23q204 -71 216 -326q2 -44 2 -77v-651h-78v666q0 134 -36 200t-96 105t-158 39t-168 -33q-142 -67 -194 -231q-26 -81 -25 -177v-569h-78v1462h78zM563 1884l238 -287h-78l-201 236l-198 -236h-78l235 287h82z" />
    <glyph glyph-name="Hbar" unicode="&#x126;" horiz-adv-x="1372" 
d="M219 985v-186h934v186h-934zM219 721v-721h-90v1462h90v-409h934v409h90v-1462h-90v721h-934z" />
    <glyph glyph-name="hbar" unicode="&#x127;" horiz-adv-x="1073" 
d="M203 1462v-159h309v-68h-309v-408h4q39 115 143 182.5t215 67.5t175.5 -22.5t122.5 -75t76.5 -139.5t18.5 -189v-651h-77v666q0 133 -36 199.5t-96.5 105.5t-157.5 39q-184 0 -286 -122t-102 -319v-569h-78v1235h-150v68h150v159h78z" />
    <glyph glyph-name="Itilde" unicode="&#x128;" horiz-adv-x="348" 
d="M129 1462h90v-1462h-90v1462zM326 1704q36 0 59 38t27 79h59q-9 -83 -35 -116q-51 -67 -110 -68q-58 -1 -136 49q-79 50 -103 58q-25 9 -59 9t-58 -35t-31 -82h-60q4 71 46 127t106 57t149 -53q37 -23 73 -43q37 -20 73 -20z" />
    <glyph glyph-name="itilde" unicode="&#x129;" horiz-adv-x="344" 
d="M133 0v1053h78v-1053h-78zM324 1315q36 0 59 38t27 79h59q-9 -83 -35 -116q-51 -67 -110 -68q-58 -2 -136 48q-79 50 -103 59q-25 9 -59 9t-58 -35t-31 -82h-60q4 74 46 129q42 54 105 55t125 -37t98 -59q37 -20 73 -20z" />
    <glyph glyph-name="Imacron" unicode="&#x12a;" horiz-adv-x="348" 
d="M129 1462h90v-1462h-90v1462zM-74 1696v67h496v-67h-496z" />
    <glyph glyph-name="imacron" unicode="&#x12b;" horiz-adv-x="344" 
d="M133 0v1053h78v-1053h-78zM-74 1307v67h496v-67h-496z" />
    <glyph glyph-name="Iogonek" unicode="&#x12e;" horiz-adv-x="348" 
d="M68 -248q0 -41 23 -63.5t57 -22.5t56.5 15.5t49.5 56.5l43 -17q-49 -122 -153 -122t-131 47t-27 82q0 62 36.5 123.5t151.5 148.5h-45v1462h90v-1462q-151 -145 -151 -248z" />
    <glyph glyph-name="iogonek" unicode="&#x12f;" horiz-adv-x="344" 
d="M133 1251v211h78v-211h-78zM59 -248q0 -41 23.5 -63.5t57.5 -22.5t56.5 15.5t49.5 56.5l43 -17q-49 -122 -153 -122t-131.5 47t-27.5 82q0 61 37 123t152 149h-33v1053h78v-1053q-152 -146 -152 -248z" />
    <glyph glyph-name="Idotaccent" unicode="&#x130;" horiz-adv-x="348" 
d="M129 1462h90v-1462h-90v1462zM129 1624v211h90v-211h-90z" />
    <glyph glyph-name="dotlessi" unicode="&#x131;" horiz-adv-x="344" 
d="M133 0v1053h78v-1053h-78z" />
    <glyph glyph-name="Jcircumflex" unicode="&#x134;" horiz-adv-x="985" 
d="M731 188q29 62 32 142t3 155v977h90v-1007q0 -140 -12 -199q-12 -58 -36 -110q-51 -109 -182 -156q-70 -25 -194 -25t-208 47t-125 121q-40 74 -49 162t-9 170h90q-14 -192 43 -292q74 -130 283 -130q210 0 274 145zM844 1884l237 -287h-77l-201 236l-199 -236h-78
l236 287h82z" />
    <glyph glyph-name="jcircumflex" unicode="&#x135;" horiz-adv-x="344" 
d="M-14 -311q36 0 66 9q55 17 73 96q8 40 8 100v1159h78v-1166q0 -125 -32 -173q-61 -91 -157 -91h-59q-16 0 -33 2v68q20 -4 56 -4zM207 1495l237 -287h-77l-201 236l-199 -236h-78l236 287h82z" />
    <glyph glyph-name="Kcommaaccent" unicode="&#x136;" horiz-adv-x="1255" 
d="M129 1462h90v-841l920 841h116l-667 -608l708 -854h-112l-662 793l-303 -277v-516h-90v1462zM608 -293v191h117v-164q0 -129 -129 -135v41q56 12 63 67h-51z" />
    <glyph glyph-name="kcommaaccent" unicode="&#x137;" horiz-adv-x="948" 
d="M119 1462h78v-968l649 559h112l-460 -394l493 -659h-106l-449 600l-239 -203v-397h-78v1462zM473 -293v191h117v-164q0 -129 -129 -135v41q56 12 63 67h-51z" />
    <glyph glyph-name="Lacute" unicode="&#x139;" horiz-adv-x="1024" 
d="M129 1462h90v-1384h830v-78h-920v1462zM379 1884h104l-274 -287h-76z" />
    <glyph glyph-name="lacute" unicode="&#x13a;" horiz-adv-x="344" 
d="M211 1462v-1462h-78v1462h78zM379 1884h104l-274 -287h-76z" />
    <glyph glyph-name="Lcommaaccent" unicode="&#x13b;" horiz-adv-x="1024" 
d="M129 1462h90v-1384h830v-78h-920v1462zM502 -293v191h116v-164q0 -129 -129 -135v41q55 12 64 67h-51z" />
    <glyph glyph-name="lcommaaccent" unicode="&#x13c;" horiz-adv-x="344" 
d="M211 1462v-1462h-78v1462h78zM121 -293v191h117v-164q0 -129 -129 -135v41q56 12 63 67h-51z" />
    <glyph glyph-name="Lcaron" unicode="&#x13d;" horiz-adv-x="1024" 
d="M129 1462h90v-1384h830v-78h-920v1462zM565 1462h105l-178 -286h-60z" />
    <glyph glyph-name="lcaron" unicode="&#x13e;" horiz-adv-x="466" 
d="M211 1462v-1462h-78v1462h78zM457 1462h104l-178 -286h-59z" />
    <glyph glyph-name="Ldot" unicode="&#x13f;" horiz-adv-x="1024" 
d="M129 1462h90v-1384h830v-78h-920v1462zM541 844v211h90v-211h-90z" />
    <glyph glyph-name="ldot" unicode="&#x140;" horiz-adv-x="503" 
d="M211 1462v-1462h-78v1462h78zM340 844v211h90v-211h-90z" />
    <glyph glyph-name="Lslash" unicode="&#x141;" horiz-adv-x="1024" 
d="M219 1462v-784l481 293v-74l-481 -291v-528h830v-78h-920v551l-174 -109v78l174 105v837h90z" />
    <glyph glyph-name="lslash" unicode="&#x142;" horiz-adv-x="344" 
d="M133 1462h78v-717l133 105v-68l-133 -104v-678h-78v616l-133 -104v68l133 104v778z" />
    <glyph glyph-name="Nacute" unicode="&#x143;" horiz-adv-x="1388" 
d="M129 1462h113l923 -1341h4v1341h91v-1462h-107l-930 1352h-4v-1352h-90v1462zM893 1884h104l-274 -287h-76z" />
    <glyph glyph-name="nacute" unicode="&#x144;" 
d="M115 1053h78v-226h4q39 114 142 182t214 68q112 -1 177 -23q204 -71 216 -326q2 -44 2 -77v-651h-78v666q0 134 -36 200t-96 105t-158 39t-168 -33q-142 -67 -194 -231q-26 -81 -25 -177v-569h-78v1053zM731 1495h105l-275 -287h-76z" />
    <glyph glyph-name="Ncommaaccent" unicode="&#x145;" horiz-adv-x="1388" 
d="M129 1462h113l923 -1341h4v1341h91v-1462h-107l-930 1352h-4v-1352h-90v1462zM627 -293v191h116v-164q0 -129 -129 -135v41q55 12 64 67h-51z" />
    <glyph glyph-name="ncommaaccent" unicode="&#x146;" 
d="M115 1053h78v-226h4q39 114 142 182t214 68q112 -1 177 -23q204 -71 216 -326q2 -44 2 -77v-651h-78v666q0 134 -36 200t-96 105t-158 39t-168 -33q-142 -67 -194 -231q-26 -81 -25 -177v-569h-78v1053zM473 -293v191h117v-164q0 -129 -129 -135v41q56 12 63 67h-51z" />
    <glyph glyph-name="Ncaron" unicode="&#x147;" horiz-adv-x="1388" 
d="M129 1462h113l923 -1341h4v1341h91v-1462h-107l-930 1352h-4v-1352h-90v1462zM647 1597l-235 287h77l199 -235l201 235h78l-238 -287h-82z" />
    <glyph glyph-name="ncaron" unicode="&#x148;" 
d="M115 1053h78v-226h4q39 114 142 182t214 68q112 -1 177 -23q204 -71 216 -326q2 -44 2 -77v-651h-78v666q0 134 -36 200t-96 105t-158 39t-168 -33q-142 -67 -194 -231q-26 -81 -25 -177v-569h-78v1053zM492 1208l-236 287h78l198 -235l201 235h78l-238 -287h-81z" />
    <glyph glyph-name="Omacron" unicode="&#x14c;" horiz-adv-x="1517" 
d="M760 1497q321 0 508 -217q186 -217 186 -548t-187 -548t-507 -219q-164 -1 -294 59q-259 119 -355 407q-47 140 -48 300q0 160 48 300q97 288 355 407q130 59 294 59zM1364 731q0 293 -166 491q-166 197 -440 197q-275 0 -440 -197q-164 -197 -164 -490t165 -491
t441 -198t444 204q160 191 160 484zM514 1696v67h496v-67h-496z" />
    <glyph glyph-name="omacron" unicode="&#x14d;" horiz-adv-x="1099" 
d="M66 524q0 234 128 394q128 159 354 159q227 0 356 -160q128 -160 128 -393t-129 -391t-353 -158q-225 0 -355 158q-129 157 -129 391zM143 526q0 -94 27 -181q58 -187 205 -262q76 -40 174 -40q189 0 298 144t108 341t-109 340q-108 142 -297 142q-190 0 -298 -144
t-108 -340zM303 1307v67h496v-67h-496z" />
    <glyph glyph-name="Obreve" unicode="&#x14e;" horiz-adv-x="1517" 
d="M760 1497q321 0 508 -217q186 -217 186 -548t-187 -548t-507 -219q-164 -1 -294 59q-259 119 -355 407q-47 140 -48 300q0 160 48 300q97 288 355 407q130 59 294 59zM1364 731q0 293 -166 491q-166 197 -440 197q-275 0 -440 -197q-164 -197 -164 -490t165 -491
t441 -198t444 204q160 191 160 484zM758 1618q-109 0 -187 64t-92 182h68q22 -92 91 -145q45 -33 126 -33q80 0 134 49t69 129h67q-13 -103 -89 -174q-78 -72 -187 -72z" />
    <glyph glyph-name="obreve" unicode="&#x14f;" horiz-adv-x="1099" 
d="M66 524q0 234 128 394q128 159 354 159q227 0 356 -160q128 -160 128 -393t-129 -391t-353 -158q-225 0 -355 158q-129 157 -129 391zM143 526q0 -94 27 -181q58 -187 205 -262q76 -40 174 -40q189 0 298 144t108 341t-109 340q-108 142 -297 142q-190 0 -298 -144
t-108 -340zM547 1229q-109 1 -187 65t-92 181h68q22 -92 91 -145q43 -31 124 -33q82 -1 136 49t69 129h67q-13 -103 -89 -174q-78 -72 -187 -72z" />
    <glyph glyph-name="Ohungarumlaut" unicode="&#x150;" horiz-adv-x="1517" 
d="M760 1497q321 0 508 -217q186 -217 186 -548t-187 -548t-507 -219q-164 -1 -294 59q-259 119 -355 407q-47 140 -48 300q0 160 48 300q97 288 355 407q130 59 294 59zM1364 731q0 293 -166 491q-166 197 -440 197q-275 0 -440 -197q-164 -197 -164 -490t165 -491
t441 -198t444 204q160 191 160 484zM559 1599l246 287h104l-274 -287h-76zM883 1599l245 287h105l-275 -287h-75z" />
    <glyph glyph-name="ohungarumlaut" unicode="&#x151;" horiz-adv-x="1099" 
d="M66 524q0 234 128 394q128 159 354 159q227 0 356 -160q128 -160 128 -393t-129 -391t-353 -158q-225 0 -355 158q-129 157 -129 391zM143 526q0 -94 27 -181q58 -187 205 -262q76 -40 174 -40q189 0 298 144t108 341t-109 340q-108 142 -297 142q-190 0 -298 -144
t-108 -340zM344 1210l246 287h104l-274 -287h-76zM668 1210l245 287h105l-275 -287h-75z" />
    <glyph glyph-name="OE" unicode="&#x152;" horiz-adv-x="2162" 
d="M1174 1184q0 54 -112.5 144.5t-281.5 90.5q-168 0 -281.5 -56t-190.5 -151.5t-115.5 -221.5t-38.5 -344t151.5 -410.5t437.5 -192.5q157 0 258 55q105 52 139 96t34 66v924zM1264 799h774v-78h-774v-643h868v-78h-958v135h-5q-51 -66 -160.5 -118t-272.5 -52
q-315 0 -494 215.5t-179 543.5t133.5 488t262.5 222.5t269 62.5q288 0 446 -170v135h954v-78h-864v-585z" />
    <glyph glyph-name="oe" unicode="&#x153;" horiz-adv-x="1820" 
d="M745 931.5q-127 78.5 -231 78.5q-194 0 -282.5 -149.5t-88.5 -349.5t93.5 -334t283.5 -134q102 0 227 78.5t125 405.5q0 326 -127 404.5zM175 128q-109 153 -109 389t114 398t340 162q154 0 255.5 -82t133.5 -229h4q84 311 408 311q225 0 336 -163t98 -398h-805
q-13 -198 81.5 -335.5t289.5 -137.5q145 0 230 84t118 219h78q-37 -168 -142.5 -269.5t-277.5 -101.5t-279.5 81t-136.5 229h-4q-84 -310 -393 -310q-230 0 -339 153zM1677 584q0 177 -93.5 301.5t-268.5 124.5t-272 -126t-93 -300h727z" />
    <glyph glyph-name="Racute" unicode="&#x154;" horiz-adv-x="1290" 
d="M739 743q263 0 344 185q29 63 29 148q0 86 -31 144q-87 164 -342 164h-520v-641h520zM129 1462h610q327 0 427 -198q36 -72 36 -199t-83 -228t-230 -126v-4q216 -26 264 -204q27 -100 27 -191q0 -90 2 -142q5 -124 41 -170h-101q-31 57 -32 150q-2 94 -1 150t-5 110
q-22 184 -185 235q-63 20 -160 21h-520v-666h-90v1462zM799 1884h104l-274 -287h-76z" />
    <glyph glyph-name="racute" unicode="&#x155;" horiz-adv-x="569" 
d="M193 819h6q28 101 141 172t262 68v-78q-61 8 -140 -12t-151 -90q-63 -68 -89 -130q-26 -63 -29 -174v-575h-78v1053h78v-234zM360 1495h105l-275 -287h-75z" />
    <glyph glyph-name="Rcommaaccent" unicode="&#x156;" horiz-adv-x="1290" 
d="M739 743q263 0 344 185q29 63 29 148q0 86 -31 144q-87 164 -342 164h-520v-641h520zM129 1462h610q327 0 427 -198q36 -72 36 -199t-83 -228t-230 -126v-4q216 -26 264 -204q27 -100 27 -191q0 -90 2 -142q5 -124 41 -170h-101q-31 57 -32 150q-2 94 -1 150t-5 110
q-22 184 -185 235q-63 20 -160 21h-520v-666h-90v1462zM598 -293v191h117v-164q0 -129 -129 -135v41q56 12 63 67h-51z" />
    <glyph glyph-name="rcommaaccent" unicode="&#x157;" horiz-adv-x="569" 
d="M193 819h6q28 101 141 172t262 68v-78q-61 8 -140 -12t-151 -90q-63 -68 -89 -130q-26 -63 -29 -174v-575h-78v1053h78v-234zM106 -293v191h117v-164q0 -129 -129 -135v41q55 12 64 67h-52z" />
    <glyph glyph-name="Rcaron" unicode="&#x158;" horiz-adv-x="1290" 
d="M739 743q263 0 344 185q29 63 29 148q0 86 -31 144q-87 164 -342 164h-520v-641h520zM129 1462h610q327 0 427 -198q36 -72 36 -199t-83 -228t-230 -126v-4q216 -26 264 -204q27 -100 27 -191q0 -90 2 -142q5 -124 41 -170h-101q-31 57 -32 150q-2 94 -1 150t-5 110
q-22 184 -185 235q-63 20 -160 21h-520v-666h-90v1462zM559 1597l-235 287h77l199 -235l201 235h78l-238 -287h-82z" />
    <glyph glyph-name="rcaron" unicode="&#x159;" horiz-adv-x="569" 
d="M193 819h6q28 101 141 172t262 68v-78q-61 8 -140 -12t-151 -90q-63 -68 -89 -130q-26 -63 -29 -174v-575h-78v1053h78v-234zM297 1208l-236 287h78l199 -235l201 235h77l-237 -287h-82z" />
    <glyph glyph-name="Sacute" unicode="&#x15a;" horiz-adv-x="1290" 
d="M213 1109q0 -89 43 -144q77 -98 272 -144q90 -21 184 -39q230 -46 342 -113q156 -97 156 -298t-173 -314q-141 -92 -341 -92q-435 0 -570 279q-48 98 -46 239h90q-11 -223 147 -340q140 -100 392 -100q253 0 369 174q42 63 42 157q0 165 -156 248q-99 50 -339 97
q-240 46 -328 99q-88 52 -131 119t-43 171t44 179q83 141 272 189q190 48 389 -5q326 -86 346 -427h-91q-8 181 -135 279t-334 96q-259 -1 -362 -161q-39 -60 -39 -149zM844 1884h104l-274 -287h-76z" />
    <glyph glyph-name="sacute" unicode="&#x15b;" horiz-adv-x="985" 
d="M366 64q62 -20 163 -21q101 0 170 34t102 78q33 43 33 111q0 120 -113 174q-51 25 -116 39q-65 15 -133 29q-177 38 -249 83q-114 71 -113 215q1 143 124 214q99 57 258 57q272 0 359 -182q30 -63 30 -154h-78q0 134 -84 200t-227 69q-198 0 -276 -109q-28 -39 -28 -98
t31 -98q56 -70 194 -101q62 -14 133 -28q188 -38 248 -80t89 -95t29 -137q-1 -149 -138 -228q-102 -59 -281 -60q-180 -1 -298 98t-121 276h78q4 -74 32 -130q59 -115 182 -156zM684 1495h104l-274 -287h-76z" />
    <glyph glyph-name="Scircumflex" unicode="&#x15c;" horiz-adv-x="1290" 
d="M213 1109q0 -89 43 -144q77 -98 272 -144q90 -21 184 -39q230 -46 342 -113q156 -97 156 -298t-173 -314q-141 -92 -341 -92q-435 0 -570 279q-48 98 -46 239h90q-11 -223 147 -340q140 -100 392 -100q253 0 369 174q42 63 42 157q0 165 -156 248q-99 50 -339 97
q-240 46 -328 99q-88 52 -131 119t-43 171t44 179q83 141 272 189q190 48 389 -5q326 -86 346 -427h-91q-8 181 -135 279t-334 96q-259 -1 -362 -161q-39 -60 -39 -149zM690 1884l238 -287h-78l-201 236l-198 -236h-78l235 287h82z" />
    <glyph glyph-name="scircumflex" unicode="&#x15d;" horiz-adv-x="985" 
d="M366 64q62 -20 163 -21q101 0 170 34t102 78q33 43 33 111q0 120 -113 174q-51 25 -116 39q-65 15 -133 29q-177 38 -249 83q-114 71 -113 215q1 143 124 214q99 57 258 57q272 0 359 -182q30 -63 30 -154h-78q0 134 -84 200t-227 69q-198 0 -276 -109q-28 -39 -28 -98
t31 -98q56 -70 194 -101q62 -14 133 -28q188 -38 248 -80t89 -95t29 -137q-1 -149 -138 -228q-102 -59 -281 -60q-180 -1 -298 98t-121 276h78q4 -74 32 -130q59 -115 182 -156zM549 1495l237 -287h-77l-201 236l-199 -236h-78l236 287h82z" />
    <glyph glyph-name="Scedilla" unicode="&#x15e;" horiz-adv-x="1290" 
d="M613 -156q-34 0 -89 -24l-32 26l92 125q-340 30 -423 200.5t-81 311.5h90q-11 -224 137.5 -332t388.5 -108q162 0 293 81.5t131 250.5q0 168 -126 231.5t-295 96.5q-170 34 -260.5 58.5t-160 66.5t-112.5 109t-43 217.5t147.5 246.5t343.5 96q379 0 466 -166t94 -287h-91
q-8 183 -133.5 279t-335.5 96q-259 0 -330 -110.5t-71 -199.5t43 -144.5t112.5 -89t159.5 -54.5t184 -39q234 -46 366 -128.5t132 -282.5t-156 -303t-358 -103q-27 0 -51 2l-67 -82l4 -4q102 44 164.5 -4.5t62.5 -120t-49.5 -114.5t-155.5 -43t-184 51l22 49
q35 -16 73 -30.5t89 -14.5t89 23.5t38 71.5t-24.5 66.5t-42 23.5t-51.5 5z" />
    <glyph glyph-name="scedilla" unicode="&#x15f;" horiz-adv-x="985" 
d="M478 -156q-34 0 -89 -24l-33 26l97 131q-154 10 -264.5 102.5t-114.5 270.5h78q8 -140 104 -223.5t244 -83.5q217 0 275.5 78t58.5 145.5t-31 108.5t-82 65.5t-115.5 39t-186.5 40t-215 83.5t-93 203q0 144 112 207.5t269 63.5q273 0 331 -123t58 -213h-78
q0 136 -85.5 202.5t-225.5 66.5q-198 0 -251 -74t-53 -133t31 -98t81 -63t112.5 -38t133.5 -28q184 -38 274.5 -98.5t90.5 -212.5q0 -151 -114.5 -216.5t-278.5 -73.5l-76 -90l4 -4q103 44 165.5 -4.5t62.5 -120t-49.5 -114.5t-155.5 -43t-184 51l22 49q35 -16 73 -30.5
t89 -14.5t89 23.5t38 71.5t-24.5 66.5t-42 23.5t-51.5 5z" />
    <glyph glyph-name="Scaron" unicode="&#x160;" horiz-adv-x="1290" 
d="M213 1109q0 -89 43 -144q77 -98 272 -144q90 -21 184 -39q230 -46 342 -113q156 -97 156 -298t-173 -314q-141 -92 -341 -92q-435 0 -570 279q-48 98 -46 239h90q-11 -223 147 -340q140 -100 392 -100q253 0 369 174q42 63 42 157q0 165 -156 248q-99 50 -339 97
q-240 46 -328 99q-88 52 -131 119t-43 171t44 179q83 141 272 189q190 48 389 -5q326 -86 346 -427h-91q-8 181 -135 279t-334 96q-259 -1 -362 -161q-39 -60 -39 -149zM612 1597l-235 287h78l198 -235l201 235h78l-238 -287h-82z" />
    <glyph glyph-name="scaron" unicode="&#x161;" horiz-adv-x="985" 
d="M366 64q62 -20 163 -21q101 0 170 34t102 78q33 43 33 111q0 120 -113 174q-51 25 -116 39q-65 15 -133 29q-177 38 -249 83q-114 71 -113 215q1 143 124 214q99 57 258 57q272 0 359 -182q30 -63 30 -154h-78q0 134 -84 200t-227 69q-198 0 -276 -109q-28 -39 -28 -98
t31 -98q56 -70 194 -101q62 -14 133 -28q188 -38 248 -80t89 -95t29 -137q-1 -149 -138 -228q-102 -59 -281 -60q-180 -1 -298 98t-121 276h78q4 -74 32 -130q59 -115 182 -156zM463 1208l-236 287h78l199 -235l201 235h77l-237 -287h-82z" />
    <glyph glyph-name="Tcommaaccent" unicode="&#x162;" 
d="M-29 1384v78h1121v-78h-517v-1384h-90v1384h-514zM479 -293v191h117v-164q0 -129 -129 -135v41q56 12 63 67h-51z" />
    <glyph glyph-name="tcommaaccent" unicode="&#x163;" horiz-adv-x="530" 
d="M502 985h-230v-735q0 -119 55 -152q55 -34 173 -30v-68q-146 -10 -215 32q-99 60 -90 218v735h-195v68h195v327h77v-327h230v-68zM274 -293v191h117v-164q0 -129 -129 -135v41q55 12 64 67h-52z" />
    <glyph glyph-name="Tcaron" unicode="&#x164;" 
d="M-29 1384v78h1121v-78h-517v-1384h-90v1384h-514zM489 1597l-235 287h78l198 -235l201 235h78l-238 -287h-82z" />
    <glyph glyph-name="tcaron" unicode="&#x165;" horiz-adv-x="622" 
d="M612 1462h105l-178 -286h-60zM502 985h-230v-735q0 -119 55 -152q55 -34 173 -30v-68q-146 -10 -215 32q-99 60 -90 218v735h-195v68h195v327h77v-327h230v-68z" />
    <glyph glyph-name="Tbar" unicode="&#x166;" 
d="M-29 1384v78h1121v-78h-517v-393h326v-67h-326v-924h-90v924h-325v67h325v393h-514z" />
    <glyph glyph-name="tbar" unicode="&#x167;" horiz-adv-x="530" 
d="M502 985h-230v-276h246v-68h-246v-391q0 -119 54 -152.5t174 -29.5v-68q-145 -10 -229.5 40t-75.5 210v391h-207v68h207v276h-195v68h195v327h77v-327h230v-68z" />
    <glyph glyph-name="Utilde" unicode="&#x168;" horiz-adv-x="1376" 
d="M678 -35q-549 0 -549 621v876h90v-876q0 -415 278 -515q75 -28 195 -28q469 0 465 543v876h90v-876q0 -621 -569 -621zM844 1704q38 0 60 38t26 79h59q-9 -83 -35 -116q-51 -67 -110 -68q-58 -1 -136 49q-79 50 -103 58q-25 9 -59 9t-58 -35t-31 -82h-60q4 71 46 127
t106 57t149 -53q37 -23 73 -43t73 -20z" />
    <glyph glyph-name="utilde" unicode="&#x169;" 
d="M948 0h-78v225h-4q-38 -113 -140 -180t-216 -69q-264 -3 -347 164q-41 79 -45 154q-3 75 -3 107v652h78v-666q-1 -134 35 -200t96 -105t158 -39q184 0 287 122t101 318v570h78v-1053zM684 1315q38 0 60 38t26 79h59q-9 -83 -35 -116q-51 -67 -110 -68q-58 -2 -136 48
q-79 50 -103 59q-25 9 -59 9t-58 -35t-31 -82h-59q4 74 46 129q42 54 105 55t125 -37t98 -59q36 -20 72 -20z" />
    <glyph glyph-name="Umacron" unicode="&#x16a;" horiz-adv-x="1376" 
d="M678 -35q-549 0 -549 621v876h90v-876q0 -415 278 -515q75 -28 195 -28q469 0 465 543v876h90v-876q0 -621 -569 -621zM440 1696v67h496v-67h-496z" />
    <glyph glyph-name="umacron" unicode="&#x16b;" 
d="M948 0h-78v225h-4q-38 -113 -140 -180t-216 -69q-264 -3 -347 164q-41 79 -45 154q-3 75 -3 107v652h78v-666q-1 -134 35 -200t96 -105t158 -39q184 0 287 122t101 318v570h78v-1053zM287 1307v67h495v-67h-495z" />
    <glyph glyph-name="Ubreve" unicode="&#x16c;" horiz-adv-x="1376" 
d="M678 -35q-549 0 -549 621v876h90v-876q0 -415 278 -515q75 -28 195 -28q469 0 465 543v876h90v-876q0 -621 -569 -621zM692 1686q80 0 134 49t69 129h68q-12 -102 -90 -174q-77 -72 -187 -72q-108 0 -186 64t-92 182h67q22 -92 91 -145q46 -33 126 -33z" />
    <glyph glyph-name="ubreve" unicode="&#x16d;" 
d="M948 0h-78v225h-4q-38 -113 -140 -180t-216 -69q-264 -3 -347 164q-41 79 -45 154q-3 75 -3 107v652h78v-666q-1 -134 35 -200t96 -105t158 -39q184 0 287 122t101 318v570h78v-1053zM525 1229q-109 1 -187 65t-92 181h67q22 -92 91 -145q43 -31 124 -33q82 -1 136 49
t69 129h68q-12 -101 -89 -173q-77 -73 -187 -73z" />
    <glyph glyph-name="Uring" unicode="&#x16e;" horiz-adv-x="1376" 
d="M678 -35q-549 0 -549 621v876h90v-876q0 -415 278 -515q75 -28 195 -28q469 0 465 543v876h90v-876q0 -621 -569 -621zM475 1741q1 86 59 144q58 59 144 59t144 -58t58 -145t-58 -145t-144 -58t-144 58t-59 145zM530 1741q0 -61 43 -105t105 -43q62 0 104 43
q43 42 43 104t-43 105t-104 43q-60 0 -104 -43t-44 -104z" />
    <glyph glyph-name="uring" unicode="&#x16f;" 
d="M948 0h-78v225h-4q-38 -113 -140 -180t-216 -69q-264 -3 -347 164q-41 79 -45 154q-3 75 -3 107v652h78v-666q-1 -134 35 -200t96 -105t158 -39q184 0 287 122t101 318v570h78v-1053zM326 1372q0 86 58 144t144 59q86 0 144 -58q58 -59 59 -145q0 -86 -58 -144
q-59 -58 -145 -58t-144 58t-58 144zM381 1372q0 -61 43 -104t104 -43t105 43q43 43 43 104q0 60 -43 104t-105 44t-104 -44q-43 -44 -43 -104z" />
    <glyph glyph-name="Uhungarumlaut" unicode="&#x170;" horiz-adv-x="1376" 
d="M678 -35q-549 0 -549 621v876h90v-876q0 -415 278 -515q75 -28 195 -28q469 0 465 543v876h90v-876q0 -621 -569 -621zM467 1599l246 287h104l-274 -287h-76zM791 1599l245 287h105l-275 -287h-75z" />
    <glyph glyph-name="uhungarumlaut" unicode="&#x171;" 
d="M948 0h-78v225h-4q-38 -113 -140 -180t-216 -69q-264 -3 -347 164q-41 79 -45 154q-3 75 -3 107v652h78v-666q-1 -134 35 -200t96 -105t158 -39q184 0 287 122t101 318v570h78v-1053zM317 1210l246 287h105l-275 -287h-76zM641 1210l246 287h104l-274 -287h-76z" />
    <glyph glyph-name="Uogonek" unicode="&#x172;" horiz-adv-x="1376" 
d="M692 43q465 0 465 543v876h90v-876q1 -445 -285 -568q-100 -43 -225 -51q-25 -27 -45 -47q-58 -69 -71 -105t-13 -70t27 -56.5t63 -22.5t62 15.5t55 56.5l47 -17q-54 -122 -168 -122q-115 0 -145.5 47t-30.5 92q0 117 160 227q-549 0 -549 621v876h90v-876
q0 -413 176 -478t297 -65z" />
    <glyph glyph-name="uogonek" unicode="&#x173;" 
d="M758 -248q0 -41 26.5 -63.5t63.5 -22.5t62.5 15.5t54.5 56.5l47 -17q-54 -122 -168 -122q-115 0 -145.5 47t-30.5 82q0 100 83 174q60 53 119 98v225h-4q-38 -113 -142 -181.5t-216 -68.5t-176 22.5t-122 75t-76.5 140t-18.5 188.5v652h78v-666q0 -136 35.5 -201
t95.5 -104t158 -39q184 0 286 121t102 319v570h78v-1053q-190 -136 -190 -248z" />
    <glyph glyph-name="Wcircumflex" unicode="&#x174;" horiz-adv-x="1820" 
d="M-12 1462h92l381 -1366h4l387 1366h113l393 -1366h4l375 1366h96l-420 -1462h-102l-402 1384h-4l-395 -1384h-100zM948 1884l238 -287h-78l-201 236l-198 -236h-78l235 287h82z" />
    <glyph glyph-name="wcircumflex" unicode="&#x175;" horiz-adv-x="1441" 
d="M377 90h4l287 963h104l289 -963h4l295 963h86l-338 -1053h-96l-289 954h-4l-291 -954h-98l-334 1053h84zM762 1495l237 -287h-77l-201 236l-199 -236h-78l236 287h82z" />
    <glyph glyph-name="Ycircumflex" unicode="&#x176;" horiz-adv-x="1175" 
d="M631 0h-90v612l-584 850h102l529 -774l530 774h101l-588 -850v-612zM631 1884l237 -287h-77l-201 236l-199 -236h-78l236 287h82z" />
    <glyph glyph-name="ycircumflex" unicode="&#x177;" horiz-adv-x="909" 
d="M100 -377v68q84 0 131 13t79 45t57 92t61 165l-440 1047h92l391 -961l360 961h89l-451 -1166q-33 -78 -61 -134t-65 -86q-38 -30 -95 -37t-148 -7zM512 1495l238 -287h-78l-201 236l-199 -236h-77l235 287h82z" />
    <glyph glyph-name="Ydieresis" unicode="&#x178;" horiz-adv-x="1175" 
d="M631 0h-90v612l-584 850h102l529 -774l530 774h101l-588 -850v-612zM381 1624v211h90v-211h-90zM705 1624v211h90v-211h-90z" />
    <glyph glyph-name="Zacute" unicode="&#x179;" horiz-adv-x="1099" 
d="M57 1462h1026v-78l-991 -1306h1010v-78h-1104v78l987 1306h-928v78zM754 1884h104l-274 -287h-76z" />
    <glyph glyph-name="zacute" unicode="&#x17a;" horiz-adv-x="872" 
d="M854 68v-68h-836v74l707 911h-651v68h747v-74l-708 -911h741zM637 1495h104l-274 -287h-76z" />
    <glyph glyph-name="Zdotaccent" unicode="&#x17b;" horiz-adv-x="1099" 
d="M57 1462h1026v-78l-991 -1306h1010v-78h-1104v78l987 1306h-928v78zM514 1624v211h90v-211h-90z" />
    <glyph glyph-name="zdotaccent" unicode="&#x17c;" horiz-adv-x="872" 
d="M854 68v-68h-836v74l707 911h-651v68h747v-74l-708 -911h741zM406 1235v211h90v-211h-90z" />
    <glyph glyph-name="Zcaron" unicode="&#x17d;" horiz-adv-x="1099" 
d="M57 1462h1026v-78l-991 -1306h1010v-78h-1104v78l987 1306h-928v78zM506 1597l-236 287h78l199 -235l201 235h77l-237 -287h-82z" />
    <glyph glyph-name="zcaron" unicode="&#x17e;" horiz-adv-x="872" 
d="M854 68v-68h-836v74l707 911h-651v68h747v-74l-708 -911h741zM391 1208l-235 287h77l199 -235l201 235h78l-238 -287h-82z" />
    <glyph glyph-name="florin" unicode="&#x192;" horiz-adv-x="1138" 
d="M127 -299q163 0 215 283l162 827h-230l15 68h227l68 346q37 189 133 230.5t168 41.5t125 -12l-17 -78q-66 12 -126 12t-118.5 -46t-80.5 -159l-66 -335h246l-10 -68h-248l-164 -838q-26 -138 -67.5 -206t-98 -106t-124.5 -38t-126 12l15 76q67 -10 102 -10z" />
    <glyph glyph-name="Scommaaccent" unicode="&#x218;" horiz-adv-x="1290" 
d="M213 1109q0 -89 43 -144q77 -98 272 -144q90 -21 184 -39q230 -46 342 -113q156 -97 156 -298t-173 -314q-141 -92 -341 -92q-435 0 -570 279q-48 98 -46 239h90q-11 -223 147 -340q140 -100 392 -100q253 0 369 174q42 63 42 157q0 165 -156 248q-99 50 -339 97
q-240 46 -328 99q-88 52 -131 119t-43 171t44 179q83 141 272 189q190 48 389 -5q326 -86 346 -427h-91q-8 181 -135 279t-334 96q-259 -1 -362 -161q-39 -60 -39 -149zM612 -293v191h117v-164q0 -129 -129 -135v41q55 12 64 67h-52z" />
    <glyph glyph-name="scommaaccent" unicode="&#x219;" horiz-adv-x="985" 
d="M366 64q62 -20 163 -21q101 0 170 34t102 78q33 43 33 111q0 120 -113 174q-51 25 -116 39q-65 15 -133 29q-177 38 -249 83q-114 71 -113 215q1 143 124 214q99 57 258 57q272 0 359 -182q30 -63 30 -154h-78q0 134 -84 200t-227 69q-198 0 -276 -109q-28 -39 -28 -98
t31 -98q56 -70 194 -101q62 -14 133 -28q188 -38 248 -80t89 -95t29 -137q-1 -149 -138 -228q-102 -59 -281 -60q-180 -1 -298 98t-121 276h78q4 -74 32 -130q59 -115 182 -156zM459 -293v191h116v-164q0 -129 -129 -135v41q55 12 64 67h-51z" />
    <glyph glyph-name="uni021A" unicode="&#x21a;" 
d="M-29 1384v78h1121v-78h-517v-1384h-90v1384h-514zM479 -293v191h117v-164q0 -129 -129 -135v41q56 12 63 67h-51z" />
    <glyph glyph-name="uni021B" unicode="&#x21b;" horiz-adv-x="530" 
d="M502 985h-230v-735q0 -119 55 -152q55 -34 173 -30v-68q-146 -10 -215 32q-99 60 -90 218v735h-195v68h195v327h77v-327h230v-68zM274 -293v191h117v-164q0 -129 -129 -135v41q55 12 64 67h-52z" />
    <glyph glyph-name="circumflex" unicode="&#x2c6;" horiz-adv-x="342" 
d="M211 1495l238 -287h-78l-201 236l-199 -236h-77l235 287h82z" />
    <glyph glyph-name="caron" unicode="&#x2c7;" horiz-adv-x="342" 
d="M129 1208l-235 287h77l199 -235l201 235h78l-238 -287h-82z" />
    <glyph glyph-name="uni02C9" unicode="&#x2c9;" horiz-adv-x="342" 
d="M-76 1307v67h496v-67h-496z" />
    <glyph glyph-name="breve" unicode="&#x2d8;" horiz-adv-x="342" 
d="M179 1296q79 0 133.5 49.5t68.5 129.5h68q-12 -101 -89 -173.5t-187 -72.5t-187.5 64.5t-91.5 181.5h67q22 -94 80.5 -136.5t137.5 -42.5z" />
    <glyph glyph-name="dotaccent" unicode="&#x2d9;" horiz-adv-x="342" 
d="M125 1235v211h90v-211h-90z" />
    <glyph glyph-name="ring" unicode="&#x2da;" horiz-adv-x="342" 
d="M-33 1372q0 86 58.5 144.5t144.5 58.5t144.5 -58.5t58.5 -144.5t-58.5 -144.5t-144.5 -58.5t-144.5 58.5t-58.5 144.5zM23 1372.5q0 -61.5 43 -104.5t104 -43t104 43t43 104.5t-43 104.5t-104 43t-104 -43t-43 -104.5z" />
    <glyph glyph-name="ogonek" unicode="&#x2db;" horiz-adv-x="342" 
d="M102 -248q0 -41 27 -63.5t63 -22.5t62.5 15.5t54.5 56.5l47 -17q-54 -122 -168 -122q-115 0 -145.5 47t-30.5 82q0 64 41.5 125t167.5 147h49q-168 -148 -168 -248z" />
    <glyph glyph-name="tilde" unicode="&#x2dc;" horiz-adv-x="342" 
d="M31 1364q-75 0 -97 -117h-59q4 71 35 111.5t58.5 57t64.5 16.5t71.5 -15.5t71.5 -38t73.5 -43t72.5 -20.5t58.5 38t27.5 79h59q-9 -79 -48 -132t-97 -53q-58 -1 -136 49q-79 50 -103 59t-52 9z" />
    <glyph glyph-name="hungarumlaut" unicode="&#x2dd;" horiz-adv-x="342" 
d="M-115 1210l246 287h105l-275 -287h-76zM209 1210l246 287h104l-274 -287h-76z" />
    <glyph glyph-name="uni0394" unicode="&#x394;" horiz-adv-x="1308" 
d="M29 0l587 1458h70l596 -1458h-1253zM649 1366l-516 -1294h1038z" />
    <glyph glyph-name="uni03A9" unicode="&#x3a9;" horiz-adv-x="1497" 
d="M903 0v340q188 31 292.5 172t104.5 338q0 236 -162 396.5t-395 160.5t-395 -162t-162 -395q0 -196 107.5 -341.5t292.5 -168.5v-340h-475v68h409v215q-198 54 -302.5 209t-104.5 360q0 131 49 245.5t135 198.5t200.5 132.5t311 48.5t381 -180.5t184.5 -442.5
q0 -322 -152.5 -431.5t-252.5 -139.5v-215h405v-68h-471z" />
    <glyph glyph-name="uni03BC" unicode="&#x3bc;" 
d="M489 -25q-202 0 -292 115h-4v-467h-78v1430h78v-666q0 -136 35.5 -201t95.5 -104t158 -39q184 0 286 121t102 319v570h78v-1053h-78v225h-4q-38 -113 -142 -181.5t-235 -68.5z" />
    <glyph glyph-name="pi" unicode="&#x3c0;" horiz-adv-x="1138" 
d="M964 -10q-85 0 -106.5 53t-21.5 158v684h-586v-885h-74v885h-143v65h1032v-65h-156v-397q0 -396 22.5 -413.5t61.5 -17.5t82 27v-64q-67 -30 -111 -30z" />
    <glyph glyph-name="endash" unicode="&#x2013;" horiz-adv-x="1024" 
d="M0 596h1024v-78h-1024v78z" />
    <glyph glyph-name="emdash" unicode="&#x2014;" horiz-adv-x="2048" 
d="M266 596h1516v-78h-1516v78z" />
    <glyph glyph-name="quoteleft" unicode="&#x2018;" horiz-adv-x="417" 
d="M223 1204h43v-211h-104v211q0 210 131 258v-67q-36 -16 -53 -71t-17 -120z" />
    <glyph glyph-name="quoteright" unicode="&#x2019;" horiz-adv-x="417" 
d="M256 1251q0 -208 -131 -258v68q37 16 53.5 73.5t16.5 116.5h-43v211h104v-211z" />
    <glyph glyph-name="quotesinglbase" unicode="&#x201a;" horiz-adv-x="417" 
d="M256 0q0 -208 -131 -258v68q37 16 53.5 72.5t16.5 117.5h-43v211h104v-211z" />
    <glyph glyph-name="quotedblleft" unicode="&#x201c;" horiz-adv-x="645" 
d="M193 1204h43v-211h-105v211q0 210 131 258v-67q-69 -30 -69 -191zM451 1204h43v-211h-105v211q0 210 131 258v-67q-69 -30 -69 -191z" />
    <glyph glyph-name="quotedblright" unicode="&#x201d;" horiz-adv-x="645" 
d="M514 1251q0 -208 -131 -258v68q37 16 53.5 71t16.5 119h-43v211h104v-211zM256 1251q0 -208 -131 -258v68q37 16 53.5 73.5t16.5 116.5h-43v211h104v-211z" />
    <glyph glyph-name="quotedblbase" unicode="&#x201e;" horiz-adv-x="645" 
d="M514 0q0 -208 -131 -258v68q70 30 70 190h-43v211h104v-211zM256 0q0 -208 -131 -258v68q37 16 53.5 72.5t16.5 117.5h-43v211h104v-211z" />
    <glyph glyph-name="dagger" unicode="&#x2020;" horiz-adv-x="1138" 
d="M530 1053v409h78v-409h420v-68h-420v-1284h-78v1284h-419v68h419z" />
    <glyph glyph-name="daggerdbl" unicode="&#x2021;" horiz-adv-x="1138" 
d="M608 1462v-409h420v-68h-420v-807h420v-67h-420v-410h-78v410h-419v67h419v807h-419v68h419v409h78z" />
    <glyph glyph-name="bullet" unicode="&#x2022;" horiz-adv-x="1024" 
d="M147 731q0 76 29 142.5t78 115.5t115.5 78t142.5 29t142.5 -29t116.5 -78t79 -115.5t29 -142.5t-29 -142.5t-79 -116.5t-116.5 -78.5t-142.5 -28.5t-142.5 28.5t-115.5 78.5t-78 116.5t-29 142.5z" />
    <glyph glyph-name="ellipsis" unicode="&#x2026;" horiz-adv-x="2048" 
d="M289 211h104v-211h-104v211zM971 211h104v-211h-104v211zM1653 211h104v-211h-104v211z" />
    <glyph glyph-name="perthousand" unicode="&#x2030;" horiz-adv-x="2199" 
d="M1167 1462h82l-952 -1511h-82zM843.5 71.5q-77.5 96.5 -77.5 248.5t87.5 250t227.5 98t224 -96.5t84 -250.5t-81.5 -250t-234.5 -96q-152 0 -229.5 96.5zM1072 43q116 0 177.5 79.5t61.5 197.5q0 119 -62.5 199.5t-176.5 80.5t-171 -79t-57 -197q0 -199 84 -240t144 -41z
M1806 -25q-158 0 -234.5 96.5t-76.5 247.5t86.5 250t226.5 99q141 0 225.5 -97.5t84.5 -246.5q0 -243 -119 -296t-193 -53zM1803 43q117 0 177 80t60 198t-62.5 198.5t-175.5 80.5t-171 -79t-58 -197q0 -198 85 -239.5t145 -41.5zM622 1342.5q83 -95.5 83 -246.5
q0 -242 -118 -296.5t-192 -54.5q-158 0 -235.5 97.5t-77.5 249.5t86.5 249t228.5 97t225 -95.5zM160 1096q0 -200 85 -241.5t145 -41.5q117 0 177 80t60 199t-61.5 198.5t-175.5 79.5t-172 -78t-58 -196z" />
    <glyph glyph-name="guilsinglleft" unicode="&#x2039;" horiz-adv-x="530" 
d="M137 516v82l234 268v-104l-174 -205l174 -209v-100z" />
    <glyph glyph-name="guilsinglright" unicode="&#x203a;" horiz-adv-x="530" 
d="M160 348l174 209l-174 205v104l233 -268v-82l-233 -268v100z" />
    <glyph glyph-name="fraction" unicode="&#x2044;" horiz-adv-x="342" 
d="M606 1462h82l-952 -1511h-82z" />
    <glyph glyph-name="Euro" unicode="&#x20ac;" horiz-adv-x="1138" 
d="M680 1438q173 0 269 -61t136 -158l-43 -78q-32 109 -124 169t-228 60q-195 0 -305 -115q-62 -62 -99.5 -164t-47.5 -210h680l-31 -68h-656q-4 -53 -4 -102t4 -95h580l-31 -67h-540q20 -195 110 -328q103 -153 208.5 -165.5t139.5 -12.5q231 0 371 160v-94
q-144 -134 -394 -134t-390 201q-108 154 -127 373h-133l30 67h99q-10 104 0 197h-129l30 68h103q14 192 129.5 374.5t392.5 182.5z" />
    <glyph glyph-name="afii61289" unicode="&#x2113;" horiz-adv-x="1024" 
d="M700 1208q0 110 -35.5 161.5t-88.5 51.5t-98.5 -64.5t-45.5 -209.5v-504q127 152 197.5 303.5t70.5 261.5zM360 215v303l-122 -139h-5l-30 39l157 170v551q0 170 65 254t149 84t136 -62.5t52 -179.5q0 -286 -330 -664v-344q0 -110 49 -153t117 -43q100 0 180 80h4l29 -39
q-100 -100 -225 -101q-155 0 -190.5 88t-35.5 156z" />
    <glyph glyph-name="trademark" unicode="&#x2122;" horiz-adv-x="2027" 
d="M827 1395h-292v-777h-66v777h-295v67h653v-67zM1853 1462v-844h-65v777h-6l-342 -777h-37l-342 777h-6v-777h-66v844h121l311 -708l312 708h120z" />
    <glyph glyph-name="Omega" unicode="&#x2126;" horiz-adv-x="1497" 
d="M903 0v340q188 31 292.5 172t104.5 338q0 236 -162 396.5t-395 160.5t-395 -162t-162 -395q0 -196 107.5 -341.5t292.5 -168.5v-340h-475v68h409v215q-198 54 -302.5 209t-104.5 360q0 131 49 245.5t135 198.5t200.5 132.5t311 48.5t381 -180.5t184.5 -442.5
q0 -322 -152.5 -431.5t-252.5 -139.5v-215h405v-68h-471z" />
    <glyph glyph-name="estimated" unicode="&#x212e;" horiz-adv-x="1228" 
d="M918 604v297q-129 123 -301.5 123t-294.5 -123v-297h596zM322 530v-370q121 -121 296 -121q129 0 223.5 58.5t172.5 187.5l71 -43q-96 -151 -202 -214t-246 -63t-237 44t-166.5 121t-106.5 179.5t-37 284t146.5 342t382.5 160.5q235 0 382.5 -159t147.5 -407h-827z" />
    <glyph glyph-name="partialdiff" unicode="&#x2202;" horiz-adv-x="948" 
d="M408 1477q252 0 356 -224.5t104 -504.5t-92 -526.5t-344 -246.5q-169 0 -273 138t-104 319q0 180 102 305t277 125q111 0 203 -55t158 -143l2 124q0 231 -89 426t-298 195q-72 0 -126.5 -25.5t-109.5 -66.5l-41 53q133 107 275 107zM436 797q-145 0 -226 -110.5
t-81 -256.5t81.5 -268.5t221.5 -122.5q98 0 212.5 98t141.5 445q-158 215 -350 215z" />
    <glyph glyph-name="Delta" unicode="&#x2206;" horiz-adv-x="1308" 
d="M29 0l587 1458h70l596 -1458h-1253zM649 1366l-516 -1294h1038z" />
    <glyph glyph-name="product" unicode="&#x220f;" horiz-adv-x="1441" 
d="M1198 -438v1976h-954v-1976h-74v2048h1102v-2048h-74z" />
    <glyph glyph-name="summation" unicode="&#x2211;" horiz-adv-x="1214" 
d="M72 -438v65l692 965l-664 950v68h1018v-72h-923l659 -946l-692 -959h981v-71h-1071z" />
    <glyph glyph-name="minus" unicode="&#x2212;" horiz-adv-x="1228" 
d="M98 477v78h1032v-78h-1032z" />
    <glyph glyph-name="uni2215" unicode="&#x2215;" horiz-adv-x="342" 
d="M606 1462h82l-952 -1511h-82z" />
    <glyph glyph-name="uni2219" unicode="&#x2219;" horiz-adv-x="569" 
d="M174 649q0 43 34 77t77 34t77.5 -33t34.5 -78t-33.5 -78.5t-78.5 -33.5t-78 34.5t-33 77.5z" />
    <glyph glyph-name="radical" unicode="&#x221a;" horiz-adv-x="948" 
d="M516 -444h-65l-365 749l-90 -43l-27 55l150 74l354 -735l416 1946h67z" />
    <glyph glyph-name="infinity" unicode="&#x221e;" horiz-adv-x="1478" 
d="M1382 503q0 -116 -68.5 -194t-200.5 -78t-232.5 93.5t-141.5 130.5q-43 -37 -145 -129.5t-228 -92.5t-198 74.5t-72 189.5t70.5 194t194 79t230.5 -96t148 -131q39 35 146 131t251 96q105 0 175.5 -75.5t70.5 -191.5zM1315 500q0 88 -49 145t-149 57t-200 -88t-133 -116
q35 -31 128.5 -115t215.5 -84q88 0 137.5 56.5t49.5 144.5zM164 498q0 -84 49 -140.5t141 -56.5q122 0 213.5 83t124.5 114q-35 29 -132.5 116.5t-219.5 87.5q-82 0 -129 -60t-47 -144z" />
    <glyph glyph-name="integral" unicode="&#x222b;" horiz-adv-x="1093" 
d="M623 1546q-88 0 -88 -391v-49l2 -975q0 -39 1 -95t-5 -165t-50 -208t-155 -99q-33 0 -58.5 17.5t-25.5 44.5t16 43t34 16q23 0 47 -27t43 -27q18 0 33 28t24.5 71t15.5 118t6 94v1113q0 37 -2 93t3.5 164.5t48.5 203t153 94.5q35 0 67.5 -16.5t32.5 -49.5t-16.5 -47
t-39 -14t-34.5 10t-20.5 21.5t-14.5 21.5t-18 10z" />
    <glyph glyph-name="approxequal" unicode="&#x2248;" horiz-adv-x="1214" 
d="M298 705q-64 0 -111.5 -53.5t-61.5 -119.5h-59q23 105 81.5 171.5t153.5 66.5t233 -53t211.5 -77t141.5 -24t115 51.5t63 116.5h55q-52 -235 -242 -235q-58 0 -135 24.5t-156 53t-152 53.5t-137 25zM879 213q-57 0 -134 24.5t-156 53t-154 53.5t-121 25q-76 0 -126 -50
t-63 -120h-59q23 104 81.5 170.5t155.5 66.5q63 0 140 -24.5t156 -53t151.5 -53t138.5 -24.5t113 52t63 118h55q-23 -105 -63.5 -151t-80.5 -66.5t-97 -20.5z" />
    <glyph glyph-name="notequal" unicode="&#x2260;" horiz-adv-x="1214" 
d="M106 272v68h377l164 307h-541v68h578l156 293l59 -31l-139 -262h348v-68h-385l-166 -307h551v-68h-586l-153 -288l-60 30l137 258h-340z" />
    <glyph glyph-name="lessequal" unicode="&#x2264;" horiz-adv-x="1214" 
d="M106 532v74l1002 410v-76l-911 -371l911 -368v-76zM106 -29v68h1002v-68h-1002z" />
    <glyph glyph-name="greaterequal" unicode="&#x2265;" horiz-adv-x="1214" 
d="M106 125v76l914 368l-914 371v76l1002 -410v-74zM106 -29v68h1002v-68h-1002z" />
    <glyph glyph-name="lozenge" unicode="&#x25ca;" horiz-adv-x="1214" 
d="M637 -72h-62l-346 801l346 801h62l348 -801zM606 1438l-303 -709l303 -709l303 709z" />
    <glyph glyph-name="uniF8FF" unicode="&#xf8ff;" horiz-adv-x="1048" 
d="M1049 1470v-1470h-1049v1470h1049zM946 102v1264h-844v-1264h844zM680 988q0 56 -46 106.5t-109.5 50.5t-109.5 -45t-59 -150l-102 17q14 145 90 212.5t186 67.5t182 -73.5t72 -194.5q0 -66 -25.5 -120t-102.5 -124t-89 -108.5t-12 -147.5h-94l-4 35q0 113 26.5 165.5
t93.5 118.5t85 100t18 90zM455 240v137h114v-137h-114z" />
    <glyph glyph-name="commaaccenttwo" horiz-adv-x="569" 
d="M326 1462v-190h-117v164q0 127 129 135v-41q-55 -12 -64 -68h52z" />
    <glyph glyph-name="commaaccent" horiz-adv-x="569" 
d="M244 -293v191h116v-164q0 -127 -129 -135v41q57 13 64 67h-51z" />
    <glyph glyph-name="carontwo" horiz-adv-x="342" 
d="M197 1462h104l-178 -286h-60z" />
    <glyph glyph-name="dotlessj" horiz-adv-x="344" 
d="M-14 -311q79 0 113 42.5t34 162.5v1159h78v-1166q0 -125 -46.5 -194.5t-142.5 -69.5h-38q-37 0 -54 2v68q20 -4 56 -4z" />
    </font>
</defs>
</svg>
